Интеллигентный торрент-трекер
canvas not supported
Нас вместе: 4 305 464

Darrell Fitton (Bola, Jello) - Discography 13 Releases (1995-2007) Skam [FLAC|Lossless|tracks+.cue, tracks] <IDM, Ambient, Abstract, Downtempo, Experimental>


 
 
RSS
Начать новую тему   Ответить на тему    Торрент-трекер NNM-Club -> Electronic -> IDM (Lossless)
Автор Сообщение
vilator ®
Модератор Музыки
RG Music
 
Стаж: 7 лет 11 мес.
Сообщений: 5696
Ratio: 125,787
Поблагодарили: 111879
100%
Откуда: Minsk
pirates.png


Даррелл Фиттон (Darrell Fitton), он же Bola - пожалуй, единственный представитель первой волны IDM, кому удаётся все это время,
то есть уже более 15 лет, не только сохранять здравый рассудок, но и целенаправленно гнуть свою музыкальную линию.

Жанр: IDM, Ambient, Abstract, Downtempo, Experimental • Страна: UK • Год издания диска: 1995-2007 • Тип издания: CD, Vinyl, WEB • Лейбл: Skam
Аудиокодек: FLAC (*.flac) • Тип рипа: tracks+.cue, tracks • Продолжительность: 09:21:24 • Источник: What • Наличие сканов: Да
Треклист:
Год выпуска: 1998
Продолжительность: 01:12:58
Треклист:

01. Glink (07:06)
02. Versivo (07:51)
03. W.I.K. (05:46)
04. Forcasa 1 (06:29)
05. Forcasa 2 (04:49)
06. Forcasa 3 (05:25)
07. Pendulus (05:45)
08. Amnion (09:32)
09. Aguilla (06:24)
10. Whoblo (13:51)

EAC extraction logfile from 10. May 2006, 15:17 for CD
Bola / Soup

Used drive : HL-DT-STCD-RW GCE-8400B Adapter: 0 ID: 1
Read mode : Secure with NO C2, accurate stream, disable cache
Read offset correction : 12
Overread into Lead-In and Lead-Out : Yes

Used output format : Internal WAV Routines
44.100 Hz; 16 Bit; Stereo

Other options :
Fill up missing offset samples with silence : Yes
Delete leading and trailing silent blocks : No
Native Win32 interface for Win NT & 2000

Track 1
Filename C:\ripping\Bola - Soup - 01 - Glink.wav

Pre-gap length 0:00:02.00

Peak level 96.5 %
Track quality 100.0 %
Test CRC 005E5843
Copy CRC 005E5843
Copy OK

Track 2
Filename C:\ripping\Bola - Soup - 02 - Versivo.wav

Pre-gap length 0:00:01.71

Peak level 96.5 %
Track quality 100.0 %
Test CRC 3C80CF8F
Copy CRC 3C80CF8F
Copy OK

Track 3
Filename C:\ripping\Bola - Soup - 03 - W.I.K..wav

Peak level 97.6 %
Track quality 100.0 %
Test CRC 72533701
Copy CRC 72533701
Copy OK

Track 4
Filename C:\ripping\Bola - Soup - 04 - Forcasa 1.wav

Peak level 91.7 %
Track quality 100.0 %
Test CRC 9102B3C2
Copy CRC 9102B3C2
Copy OK

Track 5
Filename C:\ripping\Bola - Soup - 05 - Forcasa 2.wav

Peak level 96.5 %
Track quality 100.0 %
Test CRC B82ACDDF
Copy CRC B82ACDDF
Copy OK

Track 6
Filename C:\ripping\Bola - Soup - 06 - Forcasa 3.wav

Peak level 97.3 %
Track quality 99.9 %
Test CRC 59B8C5B3
Copy CRC 59B8C5B3
Copy OK

Track 7
Filename C:\ripping\Bola - Soup - 07 - Pendulus.wav

Pre-gap length 0:00:00.50

Peak level 96.5 %
Track quality 100.0 %
Test CRC 7B29A18A
Copy CRC 7B29A18A
Copy OK

Track 8
Filename C:\ripping\Bola - Soup - 08 - Amnion.wav

Peak level 100.0 %
Track quality 100.0 %
Test CRC 91779EA1
Copy CRC 91779EA1
Copy OK

Track 9
Filename C:\ripping\Bola - Soup - 09 - Aguilla.wav

Pre-gap length 0:00:00.19

Peak level 96.5 %
Track quality 100.0 %
Test CRC 1EFB0C22
Copy CRC 1EFB0C22
Copy OK

Track 10
Filename C:\ripping\Bola - Soup - 10 - Whoblo.wav

Peak level 100.0 %
Track quality 99.9 %
Test CRC E9053FF2
Copy CRC E9053FF2
Copy OK

No errors occured

End of status report


REM GENRE Electronic
REM DATE 1998
REM DISCID 98111B0A
REM COMMENT "ExactAudioCopy v0.99pb1"
CATALOG 0000000000000
PERFORMER "Bola"
TITLE "Soup"
FILE "Bola - Soup - 01 - Glink.wav" WAVE
TRACK 01 AUDIO
TITLE "Glink"
PERFORMER "Bola"
INDEX 01 00:00:00
TRACK 02 AUDIO
TITLE "Versivo"
PERFORMER "Bola"
INDEX 00 07:04:35
FILE "Bola - Soup - 02 - Versivo.wav" WAVE
INDEX 01 00:00:00
FILE "Bola - Soup - 03 - W.I.K..wav" WAVE
TRACK 03 AUDIO
TITLE "W.I.K."
PERFORMER "Bola"
INDEX 01 00:00:00
FILE "Bola - Soup - 04 - Forcasa 1.wav" WAVE
TRACK 04 AUDIO
TITLE "Forcasa 1"
PERFORMER "Bola"
INDEX 01 00:00:00
FILE "Bola - Soup - 05 - Forcasa 2.wav" WAVE
TRACK 05 AUDIO
TITLE "Forcasa 2"
PERFORMER "Bola"
INDEX 01 00:00:00
FILE "Bola - Soup - 06 - Forcasa 3.wav" WAVE
TRACK 06 AUDIO
TITLE "Forcasa 3"
PERFORMER "Bola"
INDEX 01 00:00:00
TRACK 07 AUDIO
TITLE "Pendulus"
PERFORMER "Bola"
INDEX 00 05:24:05
FILE "Bola - Soup - 07 - Pendulus.wav" WAVE
INDEX 01 00:00:00
FILE "Bola - Soup - 08 - Amnion.wav" WAVE
TRACK 08 AUDIO
TITLE "Amnion"
PERFORMER "Bola"
INDEX 01 00:00:00
TRACK 09 AUDIO
TITLE "Aguilla"
PERFORMER "Bola"
INDEX 00 09:31:26
FILE "Bola - Soup - 09 - Aguilla.wav" WAVE
INDEX 01 00:00:00
FILE "Bola - Soup - 10 - Whoblo.wav" WAVE
TRACK 10 AUDIO
TITLE "Whoblo"
PERFORMER "Bola"
INDEX 01 00:00:00

Год выпуска: 2002
Продолжительность: 00:58:32
Треклист:

01. Vertiphon (07:24)
02. Shoob,e (04:54)
03. Pae Paoe (05:46)
04. Tibular Vader (04:46)
05. Veronex Cypher (05:21)
06. Magnasushi (07:15)
07. O, Chuma (05:51)
08. Horizophon (06:19)
09. Soleiele (04:29)
10. VM8 (06:27)

Exact Audio Copy V0.99 prebeta 4 from 23. January 2008

EAC extraction logfile from 21. November 2008, 13:28

Bola / Fyuti

Used drive : TSSTcorpDVD+-RW TS-H653B Adapter: 1 ID: 0

Read mode : Secure
Utilize accurate stream : Yes
Defeat audio cache : Yes
Make use of C2 pointers : No

Read offset correction : 6
Overread into Lead-In and Lead-Out : No
Fill up missing offset samples with silence : Yes
Delete leading and trailing silent blocks : No
Null samples used in CRC calculations : Yes
Used interface : Installed external ASPI interface
Gap handling : Appended to previous track

Used output format : User Defined Encoder
Selected bitrate : 192 kBit/s
Quality : High
Add ID3 tag : No
Command line compressor : C:\Program Files\Exact Audio Copy\Flac\flac.exe
Additional command line options : -V -8 -T "artist=%a" -T "title=%t" -T "album=%g" -T "date=%y" -T "tracknumber=%n" -T "genre=%m" %s

TOC of the extracted CD

Track | Start | Length | Start sector | End sector
---------------------------------------------------------
1 | 0:00.00 | 7:23.48 | 0 | 33272
2 | 7:23.48 | 4:53.69 | 33273 | 55316
3 | 12:17.42 | 5:45.53 | 55317 | 81244
4 | 18:03.20 | 4:46.02 | 81245 | 102696
5 | 22:49.22 | 5:20.73 | 102697 | 126769
6 | 28:10.20 | 7:14.50 | 126770 | 159369
7 | 35:24.70 | 5:50.74 | 159370 | 185693
8 | 41:15.69 | 6:18.60 | 185694 | 214103
9 | 47:34.54 | 4:29.00 | 214104 | 234278
10 | 52:03.54 | 6:26.73 | 234279 | 263301

Track 1

Filename F:\A\Bola - Fyuti [flac]\01 - Vertiphon.wav

Pre-gap length 0:00:02.00

Peak level 96.7 %
Track quality 99.9 %
Test CRC 16336C3B
Copy CRC 16336C3B
Accurately ripped (confidence 6) [135FF65B]
Copy OK

Track 2

Filename F:\A\Bola - Fyuti [flac]\02 - Shoob,e.wav

Peak level 98.2 %
Track quality 100.0 %
Test CRC F2E856C2
Copy CRC F2E856C2
Accurately ripped (confidence 6) [A874E4AC]
Copy OK

Track 3

Filename F:\A\Bola - Fyuti [flac]\03 - Pae Paoe.wav

Pre-gap length 0:00:01.64

Peak level 96.6 %
Track quality 100.0 %
Test CRC 895C90EB
Copy CRC 895C90EB
Accurately ripped (confidence 6) [C03B3C5E]
Copy OK

Track 4

Filename F:\A\Bola - Fyuti [flac]\04 - Tibular Vader.wav

Pre-gap length 0:00:01.56

Peak level 97.5 %
Track quality 100.0 %
Test CRC 04A5CCE6
Copy CRC 04A5CCE6
Accurately ripped (confidence 6) [CAB86BF2]
Copy OK

Track 5

Filename F:\A\Bola - Fyuti [flac]\05 - Veronex Cypher.wav

Pre-gap length 0:00:00.54

Peak level 96.5 %
Track quality 100.0 %
Test CRC EF071C3F
Copy CRC EF071C3F
Accurately ripped (confidence 6) [515DC8D7]
Copy OK

Track 6

Filename F:\A\Bola - Fyuti [flac]\06 - Magnasushi.wav

Pre-gap length 0:00:01.50

Peak level 96.6 %
Track quality 99.9 %
Test CRC 13DE9E01
Copy CRC 13DE9E01
Accurately ripped (confidence 6) [B249B2E8]
Copy OK

Track 7

Filename F:\A\Bola - Fyuti [flac]\07 - O, Chuma.wav

Pre-gap length 0:00:00.34

Peak level 96.6 %
Track quality 99.9 %
Test CRC 1164A950
Copy CRC 1164A950
Accurately ripped (confidence 6) [296FE7F3]
Copy OK

Track 8

Filename F:\A\Bola - Fyuti [flac]\08 - Horizophon.wav

Peak level 96.5 %
Track quality 100.0 %
Test CRC A52D9D65
Copy CRC A52D9D65
Accurately ripped (confidence 6) [48A0AF64]
Copy OK

Track 9

Filename F:\A\Bola - Fyuti [flac]\09 - Soleiele.wav

Pre-gap length 0:00:01.04

Peak level 96.5 %
Track quality 100.0 %
Test CRC BAAA0E83
Copy CRC BAAA0E83
Accurately ripped (confidence 6) [F18121D0]
Copy OK

Track 10

Filename F:\A\Bola - Fyuti [flac]\10 - VM8.wav

Pre-gap length 0:00:02.09

Peak level 96.5 %
Track quality 100.0 %
Test CRC A6064D8D
Copy CRC A6064D8D
Accurately ripped (confidence 6) [FFF64446]
Copy OK

All tracks accurately ripped

No errors occurred

End of status report


REM GENRE Electronic
REM DATE 2002
REM DISCID 8D0DB60A
REM COMMENT "ExactAudioCopy v0.99pb4"
PERFORMER "Bola"
TITLE "Fyuti"
FILE "01 - Vertiphon.wav" WAVE
TRACK 01 AUDIO
TITLE "Vertiphon"
PERFORMER "Bola"
INDEX 01 00:00:00
FILE "02 - Shoob,e.wav" WAVE
TRACK 02 AUDIO
TITLE "Shoob,e"
PERFORMER "Bola"
INDEX 01 00:00:00
TRACK 03 AUDIO
TITLE "Pae Paoe"
PERFORMER "Bola"
INDEX 00 04:52:21
FILE "03 - Pae Paoe.wav" WAVE
INDEX 01 00:00:00
TRACK 04 AUDIO
TITLE "Tibular Vader"
PERFORMER "Bola"
INDEX 00 05:44:11
FILE "04 - Tibular Vader.wav" WAVE
INDEX 01 00:00:00
TRACK 05 AUDIO
TITLE "Veronex Cypher"
PERFORMER "Bola"
INDEX 00 04:45:36
FILE "05 - Veronex Cypher.wav" WAVE
INDEX 01 00:00:00
TRACK 06 AUDIO
TITLE "Magnasushi"
PERFORMER "Bola"
INDEX 00 05:19:35
FILE "06 - Magnasushi.wav" WAVE
INDEX 01 00:00:00
TRACK 07 AUDIO
TITLE "O, Chuma"
PERFORMER "Bola"
INDEX 00 07:14:24
FILE "07 - O, Chuma.wav" WAVE
INDEX 01 00:00:00
FILE "08 - Horizophon.wav" WAVE
TRACK 08 AUDIO
TITLE "Horizophon"
PERFORMER "Bola"
INDEX 01 00:00:00
TRACK 09 AUDIO
TITLE "Soleiele"
PERFORMER "Bola"
INDEX 00 06:17:57
FILE "09 - Soleiele.wav" WAVE
INDEX 01 00:00:00
TRACK 10 AUDIO
TITLE "VM8"
PERFORMER "Bola"
INDEX 00 04:26:68
FILE "10 - VM8.wav" WAVE
INDEX 01 00:00:00

Год выпуска: 2002
Продолжительность: 01:01:43
Треклист:

01. Vibe-A-Rolla (04:52)
02. Ephemex (05:53)
03. Vamillaglade (06:11)
04. Chamchimzee (05:02)
05. Pequill (03:54)
06. Neph (06:09)
07. O'verb (05:14)
08. Pi-Knipple (06:06)
09. Lungbone (04:58)
10. Shinoque (07:24)
11. Conokut (06:00)

EAC extraction logfile from 24. August 2006, 22:14 for CD
Jello / Voile

Used drive : HL-DT-STCD-RW GCE-8400B Adapter: 0 ID: 1
Read mode : Secure with NO C2, accurate stream, disable cache
Read offset correction : 12
Overread into Lead-In and Lead-Out : Yes

Used output format : Internal WAV Routines
44.100 Hz; 16 Bit; Stereo

Other options :
Fill up missing offset samples with silence : Yes
Delete leading and trailing silent blocks : No
Native Win32 interface for Win NT & 2000

Track 1
Filename C:\ripping\Jello - Voile - 01 - Vibe-A-Rolla.wav

Pre-gap length 0:00:02.00

Peak level 100.0 %
Track quality 100.0 %
Test CRC EB4A5132
Copy CRC EB4A5132
Copy OK

Track 2
Filename C:\ripping\Jello - Voile - 02 - Ephemex.wav

Peak level 100.0 %
Track quality 100.0 %
Test CRC 49313863
Copy CRC 49313863
Copy OK

Track 3
Filename C:\ripping\Jello - Voile - 03 - Vamillaglade.wav

Peak level 100.0 %
Track quality 100.0 %
Test CRC B564A7FF
Copy CRC B564A7FF
Copy OK

Track 4
Filename C:\ripping\Jello - Voile - 04 - Chamchimzee.wav

Peak level 100.0 %
Track quality 100.0 %
Test CRC 1305264B
Copy CRC 1305264B
Copy OK

Track 5
Filename C:\ripping\Jello - Voile - 05 - Pequill.wav

Peak level 91.9 %
Track quality 100.0 %
Test CRC 480B81A6
Copy CRC 480B81A6
Copy OK

Track 6
Filename C:\ripping\Jello - Voile - 06 - Neph.wav

Peak level 100.0 %
Track quality 100.0 %
Test CRC 9DAF27EC
Copy CRC 9DAF27EC
Copy OK

Track 7
Filename C:\ripping\Jello - Voile - 07 - O'verb.wav

Peak level 100.0 %
Track quality 100.0 %
Test CRC 80D0D7EC
Copy CRC 80D0D7EC
Copy OK

Track 8
Filename C:\ripping\Jello - Voile - 08 - Pi-Knipple.wav

Pre-gap length 0:00:01.40

Peak level 100.0 %
Track quality 100.0 %
Test CRC D470409F
Copy CRC D470409F
Copy OK

Track 9
Filename C:\ripping\Jello - Voile - 09 - Lungbone.wav

Peak level 100.0 %
Track quality 99.9 %
Test CRC A1EBFB93
Copy CRC A1EBFB93
Copy OK

Track 10
Filename C:\ripping\Jello - Voile - 10 - Shinoque.wav

Peak level 100.0 %
Track quality 100.0 %
Test CRC C22FAF9A
Copy CRC C22FAF9A
Copy OK

Track 11
Filename C:\ripping\Jello - Voile - 11 - Conokut.wav

Peak level 100.0 %
Track quality 100.0 %
Test CRC CEA8D873
Copy CRC CEA8D873
Copy OK

No errors occured

End of status report


PERFORMER "Jello"
TITLE "Voile"
FILE "Jello - Voile - 01 - Vibe-A-Rolla.wav" WAVE
TRACK 01 AUDIO
TITLE "Vibe-A-Rolla"
PERFORMER "Jello"
INDEX 01 00:00:00
FILE "Jello - Voile - 02 - Ephemex.wav" WAVE
TRACK 02 AUDIO
TITLE "Ephemex"
PERFORMER "Jello"
INDEX 01 00:00:00
FILE "Jello - Voile - 03 - Vamillaglade.wav" WAVE
TRACK 03 AUDIO
TITLE "Vamillaglade"
PERFORMER "Jello"
INDEX 01 00:00:00
FILE "Jello - Voile - 04 - Chamchimzee.wav" WAVE
TRACK 04 AUDIO
TITLE "Chamchimzee"
PERFORMER "Jello"
INDEX 01 00:00:00
FILE "Jello - Voile - 05 - Pequill.wav" WAVE
TRACK 05 AUDIO
TITLE "Pequill"
PERFORMER "Jello"
INDEX 01 00:00:00
FILE "Jello - Voile - 06 - Neph.wav" WAVE
TRACK 06 AUDIO
TITLE "Neph"
PERFORMER "Jello"
INDEX 01 00:00:00
FILE "Jello - Voile - 07 - O'verb.wav" WAVE
TRACK 07 AUDIO
TITLE "O'verb"
PERFORMER "Jello"
INDEX 01 00:00:00
TRACK 08 AUDIO
TITLE "Pi-Knipple"
PERFORMER "Jello"
INDEX 00 05:12:07
FILE "Jello - Voile - 08 - Pi-Knipple.wav" WAVE
INDEX 01 00:00:00
FILE "Jello - Voile - 09 - Lungbone.wav" WAVE
TRACK 09 AUDIO
TITLE "Lungbone"
PERFORMER "Jello"
INDEX 01 00:00:00
FILE "Jello - Voile - 10 - Shinoque.wav" WAVE
TRACK 10 AUDIO
TITLE "Shinoque"
PERFORMER "Jello"
INDEX 01 00:00:00
FILE "Jello - Voile - 11 - Conokut.wav" WAVE
TRACK 11 AUDIO
TITLE "Conokut"
PERFORMER "Jello"
INDEX 01 00:00:00

Год выпуска: 2003
Продолжительность: 01:12:57
Треклист:

01. Glink (07:05)
02. Versivo (07:51)
03. W.I.K. (05:46)
04. Forcasa 1 (06:30)
05. Forcasa 2 (04:49)
06. Forcasa 3 (05:24)
07. Pendulus (05:45)
08. Amnion (09:31)
09. Aguilla (06:24)
10. Whoblo (13:52)

Exact Audio Copy V0.99 prebeta 4 from 23. January 2008

EAC extraction logfile from 1. June 2008, 20:37

Bola / Soup

Used drive : TSSTcorpDVD+-RW TS-H653B Adapter: 1 ID: 0

Read mode : Secure
Utilize accurate stream : Yes
Defeat audio cache : Yes
Make use of C2 pointers : No

Read offset correction : 6
Overread into Lead-In and Lead-Out : No
Fill up missing offset samples with silence : Yes
Delete leading and trailing silent blocks : No
Null samples used in CRC calculations : Yes
Used interface : Installed external ASPI interface
Gap handling : Appended to previous track

Used output format : User Defined Encoder
Selected bitrate : 192 kBit/s
Quality : High
Add ID3 tag : No
Command line compressor : C:\Program Files\Exact Audio Copy\Flac\flac.exe
Additional command line options : -V -8 -T "artist=%a" -T "title=%t" -T "album=%g" -T "date=%y" -T "tracknumber=%n" -T "genre=%m" %s

TOC of the extracted CD

Track | Start | Length | Start sector | End sector
---------------------------------------------------------
1 | 0:00.00 | 7:05.35 | 0 | 31909
2 | 7:05.35 | 7:51.02 | 31910 | 67236
3 | 14:56.37 | 5:45.67 | 67237 | 93178
4 | 20:42.29 | 6:29.48 | 93179 | 122401
5 | 27:12.02 | 4:49.16 | 122402 | 144092
6 | 32:01.18 | 5:24.32 | 144093 | 168424
7 | 37:25.50 | 5:44.62 | 168425 | 194286
8 | 43:10.37 | 9:31.02 | 194287 | 237113
9 | 52:41.39 | 6:24.00 | 237114 | 265913
10 | 59:05.39 | 13:51.45 | 265914 | 328283

Track 1

Filename C:\A\Bola - Soup [flac]\01 - Glink.wav

Pre-gap length 0:00:02.00

Peak level 98.8 %
Track quality 100.0 %
Test CRC 075C4A61
Copy CRC 075C4A61
Accurately ripped (confidence 7) [3787EAB0]
Copy OK

Track 2

Filename C:\A\Bola - Soup [flac]\02 - Versivo.wav

Peak level 98.8 %
Track quality 100.0 %
Test CRC 0F86EABD
Copy CRC 0F86EABD
Accurately ripped (confidence 7) [B90A52BF]
Copy OK

Track 3

Filename C:\A\Bola - Soup [flac]\03 - W.I.K..wav

Peak level 97.7 %
Track quality 100.0 %
Test CRC C872D6D1
Copy CRC C872D6D1
Accurately ripped (confidence 7) [2192BACA]
Copy OK

Track 4

Filename C:\A\Bola - Soup [flac]\04 - Forcasa 1.wav

Peak level 95.7 %
Track quality 100.0 %
Test CRC 21070BAA
Copy CRC 21070BAA
Accurately ripped (confidence 7) [656B5B62]
Copy OK

Track 5

Filename C:\A\Bola - Soup [flac]\05 - Forcasa 2.wav

Pre-gap length 0:00:00.01

Peak level 99.7 %
Track quality 99.9 %
Test CRC 031DD52B
Copy CRC 031DD52B
Accurately ripped (confidence 7) [A4E920E4]
Copy OK

Track 6

Filename C:\A\Bola - Soup [flac]\06 - Forcasa 3.wav

Peak level 98.4 %
Track quality 99.9 %
Test CRC B90786A2
Copy CRC B90786A2
Accurately ripped (confidence 7) [FAA4EDFB]
Copy OK

Track 7

Filename C:\A\Bola - Soup [flac]\07 - Pendulus.wav

Peak level 99.7 %
Track quality 100.0 %
Test CRC B8572E17
Copy CRC B8572E17
Accurately ripped (confidence 7) [D699EC35]
Copy OK

Track 8

Filename C:\A\Bola - Soup [flac]\08 - Amnion.wav

Pre-gap length 0:00:00.01

Peak level 99.2 %
Track quality 100.0 %
Test CRC 03B4E406
Copy CRC 03B4E406
Accurately ripped (confidence 6) [5C40075F]
Copy OK

Track 9

Filename C:\A\Bola - Soup [flac]\09 - Aguilla.wav

Pre-gap length 0:00:00.01

Peak level 96.5 %
Track quality 100.0 %
Test CRC 7BBE1B42
Copy CRC 7BBE1B42
Accurately ripped (confidence 7) [7EE00162]
Copy OK

Track 10

Filename C:\A\Bola - Soup [flac]\10 - Whoblo.wav

Peak level 98.8 %
Track quality 100.0 %
Test CRC C4F94194
Copy CRC C4F94194
Accurately ripped (confidence 4) [D5A0654E]
Copy OK

All tracks accurately ripped

No errors occurred

End of status report


REM GENRE IDM
REM DATE 1998
REM DISCID 9111190A
REM COMMENT "ExactAudioCopy v0.99pb4"
PERFORMER "Bola"
TITLE "Soup"
FILE "01 - Glink.wav" WAVE
TRACK 01 AUDIO
TITLE "Glink"
PERFORMER "Bola"
INDEX 01 00:00:00
FILE "02 - Versivo.wav" WAVE
TRACK 02 AUDIO
TITLE "Versivo"
PERFORMER "Bola"
INDEX 01 00:00:00
FILE "03 - W.I.K..wav" WAVE
TRACK 03 AUDIO
TITLE "W.I.K."
PERFORMER "Bola"
INDEX 01 00:00:00
FILE "04 - Forcasa 1.wav" WAVE
TRACK 04 AUDIO
TITLE "Forcasa 1"
PERFORMER "Bola"
INDEX 01 00:00:00
TRACK 05 AUDIO
TITLE "Forcasa 2"
PERFORMER "Bola"
INDEX 00 06:29:47
FILE "05 - Forcasa 2.wav" WAVE
INDEX 01 00:00:00
FILE "06 - Forcasa 3.wav" WAVE
TRACK 06 AUDIO
TITLE "Forcasa 3"
PERFORMER "Bola"
INDEX 01 00:00:00
FILE "07 - Pendulus.wav" WAVE
TRACK 07 AUDIO
TITLE "Pendulus"
PERFORMER "Bola"
INDEX 01 00:00:00
TRACK 08 AUDIO
TITLE "Amnion"
PERFORMER "Bola"
INDEX 00 05:44:61
FILE "08 - Amnion.wav" WAVE
INDEX 01 00:00:00
TRACK 09 AUDIO
TITLE "Aguilla"
PERFORMER "Bola"
INDEX 00 09:31:01
FILE "09 - Aguilla.wav" WAVE
INDEX 01 00:00:00
FILE "10 - Whoblo.wav" WAVE
TRACK 10 AUDIO
TITLE "Whoblo"
PERFORMER "Bola"
INDEX 01 00:00:00

Год выпуска: 2004
Продолжительность: 01:00:42
Треклист:

01. Eluus (09:40)
02. Sirasancerre (05:23)
03. Heirairerr (02:25)
04. Effanajor (08:20)
05. Opanopono (02:30)
06. Pfane Pt 1 (03:48)
07. Pfane Pt 2 (03:48)
08. Vhieneray (05:41)
09. Papnwea (07:24)
10. Effaninor (11:43)

Exact Audio Copy V0.99 prebeta 4 from 23. January 2008

EAC extraction logfile from 9. March 2009, 1:40

Bola / Gnayse

Used drive : LITE-ON COMBO LTC-48161H Adapter: 0 ID: 3

Read mode : Secure
Utilize accurate stream : Yes
Defeat audio cache : Yes
Make use of C2 pointers : No

Read offset correction : 6
Overread into Lead-In and Lead-Out : No
Fill up missing offset samples with silence : Yes
Delete leading and trailing silent blocks : No
Null samples used in CRC calculations : Yes
Used interface : Installed external ASPI interface
Gap handling : Appended to previous track

Used output format : User Defined Encoder
Selected bitrate : 768 kBit/s
Quality : High
Add ID3 tag : No
Command line compressor : C:\Program Files\Exact Audio Copy\FLAC\FLAC.EXE
Additional command line options : -T "artist=%a" -T "title=%t" -T "album=%g" -T "date=%y" -T "tracknumber=%n" -T "genre=%m" -5 %s

TOC of the extracted CD

Track | Start | Length | Start sector | End sector
---------------------------------------------------------
1 | 0:00.00 | 9:40.29 | 0 | 43528
2 | 9:40.29 | 5:23.24 | 43529 | 67777
3 | 15:03.53 | 2:25.04 | 67778 | 78656
4 | 17:28.57 | 8:19.50 | 78657 | 116131
5 | 25:48.32 | 2:29.67 | 116132 | 127373
6 | 28:18.24 | 3:47.58 | 127374 | 144456
7 | 32:06.07 | 3:47.48 | 144457 | 161529
8 | 35:53.55 | 5:40.45 | 161530 | 187074
9 | 41:34.25 | 7:23.63 | 187075 | 220362
10 | 48:58.13 | 11:43.20 | 220363 | 273107

Track 1

Filename D:\torrents\Bola - Gnayse\01 - Bola - Eluus.wav

Pre-gap length 0:00:02.00

Peak level 99.0 %
Track quality 100.0 %
Test CRC C0E32D3A
Copy CRC C0E32D3A
Accurately ripped (confidence 11) [38A6B5F8]
Copy OK

Track 2

Filename D:\torrents\Bola - Gnayse\02 - Bola - Sirasancerre.wav

Peak level 100.0 %
Track quality 100.0 %
Test CRC 0666F9FB
Copy CRC 0666F9FB
Accurately ripped (confidence 11) [71643066]
Copy OK

Track 3

Filename D:\torrents\Bola - Gnayse\03 - Bola - Heirairerr.wav

Pre-gap length 0:00:02.00

Peak level 43.8 %
Track quality 100.0 %
Test CRC 2CED993F
Copy CRC 2CED993F
Accurately ripped (confidence 11) [6BFF4971]
Copy OK

Track 4

Filename D:\torrents\Bola - Gnayse\04 - Bola - Effanajor.wav

Pre-gap length 0:00:02.00

Peak level 100.0 %
Track quality 100.0 %
Test CRC 98B84FC8
Copy CRC 98B84FC8
Accurately ripped (confidence 11) [DF059CB7]
Copy OK

Track 5

Filename D:\torrents\Bola - Gnayse\05 - Bola - Opanopono.wav

Peak level 69.2 %
Track quality 100.0 %
Test CRC D4C1674B
Copy CRC D4C1674B
Accurately ripped (confidence 11) [EAF0E517]
Copy OK

Track 6

Filename D:\torrents\Bola - Gnayse\06 - Bola - Pfane pt1.wav

Pre-gap length 0:00:02.00

Peak level 98.0 %
Track quality 99.9 %
Test CRC 685A1555
Copy CRC 685A1555
Accurately ripped (confidence 11) [3C398511]
Copy OK

Track 7

Filename D:\torrents\Bola - Gnayse\07 - Bola - Pfane pt2.wav

Peak level 97.9 %
Track quality 100.0 %
Test CRC AF3D81F7
Copy CRC AF3D81F7
Accurately ripped (confidence 11) [1518094F]
Copy OK

Track 8

Filename D:\torrents\Bola - Gnayse\08 - Bola - Vhieneray.wav

Peak level 99.5 %
Track quality 100.0 %
Test CRC A1AEF294
Copy CRC A1AEF294
Accurately ripped (confidence 11) [304301AA]
Copy OK

Track 9

Filename D:\torrents\Bola - Gnayse\09 - Bola - Papnwea.wav

Peak level 98.6 %
Track quality 100.0 %
Test CRC 10503D7E
Copy CRC 10503D7E
Accurately ripped (confidence 11) [515E0DBA]
Copy OK

Track 10

Filename D:\torrents\Bola - Gnayse\10 - Bola - Effaninor.wav

Peak level 99.1 %
Track quality 100.0 %
Test CRC 329790D1
Copy CRC 329790D1
Accurately ripped (confidence 11) [40F83E7B]
Copy OK

All tracks accurately ripped

No errors occurred

End of status report


REM GENRE Electronic
REM DATE 2004
REM DISCID 7D0E390A
REM COMMENT "ExactAudioCopy v0.99pb4"
PERFORMER "Bola"
TITLE "Gnayse"
FILE "01 - Bola - Eluus.wav" WAVE
TRACK 01 AUDIO
TITLE "Eluus"
PERFORMER "Bola"
INDEX 01 00:00:00
FILE "02 - Bola - Sirasancerre.wav" WAVE
TRACK 02 AUDIO
TITLE "Sirasancerre"
PERFORMER "Bola"
INDEX 01 00:00:00
TRACK 03 AUDIO
TITLE "Heirairerr"
PERFORMER "Bola"
INDEX 00 05:21:24
FILE "03 - Bola - Heirairerr.wav" WAVE
INDEX 01 00:00:00
TRACK 04 AUDIO
TITLE "Effanajor"
PERFORMER "Bola"
INDEX 00 02:23:04
FILE "04 - Bola - Effanajor.wav" WAVE
INDEX 01 00:00:00
FILE "05 - Bola - Opanopono.wav" WAVE
TRACK 05 AUDIO
TITLE "Opanopono"
PERFORMER "Bola"
INDEX 01 00:00:00
TRACK 06 AUDIO
TITLE "Pfane pt1"
PERFORMER "Bola"
INDEX 00 02:27:67
FILE "06 - Bola - Pfane pt1.wav" WAVE
INDEX 01 00:00:00
FILE "07 - Bola - Pfane pt2.wav" WAVE
TRACK 07 AUDIO
TITLE "Pfane pt2"
PERFORMER "Bola"
INDEX 01 00:00:00
FILE "08 - Bola - Vhieneray.wav" WAVE
TRACK 08 AUDIO
TITLE "Vhieneray"
PERFORMER "Bola"
INDEX 01 00:00:00
FILE "09 - Bola - Papnwea.wav" WAVE
TRACK 09 AUDIO
TITLE "Papnwea"
PERFORMER "Bola"
INDEX 01 00:00:00
FILE "10 - Bola - Effaninor.wav" WAVE
TRACK 10 AUDIO
TITLE "Effaninor"
PERFORMER "Bola"
INDEX 01 00:00:00

Год выпуска: 2006
Продолжительность: 00:57:18
Треклист:

01. Fonk (Flower) (06:09)
02. Pula Kappas (Square) (06:01)
03. Ballast (Triangle) (06:07)
04. Zephyr (Pentagon) (05:04)
05. Clockjerk (Trapezoid) (06:09)
06. Forcasa2.2 (Oval) (05:49)
07. Serge2 (Octagon) (05:21)
08. Cobalt (Scope) (06:21)
09. Squib (Nuclear) (10:17)

Exact Audio Copy V0.99 prebeta 3 from 28. July 2007

EAC extraction logfile from 24. April 2008, 19:33

Bola / Shapes [SKALD020]

Used drive : TSSTcorpCD/DVDW SH-S162A Adapter: 1 ID: 0

Read mode : Secure
Utilize accurate stream : Yes
Defeat audio cache : Yes
Make use of C2 pointers : No

Read offset correction : 48
Overread into Lead-In and Lead-Out : No
Fill up missing offset samples with silence : Yes
Delete leading and trailing silent blocks : No
Null samples used in CRC calculations : Yes
Used interface : Native Win32 interface for Win NT & 2000
Gap handling : Appended to previous track

Used output format : User Defined Encoder
Selected bitrate : 1024 kBit/s
Quality : High
Add ID3 tag : No
Command line compressor : C:\Program Files\Exact Audio Copy\FLAC\FLAC.EXE
Additional command line options : -V -8 -T "artist=%a" -T "title=%t" -T "album=%g" -T "date=%y" -T "tracknumber=%n" -T "genre=%m" %s

TOC of the extracted CD

Track | Start | Length | Start sector | End sector
---------------------------------------------------------
1 | 0:00.00 | 6:09.23 | 0 | 27697
2 | 6:09.23 | 6:00.38 | 27698 | 54735
3 | 12:09.61 | 6:07.03 | 54736 | 82263
4 | 18:16.64 | 5:04.13 | 82264 | 105076
5 | 23:21.02 | 6:08.61 | 105077 | 132737
6 | 29:29.63 | 5:48.39 | 132738 | 158876
7 | 35:18.27 | 5:20.51 | 158877 | 182927
8 | 40:39.03 | 6:21.19 | 182928 | 211521
9 | 47:00.22 | 10:17.03 | 211522 | 257799

Track 1

Filename E:\EAO rips\Bola (2006) Shapes [SKALD020]\(01) Bola - Fonk (Flower).wav

Pre-gap length 0:00:02.00

Peak level 99.6 %
Track quality 100.0 %
Test CRC E42FC9DE
Copy CRC E42FC9DE
Accurately ripped (confidence 4) [C3CD2D08]
Copy OK

Track 2

Filename E:\EAO rips\Bola (2006) Shapes [SKALD020]\(02) Bola - Pula Kappas (Square).wav

Pre-gap length 0:00:02.00

Peak level 99.6 %
Track quality 100.0 %
Test CRC 201FD645
Copy CRC 201FD645
Accurately ripped (confidence 4) [037ACBDE]
Copy OK

Track 3

Filename E:\EAO rips\Bola (2006) Shapes [SKALD020]\(03) Bola - Ballast (Triangle).wav

Pre-gap length 0:00:02.00

Peak level 99.6 %
Track quality 100.0 %
Test CRC 2925DBCF
Copy CRC 2925DBCF
Accurately ripped (confidence 4) [F038C8B0]
Copy OK

Track 4

Filename E:\EAO rips\Bola (2006) Shapes [SKALD020]\(04) Bola - Zephyr (Pentagon).wav

Pre-gap length 0:00:02.00

Peak level 99.6 %
Track quality 99.9 %
Test CRC D37B9117
Copy CRC D37B9117
Accurately ripped (confidence 4) [5DEBF75B]
Copy OK

Track 5

Filename E:\EAO rips\Bola (2006) Shapes [SKALD020]\(05) Bola - Clockjerk (Trapezoid).wav

Pre-gap length 0:00:02.00

Peak level 99.6 %
Track quality 100.0 %
Test CRC F65AEDC4
Copy CRC F65AEDC4
Accurately ripped (confidence 4) [25889048]
Copy OK

Track 6

Filename E:\EAO rips\Bola (2006) Shapes [SKALD020]\(06) Bola - Forcasa2.2 (Oval).wav

Pre-gap length 0:00:02.00

Peak level 84.1 %
Track quality 100.0 %
Test CRC 3941475C
Copy CRC 3941475C
Accurately ripped (confidence 4) [5F625223]
Copy OK

Track 7

Filename E:\EAO rips\Bola (2006) Shapes [SKALD020]\(07) Bola - Serge2 (Octagon).wav

Pre-gap length 0:00:02.00

Peak level 99.6 %
Track quality 100.0 %
Test CRC DFC6F18B
Copy CRC DFC6F18B
Accurately ripped (confidence 4) [C2BF84F9]
Copy OK

Track 8

Filename E:\EAO rips\Bola (2006) Shapes [SKALD020]\(08) Bola - Cobalt (Scope).wav

Pre-gap length 0:00:02.00

Peak level 99.6 %
Track quality 100.0 %
Test CRC 2FFB4F6F
Copy CRC 2FFB4F6F
Accurately ripped (confidence 4) [3C86DE8C]
Copy OK

Track 9

Filename E:\EAO rips\Bola (2006) Shapes [SKALD020]\(09) Bola - Squib (Nuclear).wav

Pre-gap length 0:00:02.00

Peak level 96.6 %
Track quality 100.0 %
Test CRC C654723B
Copy CRC C654723B
Accurately ripped (confidence 4) [1682D550]
Copy OK

All tracks accurately ripped

No errors occurred

End of status report


REM GENRE Electronic
REM DATE 2006
REM DISCID 600D6D09
REM COMMENT "ExactAudioCopy v0.99pb3"
PERFORMER "Bola"
TITLE "Shapes [SKALD020]"
FILE "01. Fonk (Flower).wav" WAVE
TRACK 01 AUDIO
TITLE "Fonk (Flower)"
PERFORMER "Bola"
INDEX 01 00:00:00
TRACK 02 AUDIO
TITLE "Pula Kappas (Square)"
PERFORMER "Bola"
INDEX 00 06:07:23
FILE "02. Pula Kappas (Square).wav" WAVE
INDEX 01 00:00:00
TRACK 03 AUDIO
TITLE "Ballast (Triangle)"
PERFORMER "Bola"
INDEX 00 05:58:38
FILE "03. Ballast (Triangle).wav" WAVE
INDEX 01 00:00:00
TRACK 04 AUDIO
TITLE "Zephyr (Pentagon)"
PERFORMER "Bola"
INDEX 00 06:05:03
FILE "04. Zephyr (Pentagon).wav" WAVE
INDEX 01 00:00:00
TRACK 05 AUDIO
TITLE "Clockjerk (Trapezoid)"
PERFORMER "Bola"
INDEX 00 05:02:13
FILE "05. Clockjerk (Trapezoid).wav" WAVE
INDEX 01 00:00:00
TRACK 06 AUDIO
TITLE "Forcasa2.2 (Oval)"
PERFORMER "Bola"
INDEX 00 06:06:61
FILE "06. Forcasa2.2 (Oval).wav" WAVE
INDEX 01 00:00:00
TRACK 07 AUDIO
TITLE "Serge2 (Octagon)"
PERFORMER "Bola"
INDEX 00 05:46:39
FILE "07. Serge2 (Octagon).wav" WAVE
INDEX 01 00:00:00
TRACK 08 AUDIO
TITLE "Cobalt (Scope)"
PERFORMER "Bola"
INDEX 00 05:18:51
FILE "08. Cobalt (Scope).wav" WAVE
INDEX 01 00:00:00
TRACK 09 AUDIO
TITLE "Squib (Nuclear)"
PERFORMER "Bola"
INDEX 00 06:19:19
FILE "09. Squib (Nuclear).wav" WAVE
INDEX 01 00:00:00

Год выпуска: 2007
Продолжительность: 00:53:39
Треклист:

01. Zoft Broiled Ed (05:04)
02. Noop (04:29)
03. Waknuts (05:32)
04. Halyloola (04:54)
05. Urenforpuren (06:08)
06. Phulcra (05:51)
07. Rainslaight (06:19)
08. Diamortem (15:22)

Exact Audio Copy V0.99 prebeta 1 from 25. May 2007

EAC extraction logfile from 13. March 2009, 9:45

Bola / Kroungrine

Used drive : LG CD-RW CED-8080B Adapter: 0 ID: 1

Read mode : Secure
Utilize accurate stream : Yes
Defeat audio cache : Yes
Make use of C2 pointers : No

Read offset correction : 86
Overread into Lead-In and Lead-Out : No
Fill up missing offset samples with silence : Yes
Delete leading and trailing silent blocks : No
Used interface : Installed external ASPI interface
Gap handling : Appended to previous track

Used output format : User Defined Encoder
Selected bitrate : 320 kBit/s
Quality : High
Add ID3 tag : No
Command line compressor : C:\Program Files\Exact Audio Copy\Flac\flac.exe
Additional command line options : -8 -A tukey(0.25) -A gauss(0.1875) -b 4096 -V -T "artist=%a" -T "title=%t" -T "album=%g" -T "date=%y" -T "tracknumber=%n" -T "genre=%m" %s --sector-align

TOC of the extracted CD

Track | Start | Length | Start sector | End sector
---------------------------------------------------------
1 | 0:00.00 | 5:03.72 | 0 | 22796
2 | 5:03.72 | 4:28.52 | 22797 | 42948
3 | 9:32.49 | 5:32.09 | 42949 | 67857
4 | 15:04.58 | 4:54.36 | 67858 | 89943
5 | 19:59.19 | 6:08.23 | 89944 | 117566
6 | 26:07.42 | 5:51.18 | 117567 | 143909
7 | 31:58.60 | 6:19.34 | 143910 | 172368
8 | 38:18.19 | 15:21.43 | 172369 | 241486

Track 1

Filename C:\TEMP\01 - Bola - Zoft Broiled Ed.wav

Pre-gap length 0:00:02.00

Peak level 100.0 %
Track quality 100.0 %
Test CRC 904A65F9
Copy CRC 904A65F9
Not accurately ripped (confidence 8) [7C00150E], but should be [8F1F9612]
Copy OK

Track 2

Filename C:\TEMP\02 - Bola - Noop.wav

Peak level 99.2 %
Track quality 100.0 %
Test CRC DDD0ACBA
Copy CRC DDD0ACBA
Not accurately ripped (confidence 8) [520B946A], but should be [F780D851]
Copy OK

Track 3

Filename C:\TEMP\03 - Bola - Waknuts.wav

Peak level 100.0 %
Track quality 100.0 %
Test CRC 3B8B993D
Copy CRC 3B8B993D
Not accurately ripped (confidence 8) [CDF51A28], but should be [55D700A9]
Copy OK

Track 4

Filename C:\TEMP\04 - Bola - Halyloola.wav

Peak level 99.9 %
Track quality 100.0 %
Test CRC 29C8B4AB
Copy CRC 29C8B4AB
Not accurately ripped (confidence 8) [485369F2], but should be [547895C2]
Copy OK

Track 5

Filename C:\TEMP\05 - Bola - Urenforpuren.wav

Pre-gap length 0:00:00.06

Peak level 100.0 %
Track quality 100.0 %
Test CRC AF9DBF15
Copy CRC AF9DBF15
Not accurately ripped (confidence 8) [4DA42E7A], but should be [98EF4BB2]
Copy OK

Track 6

Filename C:\TEMP\06 - Bola - Phulcra.wav

Peak level 98.7 %
Track quality 100.0 %
Test CRC D626F752
Copy CRC D626F752
Not accurately ripped (confidence 8) [A752F072], but should be [85917D6D]
Copy OK

Track 7

Filename C:\TEMP\07 - Bola - Rainslaight.wav

Peak level 100.0 %
Track quality 100.0 %
Test CRC EC3A5035
Copy CRC EC3A5035
Not accurately ripped (confidence 8) [CF10AF92], but should be [204CD6EA]
Copy OK

Track 8

Filename C:\TEMP\08 - Bola - Diamortem.wav

Peak level 95.5 %
Track quality 100.0 %
Test CRC 6CFA7959
Copy CRC 6CFA7959
Not accurately ripped (confidence 8) [88FE1115], but should be [19815F75]
Copy OK

Not all tracks ripped accurately

End of status report


REM GENRE Electronic
REM DATE 2007
REM DISCID 530C9308
REM COMMENT "ExactAudioCopy v0.99pb1"
PERFORMER "Bola"
TITLE "Kroungrine"
FILE "01 - Bola - Zoft Broiled Ed.wav" WAVE
TRACK 01 AUDIO
TITLE "Zoft Broiled Ed"
PERFORMER "Bola"
INDEX 01 00:00:00
FILE "02 - Bola - Noop.wav" WAVE
TRACK 02 AUDIO
TITLE "Noop"
PERFORMER "Bola"
INDEX 01 00:00:00
FILE "03 - Bola - Waknuts.wav" WAVE
TRACK 03 AUDIO
TITLE "Waknuts"
PERFORMER "Bola"
INDEX 01 00:00:00
FILE "04 - Bola - Halyloola.wav" WAVE
TRACK 04 AUDIO
TITLE "Halyloola"
PERFORMER "Bola"
INDEX 01 00:00:00
TRACK 05 AUDIO
TITLE "Urenforpuren"
PERFORMER "Bola"
INDEX 00 04:54:31
FILE "05 - Bola - Urenforpuren.wav" WAVE
INDEX 01 00:00:00
FILE "06 - Bola - Phulcra.wav" WAVE
TRACK 06 AUDIO
TITLE "Phulcra"
PERFORMER "Bola"
INDEX 01 00:00:00
FILE "07 - Bola - Rainslaight.wav" WAVE
TRACK 07 AUDIO
TITLE "Rainslaight"
PERFORMER "Bola"
INDEX 01 00:00:00
FILE "08 - Bola - Diamortem.wav" WAVE
TRACK 08 AUDIO
TITLE "Diamortem"
PERFORMER "Bola"
INDEX 01 00:00:00

Год выпуска: 1995
Продолжительность: 00:25:11
Треклист:

01. Forcasa 3 (Single Mix) (04:31)
02. Krak Jakomo (05:57)
03. Metalurg 2 (07:56)
04. Balloom (06:47)

-----------------------

DON'T MODIFY THIS FILE

-----------------------

PERFORMER: auCDtect Task Manager, ver. 1.5.1RC6 build 1.5.1.7
Copyright (c) 2008-2010 y-soft. All rights reserved
http://y-soft.org

ANALYZER: auCDtect: CD records authenticity detector, version 0.8.2
Copyright (c) 2004 Oleg Berngardt. All rights reserved.
Copyright (c) 2004 Alexander Djourik. All rights reserved.

FILE: 04. Balloom.flac
Size: 44402790 Hash: 754EB39EF7AA3F1EAEF9B12275E1F5A8 Accuracy: -m0
Conclusion: CDDA 99%
Signature: 94B18849828FB9DAAF76CAE9E318C9202B9A3748
FILE: 03. Metalurg 2.flac
Size: 50710122 Hash: AD4F690187825E81BAF3069C63E3A0A5 Accuracy: -m0
Conclusion: CDDA 100%
Signature: 9AB4D43F39D1F0C3FBF2718210A74E7E3AC7B693
FILE: 02. Krak Jakomo.flac
Size: 41998825 Hash: 16662BCF0508B52385D7BC9658FC2DC7 Accuracy: -m0
Conclusion: CDDA 100%
Signature: F0F597C8BCED76726D75D63417FCA74DB72098B8
FILE: 01. Forcasa 3 (Single Mix).flac
Size: 29873670 Hash: B83605E180831A05F9139FBF2896824A Accuracy: -m0
Conclusion: CDDA 100%
Signature: D375037C8AE59BC1F6AD2DF7827ACE217D34AB9A

Год выпуска: 1998
Продолжительность: 00:14:09
Треклист:

01. Aguilla (06:23)
02. Triangle Cake (05:42)
03. Curbstard (02:04)

-----------------------

DON'T MODIFY THIS FILE

-----------------------

PERFORMER: auCDtect Task Manager, ver. 1.5.1RC6 build 1.5.1.7
Copyright (c) 2008-2010 y-soft. All rights reserved
http://y-soft.org

ANALYZER: auCDtect: CD records authenticity detector, version 0.8.2
Copyright (c) 2004 Oleg Berngardt. All rights reserved.
Copyright (c) 2004 Alexander Djourik. All rights reserved.

FILE: 03. Curbstard.flac
Size: 15169727 Hash: 680D9E88791F7DBA6123003E3011C085 Accuracy: -m0
Conclusion: CDDA 100%
Signature: 7FE8B3E0BCD2EF20CE9CB5A8B3089A806D340834
FILE: 02. Triangle Cake.flac
Size: 43411867 Hash: 6072AB45D8860836AA076C2125DB407C Accuracy: -m0
Conclusion: CDDA 100%
Signature: 9E5E5C8B959AB7B6FA48498C2415AC67992DB2CC
FILE: 01. Aguilla.flac
Size: 35888408 Hash: D5173A29DFD52CA5DA8B7A4CDF39B920 Accuracy: -m0
Conclusion: CDDA 100%
Signature: F186248CC1A632AF8B73B85BAA9ACED41BF0B927

TT: VPI Traveler
Cartridge: Dynavector DV10X5
Preamp: Bugle2
Device: Roland UA-55 Quad Capture
Format: 16/44.1
Год выпуска: 2000
Продолжительность: 00:23:33
Треклист:

01. Mauver (05:11)
02. Para Qweqway (06:27)
03. Syblex (05:00)
04. Vespers (06:55)

EAC extraction logfile from 1. August 2007, 22:41 for CD
Bola / Mauver

Used drive : HL-DT-STRW/DVD GCC-4243N Adapter: 0 ID: 1
Read mode : Secure with NO C2, accurate stream, disable cache
Read offset correction : 102
Overread into Lead-In and Lead-Out : No

Used output format : C:\Program Files\Exact Audio Copy\flac.exe (User Defined Encoder)
192 kBit/s
Additional command line options : -8 -A tukey(0.25) -A gauss(0.1875) -b 4096 -V -T "artist=%a" -T "title=%t" -T "album=%g" -T "date=%y" -T "tracknumber=%n" -T "genre=%m" %s --sector-align

Other options :
Fill up missing offset samples with silence : Yes
Delete leading and trailing silent blocks : No
Installed external ASPI interface

Track 1
Filename D:\rips\01 - Bola - Mauver.wav

Pre-gap length 0:00:02.00

Peak level 100.0 %
Track quality 100.0 %
Test CRC BCD2D3E1
Copy CRC BCD2D3E1
Copy OK

Track 2
Filename D:\rips\02 - Bola - Para Qweqway.wav

Pre-gap length 0:00:00.93

Peak level 100.0 %
Track quality 99.9 %
Test CRC 8C953756
Copy CRC 8C953756
Copy OK

Track 3
Filename D:\rips\03 - Bola - Syblex.wav

Pre-gap length 0:00:02.85

Peak level 100.0 %
Track quality 100.0 %
Test CRC 8A78597E
Copy CRC 8A78597E
Copy OK

Track 4
Filename D:\rips\04 - Bola - Vespers.wav

Pre-gap length 0:00:01.24

Peak level 100.0 %
Track quality 99.9 %
Test CRC E73CF1B1
Copy CRC E73CF1B1
Copy OK

No errors occured

End of status report


REM DISCID 3C058504
REM COMMENT "ExactAudioCopy v0.95b4"
PERFORMER "Bola"
TITLE "Mauver"
FILE "01 - Bola - Mauver.wav" WAVE
TRACK 01 AUDIO
TITLE "Mauver"
PERFORMER "Bola"
INDEX 01 00:00:00
TRACK 02 AUDIO
TITLE "Para Qweqway"
PERFORMER "Bola"
INDEX 00 05:10:06
FILE "02 - Bola - Para Qweqway.wav" WAVE
INDEX 01 00:00:00
TRACK 03 AUDIO
TITLE "Syblex"
PERFORMER "Bola"
INDEX 00 06:24:00
FILE "03 - Bola - Syblex.wav" WAVE
INDEX 01 00:00:00
TRACK 04 AUDIO
TITLE "Vespers"
PERFORMER "Bola"
INDEX 00 04:58:65
FILE "04 - Bola - Vespers.wav" WAVE
INDEX 01 00:00:00

Год выпуска: 2001
Продолжительность: 00:15:33
Треклист:

01. Pae Paoe (05:42)
02. Koka Maim E (09:51)

-----------------------

DON'T MODIFY THIS FILE

-----------------------

PERFORMER: auCDtect Task Manager, ver. 1.5.1RC6 build 1.5.1.7
Copyright (c) 2008-2010 y-soft. All rights reserved
http://y-soft.org

ANALYZER: auCDtect: CD records authenticity detector, version 0.8.2
Copyright (c) 2004 Oleg Berngardt. All rights reserved.
Copyright (c) 2004 Alexander Djourik. All rights reserved.

FILE: B1 Koka Maim E.flac
Size: 53062952 Hash: 407FEF08050C770D6DE55F3DA701E446 Accuracy: -m0
Conclusion: ???
Signature: ED29C253E12642146BE165382ACFD41EA44E3CB1
FILE: A1 Pae Paoe.flac
Size: 38240340 Hash: D1093D1BD4B19F37D22666B35F5176A0 Accuracy: -m0
Conclusion: CDDA 100%
Signature: 7F3937E654032C336CF0866265E6E9C28D19B3D5
TT: VPI Traveler
Cartridge: Dynavector DV10X5
Preamp: Bugle2
Device: Roland UA-55 Quad Capture
Format: 16/44.1
Год выпуска: 2002
Продолжительность: 00:11:59
Треклист:

01. Chamchimzee (06:28)
02. Neph (Autechre Ultramatique 6 Mix) (05:31)

-----------------------

DON'T MODIFY THIS FILE

-----------------------

PERFORMER: auCDtect Task Manager, ver. 1.5.1RC6 build 1.5.1.7
Copyright (c) 2008-2010 y-soft. All rights reserved
http://y-soft.org

ANALYZER: auCDtect: CD records authenticity detector, version 0.8.2
Copyright (c) 2004 Oleg Berngardt. All rights reserved.
Copyright (c) 2004 Alexander Djourik. All rights reserved.

FILE: 02. Neph (Autechre Ultramatique 6 Mix).flac
Size: 39821615 Hash: 5517B671494EF7E1EE6F5E530CCB1A33 Accuracy: -m0
Conclusion: CDDA 100%
Signature: 442521461BE6C19BDDABF34AD37B8FD62CB25F7B
FILE: 01. Chamchimzee.flac
Size: 48938254 Hash: 7A7377E63A23271B19EF02E865C714DA Accuracy: -m0
Conclusion: ???
Signature: 9271C56C73987585EBE20382B96FB896A9AAD7DA

Vinyl recording
Technics 1210M5G
Ortofon Concord Gold Cartridge/Stylus
MOTU 2408 MKII
Logic Studio
MacFLAC encoder
Format: 16/44.1
Год выпуска: 2003
Продолжительность: 00:33:11
Треклист:

01. Lungbone (Tongue Bone Mix) (feat. Dennis Bourne) (05:00)
02. Damask (04:39)
03. Vibe-A-Rolla (Scump Mix) (05:48)
04. O'verb (Dualite Mix) (06:11)
05. Conokut (Reconix Mix) (05:48)
06. Neph (Autechre Ultramatique 6 Mix) (05:45)

EAC extraction logfile from 14. February 2006, 16:33 for CD
Jello / Lungbone EP

Used drive : HL-DT-STCD-RW GCE-8400B Adapter: 0 ID: 1
Read mode : Secure with NO C2, accurate stream, disable cache
Read offset correction : 12
Overread into Lead-In and Lead-Out : Yes

Used output format : Internal WAV Routines
44.100 Hz; 16 Bit; Stereo

Other options :
Fill up missing offset samples with silence : Yes
Delete leading and trailing silent blocks : No
Native Win32 interface for Win NT & 2000

Track 1
Filename C:\ripping\Jello - Lungbone EP - 01 - Lungbone (Tongue Bone Mix Feat. Dennis Bourne).wav

Pre-gap length 0:00:02.00

Peak level 99.9 %
Track quality 99.9 %
Test CRC D9352EFB
Copy CRC D9352EFB
Copy OK

Track 2
Filename C:\ripping\Jello - Lungbone EP - 02 - Damask.wav

Pre-gap length 0:00:02.00

Peak level 99.6 %
Track quality 100.0 %
Test CRC 112CABED
Copy CRC 112CABED
Copy OK

Track 3
Filename C:\ripping\Jello - Lungbone EP - 03 - Vibe A Rolla (Scump Mix).wav

Pre-gap length 0:00:02.00

Peak level 98.8 %
Track quality 100.0 %
Test CRC 99B33486
Copy CRC 99B33486
Copy OK

Track 4
Filename C:\ripping\Jello - Lungbone EP - 04 - O'verb (Dualite Mix).wav

Pre-gap length 0:00:02.00

Peak level 99.2 %
Track quality 100.0 %
Test CRC 46006F56
Copy CRC 46006F56
Copy OK

Track 5
Filename C:\ripping\Jello - Lungbone EP - 05 - Conokut (Reconix Mix).wav

Pre-gap length 0:00:02.00

Peak level 96.6 %
Track quality 99.9 %
Test CRC 625D88D1
Copy CRC 625D88D1
Copy OK

Track 6
Filename C:\ripping\Jello - Lungbone EP - 06 - Neph (Autechre Ultramatique 6 Mix).wav

Peak level 96.6 %
Track quality 99.9 %
Test CRC 7E90FA7E
Copy CRC 7E90FA7E
Copy OK

No errors occured

End of status report


PERFORMER "Jello"
TITLE "Lungbone EP"
FILE "Jello - Lungbone EP - 01 - Lungbone (Tongue Bone Mix Feat. Dennis Bourne).wav" WAVE
TRACK 01 AUDIO
TITLE "Lungbone (Tongue Bone Mix Feat. Dennis Bourne)"
PERFORMER "Jello"
INDEX 01 00:00:00
TRACK 02 AUDIO
TITLE "Damask"
PERFORMER "Jello"
INDEX 00 04:57:65
FILE "Jello - Lungbone EP - 02 - Damask.wav" WAVE
INDEX 01 00:00:00
TRACK 03 AUDIO
TITLE "Vibe A Rolla (Scump Mix)"
PERFORMER "Jello"
INDEX 00 04:37:23
FILE "Jello - Lungbone EP - 03 - Vibe A Rolla (Scump Mix).wav" WAVE
INDEX 01 00:00:00
TRACK 04 AUDIO
TITLE "O'verb (Dualite Mix)"
PERFORMER "Jello"
INDEX 00 05:46:05
FILE "Jello - Lungbone EP - 04 - O'verb (Dualite Mix).wav" WAVE
INDEX 01 00:00:00
TRACK 05 AUDIO
TITLE "Conokut (Reconix Mix)"
PERFORMER "Jello"
INDEX 00 06:08:59
FILE "Jello - Lungbone EP - 05 - Conokut (Reconix Mix).wav" WAVE
INDEX 01 00:00:00
FILE "Jello - Lungbone EP - 06 - Neph (Autechre Ultramatique 6 Mix).wav" WAVE
TRACK 06 AUDIO
TITLE "Neph (Autechre Ultramatique 6 Mix)"
PERFORMER "Jello"
INDEX 01 00:00:00

Время раздачи: 12/7
[NNMClub.to]_Bola FLAC.torrent
 Торрент: Серебряная раздча  Зарегистрирован
 
Примагнититься
Free Leech
Зарегистрируйтесь и скачайте торрент!
28,5 KB
 Зарегистрирован:   21 Янв 2017 21:44:16
 Размер:   3,09 GB  (
 Рейтинг:    (Голосов: 9)
 Поблагодарили:   25
 Проверка:   Оформление проверено модератором 21 Янв 2017 21:45:31
Как cкачать  ·  Как раздать  ·  Правильно оформить  ·  Поднять ратио!  
vilator ®
Модератор Музыки
RG Music
 
Стаж: 7 лет 11 мес.
Сообщений: 5696
Ratio: 125,787
Поблагодарили: 111879
100%
Откуда: Minsk
pirates.png
YouTube
Hiko-4
Стаж: 2 года
Сообщений: 3
Ratio: 16,418
2.94%
Со дня на день ждем новый альбом.

BOLA Just a small update... The music for the album is complete and has been for a while.. It's just an artwork / waiting for a decent release window, which is the delay :)
Like · Reply · 2 · 21 December 2016 at 05:35
vilator ®
Модератор Музыки
RG Music
 
Стаж: 7 лет 11 мес.
Сообщений: 5696
Ratio: 125,787
Поблагодарили: 111879
100%
Откуда: Minsk
pirates.png
Hiko-4 писал(а): Перейти к сообщению
Со дня на день ждем новый альбом

даа, наконец-то..
Hiko-4
Стаж: 2 года
Сообщений: 3
Ratio: 16,418
2.94%
BOLA
Yesterday at 09:24 ·

MAY 5th
Показать сообщения:   
Начать новую тему   Ответить на тему    Торрент-трекер NNM-Club -> Electronic -> IDM (Lossless) Часовой пояс: GMT + 3
Страница 1 из 1