Интеллигентный торрент-трекер
canvas not supported
Нас вместе: 4 313 573

Z O L B E R T - Inside Out (2017) [FLAC|Lossless|WEB-DL|tracks + .cue] <Smooth Jazz>


 
 
RSS
Начать новую тему   Ответить на тему    Торрент-трекер NNM-Club -> Jazz, Blues, Soul -> Jazz (Lossless)
Автор Сообщение
Svetojar ®
RG Music
 
Стаж: 3 мес. 15 дней
Сообщений: 535
Ratio: 208,962
Поблагодарили: 21687
100%
Z O L B E R T - Inside Out (2017) WEB
Год: 2017
Жанр: Smooth Jazz
Издание: Tom-Tom Records - 210
Источник: qobus.com
Продолжительность: 00:51:20

Кодек: FLAC
Битрейт: Lossless
Тип рипа: tracks + .cue

Треклист:
01. Be Cool
02. Step by Step
03. Trust
04. Say Something
05. Mr. Serious
06. Sunset at the Hilltop
07. Don't Look Back
08. Touching
09. Come with Me
10. Heads Up
11. The Moment
12. Say Goodbye
13. Miami Nights
foobar2000 1.3.14 / Dynamic Range Meter 1.1.1
log date: 2017-01-22 01:08:23

--------------------------------------------------------------------------------
Analyzed: Zolbert / Inside Out
--------------------------------------------------------------------------------

DR Peak RMS Duration Track
--------------------------------------------------------------------------------
DR7 0.00 dB -8.60 dB 4:21 01-Be Cool
DR7 0.00 dB -8.48 dB 3:38 02-Step By Step
DR7 0.00 dB -9.35 dB 3:21 03-Trust
DR7 0.00 dB -8.26 dB 3:01 04-Say Something
DR8 0.00 dB -8.71 dB 4:09 05-Mr. Serious
DR7 0.00 dB -8.53 dB 3:49 06-Sunset At The Hilltop
DR7 0.00 dB -9.28 dB 3:23 07-Don't Look Back
DR7 0.00 dB -8.41 dB 4:49 08-Touching
DR8 0.00 dB -9.14 dB 4:40 09-Come With Me
DR8 0.00 dB -9.93 dB 3:57 10-Heads Up
DR7 0.00 dB -9.46 dB 4:44 11-The Moment
DR6 0.00 dB -7.98 dB 4:03 12-Say Goodbye
DR7 0.00 dB -8.53 dB 3:28 13-Miami Nights
--------------------------------------------------------------------------------

Number of tracks: 13
Official DR value: DR7

Samplerate: 44100 Hz
Channels: 2
Bits per sample: 16
Bitrate: 948 kbps
Codec: FLAC
================================================================================
Время раздачи: По мере возможности (до появления первых 3-5 скачавших)
[NNMClub.to]_Zolbert - 2017 - Inside Out.torrent
 Торрент:   Зарегистрирован
 
Примагнититься
Free Leech
Зарегистрируйтесь и скачайте торрент!
15,5 KB
 Зарегистрирован:   21 Янв 2017 23:20:56
 Размер:   355 MB  (
 Рейтинг:    (Голосов: 9)
 Поблагодарили:   44
 Проверка:   Оформление проверено модератором 23 Янв 2017 00:29:57
Как cкачать  ·  Как раздать  ·  Правильно оформить  ·  Поднять ратио!  
Показать сообщения:   
Начать новую тему   Ответить на тему    Торрент-трекер NNM-Club -> Jazz, Blues, Soul -> Jazz (Lossless) Часовой пояс: GMT + 3
Страница 1 из 1