Интеллигентный торрент-трекер
canvas not supported
Нас вместе: 4 261 835

Marconi Union - Discography 13 Releases (2003-2017) [FLAC|Lossless|tracks+.cue, tracks] <Ambient, Downtempo, Post Rock, Techno, IDM, Minimal>


 
 
RSS
Начать новую тему   Ответить на тему    Торрент-трекер NNM-Club -> Electronic -> Easy listening (Lossless)
Автор Сообщение
vilator ®
Модератор Музыки
RG Музыки
 
Стаж: 7 лет 10 мес.
Сообщений: 5605
Ratio: 118,499
Поблагодарили: 109226
100%
Откуда: Minsk
pirates.png


Marconi Union - британский музыкальный проект, созданный Ричардом Тэлботом (Richard Talbot), Джейми Кроссли (Jamie Crossley) и Дунканом Мидоусом (Duncan Meadows).
Жанр: Ambient, Downtempo, Post Rock, Techno, IDM, Minimal • Страна: UK • Год издания: 2003-2017 • Тип издания: CD, Web • Лейбл: Just Music
Аудиокодек: FLAC (*.flac) • Тип рипа: tracks+.cue, tracks • Продолжительность: 09:31:25 • Источник: What, bandcamp • Наличие сканов: Да
Треклист:
Год выпуска: 2003
Продолжительность: 00:39:39
Треклист:

01. Glace Bay (Part One) (01:15)
02. Border Crossing (06:34)
03. Northern Stations (03:11)
04. The Contact (03:28)
05. The Currer Bell Version (05:07)
06. In Shadows (Parts One And Two) (08:02)
07. Under Wires And Searchlights (09:36)
08. Glace Bay (Part Two) (02:26)

X Lossless Decoder version 20090320 (105.1)

XLD extraction logfile from 2009-06-15 16:17:36 -0700

Marconi Union / Marconi Union - Under Wires And Searchlights

Used drive : HL-DT-ST DVDRW GS21N (revision SA15)

Use cdparanoia mode : YES (CDParanoia III 10.2 engine)
Disable audio cache : OK for the drive with cache less than 2750KB
Make use of C2 pointers : NO
Read offset correction : 667
Max retry count : 100

TOC of the extracted CD
Track | Start | Length | Start sector | End sector
---------------------------------------------------------
1 | 00:00:00 | 01:14:39 | 0 | 5588
2 | 01:14:39 | 06:33:56 | 5589 | 35119
3 | 07:48:20 | 03:11:05 | 35120 | 49449
4 | 10:59:25 | 03:27:71 | 49450 | 65045
5 | 14:27:21 | 05:07:31 | 65046 | 88101
6 | 19:34:52 | 08:01:56 | 88102 | 124232
7 | 27:36:33 | 09:36:35 | 124233 | 167467
8 | 37:12:68 | 02:25:56 | 167468 | 178398

List of alternate offset correction values
# | Absolute | Relative | Confidence
------------------------------------------
1 | 1331 | 664 | 1

Track 01
Filename : /Users/laurynnelizabeth/Desktop/CDs/01 - Glace Bay (Part One).flac

CRC32 hash (test run) : 8E0D5294
CRC32 hash : 8E0D5294
CRC32 hash (skip zero) : D0F882C0
AccurateRip signature : 71DAF507
->Rip may not be accurate.
Statistics
Read error : 0
Skipped (treated as error) : 0
Edge jitter error (maybe fixed) : 0
Atom jitter error (maybe fixed) : 0
Drift error (maybe fixed) : 0
Dropped bytes error (maybe fixed) : 0
Duplicated bytes error (maybe fixed) : 0
Inconsistency in error sectors : 0

Track 02
Filename : /Users/laurynnelizabeth/Desktop/CDs/02 - Border Crossing.flac

CRC32 hash (test run) : 03F63CC4
CRC32 hash : 03F63CC4
CRC32 hash (skip zero) : 1F6B428D
AccurateRip signature : 6BA8E93E
->Accurately ripped! (confidence 1)
(matched with the different offset correction value;
calculated using an additional offset of 664;
the signature after correction is: 826AF5AD)
Statistics
Read error : 0
Skipped (treated as error) : 0
Edge jitter error (maybe fixed) : 0
Atom jitter error (maybe fixed) : 0
Drift error (maybe fixed) : 0
Dropped bytes error (maybe fixed) : 0
Duplicated bytes error (maybe fixed) : 0
Inconsistency in error sectors : 0

Track 03
Filename : /Users/laurynnelizabeth/Desktop/CDs/03 - Northern Stations.flac

CRC32 hash (test run) : F8CF7F99
CRC32 hash : F8CF7F99
CRC32 hash (skip zero) : E32E6F77
AccurateRip signature : 2FEE30B3
->Accurately ripped! (confidence 1)
(matched with the different offset correction value;
calculated using an additional offset of 664;
the signature after correction is: 6DB80AB8)
Statistics
Read error : 0
Skipped (treated as error) : 0
Edge jitter error (maybe fixed) : 0
Atom jitter error (maybe fixed) : 0
Drift error (maybe fixed) : 0
Dropped bytes error (maybe fixed) : 0
Duplicated bytes error (maybe fixed) : 0
Inconsistency in error sectors : 0

Track 04
Filename : /Users/laurynnelizabeth/Desktop/CDs/04 - The Contact.flac

CRC32 hash (test run) : 61C918C0
CRC32 hash : 61C918C0
CRC32 hash (skip zero) : F655FF9A
AccurateRip signature : 25BB6DDA
->Accurately ripped! (confidence 1)
(matched with the different offset correction value;
calculated using an additional offset of 664;
the signature after correction is: 62F9A865)
Statistics
Read error : 0
Skipped (treated as error) : 0
Edge jitter error (maybe fixed) : 0
Atom jitter error (maybe fixed) : 0
Drift error (maybe fixed) : 0
Dropped bytes error (maybe fixed) : 0
Duplicated bytes error (maybe fixed) : 0
Inconsistency in error sectors : 0

Track 05
Filename : /Users/laurynnelizabeth/Desktop/CDs/05 - The Currer Bell Version.flac

CRC32 hash (test run) : B711369D
CRC32 hash : B711369D
CRC32 hash (skip zero) : F2437953
AccurateRip signature : 3670AB66
->Accurately ripped! (confidence 1)
(matched with the different offset correction value;
calculated using an additional offset of 664;
the signature after correction is: BAE88F93)
Statistics
Read error : 0
Skipped (treated as error) : 0
Edge jitter error (maybe fixed) : 0
Atom jitter error (maybe fixed) : 0
Drift error (maybe fixed) : 0
Dropped bytes error (maybe fixed) : 0
Duplicated bytes error (maybe fixed) : 0
Inconsistency in error sectors : 0

Track 06
Filename : /Users/laurynnelizabeth/Desktop/CDs/06 - In Shadows (Parts One and Two).flac

CRC32 hash (test run) : 3D644B9C
CRC32 hash : 3D644B9C
CRC32 hash (skip zero) : 2E385BA5
AccurateRip signature : 55BA7781
->Accurately ripped! (confidence 1)
(matched with the different offset correction value;
calculated using an additional offset of 664;
the signature after correction is: D4C32517)
Statistics
Read error : 0
Skipped (treated as error) : 0
Edge jitter error (maybe fixed) : 0
Atom jitter error (maybe fixed) : 0
Drift error (maybe fixed) : 0
Dropped bytes error (maybe fixed) : 0
Duplicated bytes error (maybe fixed) : 0
Inconsistency in error sectors : 0

Track 07
Filename : /Users/laurynnelizabeth/Desktop/CDs/07 - Under Wires and Searchlights.flac

CRC32 hash (test run) : 1C83BDC2
CRC32 hash : 1C83BDC2
CRC32 hash (skip zero) : C89233F8
AccurateRip signature : 5172B1E1
->Accurately ripped! (confidence 1)
(matched with the different offset correction value;
calculated using an additional offset of 664;
the signature after correction is: 8782F4E6)
Statistics
Read error : 0
Skipped (treated as error) : 0
Edge jitter error (maybe fixed) : 0
Atom jitter error (maybe fixed) : 0
Drift error (maybe fixed) : 0
Dropped bytes error (maybe fixed) : 0
Duplicated bytes error (maybe fixed) : 0
Inconsistency in error sectors : 0

Track 08
Filename : /Users/laurynnelizabeth/Desktop/CDs/08 - Glace Bay (Part Two).flac

CRC32 hash (test run) : B78EDC05
CRC32 hash : B78EDC05
CRC32 hash (skip zero) : 7C57F231
AccurateRip signature : 1CB6B056
->Rip may not be accurate.
Statistics
Read error : 0
Skipped (treated as error) : 0
Edge jitter error (maybe fixed) : 0
Atom jitter error (maybe fixed) : 0
Drift error (maybe fixed) : 0
Dropped bytes error (maybe fixed) : 0
Duplicated bytes error (maybe fixed) : 0
Inconsistency in error sectors : 0

No errors occurred

End of status report


TITLE "Marconi Union - Under Wires And Searchlights"
PERFORMER "Marconi Union"
REM GENRE "Electronica/Dance"
REM DATE 2003
FILE "01 - Glace Bay (Part One).wav" WAVE
TRACK 01 AUDIO
TITLE "Glace Bay (Part One)"
INDEX 01 00:00:00
FILE "02 - Border Crossing.wav" WAVE
TRACK 02 AUDIO
TITLE "Border Crossing"
INDEX 01 00:00:00
FILE "03 - Northern Stations.wav" WAVE
TRACK 03 AUDIO
TITLE "Northern Stations"
INDEX 01 00:00:00
FILE "04 - The Contact.wav" WAVE
TRACK 04 AUDIO
TITLE "The Contact"
INDEX 01 00:00:00
FILE "05 - The Currer Bell Version.wav" WAVE
TRACK 05 AUDIO
TITLE "The Currer Bell Version"
INDEX 01 00:00:00
FILE "06 - In Shadows (Parts One and Two).wav" WAVE
TRACK 06 AUDIO
TITLE "In Shadows (Parts One and Two)"
INDEX 01 00:00:00
FILE "07 - Under Wires and Searchlights.wav" WAVE
TRACK 07 AUDIO
TITLE "Under Wires and Searchlights"
INDEX 01 00:00:00
FILE "08 - Glace Bay (Part Two).wav" WAVE
TRACK 08 AUDIO
TITLE "Glace Bay (Part Two)"
INDEX 01 00:00:00

Год выпуска: 2005
Продолжительность: 00:40:14
Треклист:

01. Sleepless (05:41)
02. These European Cities (07:10)
03. Through Glass (05:50)
04. Buildings And People (04:57)
05. Suburb27 (05:27)
06. Inter (05:54)
07. A Temporary Life (05:15)

X Lossless Decoder version 20090320 (105.1)

XLD extraction logfile from 2009-04-09 06:44:52 -0400

Marconi Union / Distance

Used drive : MATSHITA DVD-R UJ-867 (revision HA13)

Use cdparanoia mode : YES (CDParanoia III 10.2 engine)
Disable audio cache : OK for the drive with cache less than 2750KB
Make use of C2 pointers : NO
Read offset correction : 102
Max retry count : 100

TOC of the extracted CD
Track | Start | Length | Start sector | End sector
---------------------------------------------------------
1 | 00:00:00 | 05:41:33 | 0 | 25607
2 | 05:41:33 | 07:09:49 | 25608 | 57831
3 | 12:51:07 | 05:49:49 | 57832 | 84055
4 | 18:40:56 | 04:56:38 | 84056 | 106293
5 | 23:37:19 | 05:26:61 | 106294 | 130804
6 | 29:04:05 | 05:54:08 | 130805 | 157362
7 | 34:58:13 | 05:15:27 | 157363 | 181014

List of alternate offset correction values
# | Absolute | Relative | Confidence
------------------------------------------
1 | 194 | 92 | 2

Track 01
Filename : /we are the dreamers of dreams/Marconi Union - Distance/01 - Marconi Union - Sleepless.flac

CRC32 hash (test run) : 2FDEC218
CRC32 hash : 2FDEC218
CRC32 hash (skip zero) : 2EE633BE
AccurateRip signature : 5B32DBAE
->Accurately ripped! (confidence 4)
Statistics
Read error : 0
Skipped (treated as error) : 0
Edge jitter error (maybe fixed) : 0
Atom jitter error (maybe fixed) : 0
Drift error (maybe fixed) : 0
Dropped bytes error (maybe fixed) : 0
Duplicated bytes error (maybe fixed) : 0
Inconsistency in error sectors : 0

Track 02
Filename : /we are the dreamers of dreams/Marconi Union - Distance/02 - Marconi Union - These European Cities.flac

CRC32 hash (test run) : 21E562FD
CRC32 hash : 21E562FD
CRC32 hash (skip zero) : 5F3A6684
AccurateRip signature : 3681148A
->Accurately ripped! (confidence 4)
Statistics
Read error : 0
Skipped (treated as error) : 0
Edge jitter error (maybe fixed) : 0
Atom jitter error (maybe fixed) : 0
Drift error (maybe fixed) : 0
Dropped bytes error (maybe fixed) : 0
Duplicated bytes error (maybe fixed) : 0
Inconsistency in error sectors : 0

Track 03
Filename : /we are the dreamers of dreams/Marconi Union - Distance/03 - Marconi Union - Through Glass.flac

CRC32 hash (test run) : F3720308
CRC32 hash : F3720308
CRC32 hash (skip zero) : B90F9C04
AccurateRip signature : 1FA58149
->Accurately ripped! (confidence 4)
Statistics
Read error : 0
Skipped (treated as error) : 0
Edge jitter error (maybe fixed) : 0
Atom jitter error (maybe fixed) : 0
Drift error (maybe fixed) : 0
Dropped bytes error (maybe fixed) : 0
Duplicated bytes error (maybe fixed) : 0
Inconsistency in error sectors : 0

Track 04
Filename : /we are the dreamers of dreams/Marconi Union - Distance/04 - Marconi Union - Buildings and People.flac

CRC32 hash (test run) : 5CB2A6EC
CRC32 hash : 5CB2A6EC
CRC32 hash (skip zero) : CB02468D
AccurateRip signature : 84DEF4B3
->Accurately ripped! (confidence 4)
Statistics
Read error : 0
Skipped (treated as error) : 0
Edge jitter error (maybe fixed) : 0
Atom jitter error (maybe fixed) : 0
Drift error (maybe fixed) : 0
Dropped bytes error (maybe fixed) : 0
Duplicated bytes error (maybe fixed) : 0
Inconsistency in error sectors : 0

Track 05
Filename : /we are the dreamers of dreams/Marconi Union - Distance/05 - Marconi Union - Suburb27.flac

CRC32 hash (test run) : BB663AD3
CRC32 hash : BB663AD3
CRC32 hash (skip zero) : 691C6BF3
AccurateRip signature : 3306D958
->Accurately ripped! (confidence 4)
Statistics
Read error : 0
Skipped (treated as error) : 0
Edge jitter error (maybe fixed) : 0
Atom jitter error (maybe fixed) : 0
Drift error (maybe fixed) : 0
Dropped bytes error (maybe fixed) : 0
Duplicated bytes error (maybe fixed) : 0
Inconsistency in error sectors : 0

Track 06
Filename : /we are the dreamers of dreams/Marconi Union - Distance/06 - Marconi Union - Inter.flac

CRC32 hash (test run) : 7B45FEDB
CRC32 hash : 7B45FEDB
CRC32 hash (skip zero) : 2FB2B480
AccurateRip signature : 0AE44ED6
->Accurately ripped! (confidence 4)
Statistics
Read error : 0
Skipped (treated as error) : 0
Edge jitter error (maybe fixed) : 0
Atom jitter error (maybe fixed) : 0
Drift error (maybe fixed) : 0
Dropped bytes error (maybe fixed) : 0
Duplicated bytes error (maybe fixed) : 0
Inconsistency in error sectors : 0

Track 07
Filename : /we are the dreamers of dreams/Marconi Union - Distance/07 - Marconi Union - A Temporary Life.flac

CRC32 hash (test run) : A26D49B8
CRC32 hash : A26D49B8
CRC32 hash (skip zero) : 0943852F
AccurateRip signature : B0806973
->Accurately ripped! (confidence 3)
Statistics
Read error : 0
Skipped (treated as error) : 0
Edge jitter error (maybe fixed) : 0
Atom jitter error (maybe fixed) : 0
Drift error (maybe fixed) : 0
Dropped bytes error (maybe fixed) : 0
Duplicated bytes error (maybe fixed) : 0
Inconsistency in error sectors : 0

No errors occurred

End of status report


TITLE "Distance"
PERFORMER "Marconi Union"
REM GENRE "Electronic"
REM DATE 2006
FILE "01 - Marconi Union - Sleepless.wav" WAVE
TRACK 01 AUDIO
TITLE "Sleepless"
ISRC USRY20517798
INDEX 01 00:00:00
FILE "02 - Marconi Union - These European Cities.wav" WAVE
TRACK 02 AUDIO
TITLE "These European Cities"
ISRC USRY20517799
INDEX 01 00:00:00
FILE "03 - Marconi Union - Through Glass.wav" WAVE
TRACK 03 AUDIO
TITLE "Through Glass"
ISRC USRY20517800
INDEX 01 00:00:00
FILE "04 - Marconi Union - Buildings and People.wav" WAVE
TRACK 04 AUDIO
TITLE "Buildings and People"
ISRC USRY20517801
INDEX 01 00:00:00
FILE "05 - Marconi Union - Suburb27.wav" WAVE
TRACK 05 AUDIO
TITLE "Suburb27"
ISRC USRY20517802
INDEX 01 00:00:00
FILE "06 - Marconi Union - Inter.wav" WAVE
TRACK 06 AUDIO
TITLE "Inter"
ISRC USRY20517803
INDEX 01 00:00:00
FILE "07 - Marconi Union - A Temporary Life.wav" WAVE
TRACK 07 AUDIO
TITLE "A Temporary Life"
ISRC USRY20517804
INDEX 01 00:00:00

Год выпуска: 2009
Продолжительность: 00:39:59
Треклист:

01. Ginza District (05:11)
02. Lost In Neon (04:01)
03. Nightworker (06:11)
04. Hatsunori (04:12)
05. Red Line 12AM (07:28)
06. Akihabara (Electric Town) (07:17)
07. Temperature Drop (05:39)

Exact Audio Copy V0.99 prebeta 5 from 4. May 2009

EAC extraction logfile from 18. May 2010, 15:16

Marconi Union / Tokyo

Used drive : TSSTcorpCDW/DVD TS-L462C Adapter: 1 ID: 0

Read mode : Secure
Utilize accurate stream : Yes
Defeat audio cache : Yes
Make use of C2 pointers : No

Read offset correction : 6
Overread into Lead-In and Lead-Out : No
Fill up missing offset samples with silence : Yes
Delete leading and trailing silent blocks : No
Null samples used in CRC calculations : Yes
Used interface : Native Win32 interface for Win NT & 2000
Gap handling : Appended to previous track

Used output format : User Defined Encoder
Selected bitrate : 128 kBit/s
Quality : High
Add ID3 tag : No
Command line compressor : C:\Program Files\Exact Audio Copy\Flac\flac.exe
Additional command line options : -V -8 -T "artist=%a" -T "title=%t" -T "album=%g" -T "date=%y" -T "tracknumber=%n" -T "genre=%m" %s

TOC of the extracted CD

Track | Start | Length | Start sector | End sector
---------------------------------------------------------
1 | 0:00.00 | 5:11.01 | 0 | 23325
2 | 5:11.01 | 4:01.22 | 23326 | 41422
3 | 9:12.23 | 6:11.08 | 41423 | 69255
4 | 15:23.31 | 4:12.28 | 69256 | 88183
5 | 19:35.59 | 7:28.01 | 88184 | 121784
6 | 27:03.60 | 7:16.52 | 121785 | 154536
7 | 34:20.37 | 5:38.59 | 154537 | 179945

Track 1

Filename S:\[+]\flac\Marconi Union\[2009] Tokyo [flac]\01. Ginza District.wav

Pre-gap length 0:00:02.00

Peak level 96.6 %
Track quality 100.0 %
Test CRC C8540D5C
Copy CRC C8540D5C
Accurately ripped (confidence 1) [FA214590]
Copy OK

Track 2

Filename S:\[+]\flac\Marconi Union\[2009] Tokyo [flac]\02. Lost in Neon.wav

Peak level 96.6 %
Track quality 100.0 %
Test CRC F9F6DE0B
Copy CRC F9F6DE0B
Accurately ripped (confidence 1) [660F7333]
Copy OK

Track 3

Filename S:\[+]\flac\Marconi Union\[2009] Tokyo [flac]\03. Nightworker.wav

Peak level 96.6 %
Track quality 100.0 %
Test CRC 90497D9D
Copy CRC 90497D9D
Accurately ripped (confidence 1) [486911C2]
Copy OK

Track 4

Filename S:\[+]\flac\Marconi Union\[2009] Tokyo [flac]\04. Hatsunori.wav

Peak level 96.6 %
Track quality 99.9 %
Test CRC B67AF47A
Copy CRC B67AF47A
Accurately ripped (confidence 1) [6FB21F3E]
Copy OK

Track 5

Filename S:\[+]\flac\Marconi Union\[2009] Tokyo [flac]\05. Red Line 12AM.wav

Peak level 96.6 %
Track quality 100.0 %
Test CRC 460B6B8D
Copy CRC 460B6B8D
Accurately ripped (confidence 1) [2E7BD725]
Copy OK

Track 6

Filename S:\[+]\flac\Marconi Union\[2009] Tokyo [flac]\06. Akihabara (Electric Town).wav

Peak level 96.6 %
Track quality 100.0 %
Test CRC FA2DD6E4
Copy CRC FA2DD6E4
Accurately ripped (confidence 1) [33E7EFB0]
Copy OK

Track 7

Filename S:\[+]\flac\Marconi Union\[2009] Tokyo [flac]\07. Temperature Drop.wav

Peak level 96.6 %
Track quality 100.0 %
Test CRC AAB62C58
Copy CRC AAB62C58
Accurately ripped (confidence 1) [85A75CAF]
Copy OK

All tracks accurately ripped

No errors occurred

End of status report

REM GENRE "Post Rock"
REM DATE 2009
REM DISCID 4F095F07
REM COMMENT "ExactAudioCopy v0.99pb5"
PERFORMER "Marconi Union"
TITLE "Tokyo"
FILE "01. Ginza District.wav" WAVE
TRACK 01 AUDIO
TITLE "Ginza District"
PERFORMER "Marconi Union"
INDEX 01 00:00:00
FILE "02. Lost in Neon.wav" WAVE
TRACK 02 AUDIO
TITLE "Lost in Neon"
PERFORMER "Marconi Union"
INDEX 01 00:00:00
FILE "03. Nightworker.wav" WAVE
TRACK 03 AUDIO
TITLE "Nightworker"
PERFORMER "Marconi Union"
INDEX 01 00:00:00
FILE "04. Hatsunori.wav" WAVE
TRACK 04 AUDIO
TITLE "Hatsunori"
PERFORMER "Marconi Union"
INDEX 01 00:00:00
FILE "05. Red Line 12AM.wav" WAVE
TRACK 05 AUDIO
TITLE "Red Line 12AM"
PERFORMER "Marconi Union"
INDEX 01 00:00:00
FILE "06. Akihabara (Electric Town).wav" WAVE
TRACK 06 AUDIO
TITLE "Akihabara (Electric Town)"
PERFORMER "Marconi Union"
INDEX 01 00:00:00
FILE "07. Temperature Drop.wav" WAVE
TRACK 07 AUDIO
TITLE "Temperature Drop"
PERFORMER "Marconi Union"
INDEX 01 00:00:00

Год выпуска: 2010
Продолжительность: 00:45:10
Треклист:

01. Interiors (06:23)
02. Endless Winter (07:23)
03. Debris (04:50)
04. Hinterland (05:54)
05. Stationary (08:29)
06. We Travel (07:01)
07. Transient (05:10)

Exact Audio Copy V0.99 prebeta 5 from 4. May 2009

EAC extraction logfile from 3. November 2010, 21:38

Marconi Union / A Lost Connection

Used drive : HL-DT-STBDDVDRW CT10L Adapter: 1 ID: 0

Read mode : Secure
Utilize accurate stream : Yes
Defeat audio cache : Yes
Make use of C2 pointers : No

Read offset correction : 667
Overread into Lead-In and Lead-Out : No
Fill up missing offset samples with silence : Yes
Delete leading and trailing silent blocks : No
Null samples used in CRC calculations : Yes
Used interface : Native Win32 interface for Win NT & 2000
Gap handling : Appended to previous track

Used output format : User Defined Encoder
Selected bitrate : 128 kBit/s
Quality : High
Add ID3 tag : No
Command line compressor : C:\Program Files (x86)\FLAC\flac.exe
Additional command line options : -V -8 -T "artist=%a" -T "title=%t" -T "album=%g" -T "date=%y" -T "tracknumber=%n" -T "genre=%m" %s

TOC of the extracted CD

Track | Start | Length | Start sector | End sector
---------------------------------------------------------
1 | 0:00.00 | 6:23.07 | 0 | 28731
2 | 6:23.07 | 7:23.33 | 28732 | 61989
3 | 13:46.40 | 4:50.34 | 61990 | 83773
4 | 18:36.74 | 5:53.63 | 83774 | 110311
5 | 24:30.62 | 8:29.26 | 110312 | 148512
6 | 33:00.13 | 7:01.19 | 148513 | 180106
7 | 40:01.32 | 5:09.73 | 180107 | 203354

Track 1

Filename C:\EACrips\Marconi Union - 2010 - A Lost Connection\01 - Interiors.wav

Pre-gap length 0:00:02.00

Peak level 96.7 %
Track quality 100.0 %
Test CRC 3004B660
Copy CRC 3004B660
Track not present in AccurateRip database
Copy OK

Track 2

Filename C:\EACrips\Marconi Union - 2010 - A Lost Connection\02 - Endless Winter.wav

Peak level 96.7 %
Track quality 100.0 %
Test CRC 5A5C434D
Copy CRC 5A5C434D
Track not present in AccurateRip database
Copy OK

Track 3

Filename C:\EACrips\Marconi Union - 2010 - A Lost Connection\03 - Debris.wav

Pre-gap length 0:00:02.36

Peak level 96.6 %
Track quality 100.0 %
Test CRC 50E86F53
Copy CRC 50E86F53
Track not present in AccurateRip database
Copy OK

Track 4

Filename C:\EACrips\Marconi Union - 2010 - A Lost Connection\04 - Hinterland.wav

Peak level 96.6 %
Track quality 100.0 %
Test CRC 0186DD7D
Copy CRC 0186DD7D
Track not present in AccurateRip database
Copy OK

Track 5

Filename C:\EACrips\Marconi Union - 2010 - A Lost Connection\05 - Stationary.wav

Pre-gap length 0:00:03.05

Peak level 97.0 %
Track quality 100.0 %
Test CRC 0CC5097B
Copy CRC 0CC5097B
Track not present in AccurateRip database
Copy OK

Track 6

Filename C:\EACrips\Marconi Union - 2010 - A Lost Connection\06 - We Travel.wav

Pre-gap length 0:00:04.56

Peak level 96.6 %
Track quality 100.0 %
Test CRC CE8969A9
Copy CRC CE8969A9
Track not present in AccurateRip database
Copy OK

Track 7

Filename C:\EACrips\Marconi Union - 2010 - A Lost Connection\07 - Transient.wav

Pre-gap length 0:00:02.44

Peak level 96.6 %
Track quality 100.0 %
Test CRC 4220D661
Copy CRC 4220D661
Track not present in AccurateRip database
Copy OK

None of the tracks are present in the AccurateRip database

No errors occurred

End of status report


REM GENRE Electronic
REM DATE 2010
REM DISCID 5A0A9707
REM COMMENT "ExactAudioCopy v0.99pb5"
FILE "01 - Interiors.wav" WAVE
TRACK 01 AUDIO
INDEX 01 00:00:00
FILE "02 - Endless Winter.wav" WAVE
TRACK 02 AUDIO
INDEX 01 00:00:00
TRACK 03 AUDIO
INDEX 00 07:21:06
FILE "03 - Debris.wav" WAVE
INDEX 01 00:00:00
FILE "04 - Hinterland.wav" WAVE
TRACK 04 AUDIO
INDEX 01 00:00:00
TRACK 05 AUDIO
INDEX 00 05:50:59
FILE "05 - Stationary.wav" WAVE
INDEX 01 00:00:00
TRACK 06 AUDIO
INDEX 00 08:24:59
FILE "06 - We Travel.wav" WAVE
INDEX 01 00:00:00
TRACK 07 AUDIO
INDEX 00 06:58:61
FILE "07 - Transient.wav" WAVE
INDEX 01 00:00:00

Год выпуска: 2011
Продолжительность: 00:44:08
Треклист:

01. Breathing With Assistance (08:02)
02. Slow Collapse (04:52)
03. Blue Collar Parade (08:13)
04. Losing The Light (07:17)
05. Beautifully Falling Apart (08:00)
06. A Shower Of Sparks (07:44)

Exact Audio Copy V1.0 beta 1 from 15. November 2010

EAC extraction logfile from 5. August 2011, 12:38

Marconi Union / Beautifully Falling Apart [Ambient Transmissions Vol. 1]

Used drive : OPTIARC DVD-ROM DDU1678A Adapter: 0 ID: 1

Read mode : Secure
Utilize accurate stream : Yes
Defeat audio cache : Yes
Make use of C2 pointers : No

Read offset correction : 6
Overread into Lead-In and Lead-Out : No
Fill up missing offset samples with silence : Yes
Delete leading and trailing silent blocks : No
Null samples used in CRC calculations : Yes
Used interface : Native Win32 interface for Win NT & 2000
Gap handling : Appended to previous track

Used output format : User Defined Encoder
Selected bitrate : 896 kBit/s
Quality : High
Add ID3 tag : No
Command line compressor : C:\Program Files\Exact Audio Copy\Flac\flac.exe
Additional command line options : -8 -V -T "ARTIST=%a" -T "TITLE=%t" -T "ALBUM=%g" -T "DATE=%y" -T "TRACKNUMBER=%n" -T "TOTALTRACKS=%x" -T "GENRE=%m" -T "ALBUM ARTIST=%v" -T "ALBUMARTIST=%v" -T "COMMENT=EAC V1.0 Beta 1, Secure Mode, Test & Copy, AccurateRip

TOC of the extracted CD

Track | Start | Length | Start sector | End sector
---------------------------------------------------------
1 | 0:00.00 | 8:01.54 | 0 | 36128
2 | 8:01.54 | 4:52.23 | 36129 | 58051
3 | 12:54.02 | 8:13.21 | 58052 | 95047
4 | 21:07.23 | 7:17.27 | 95048 | 127849
5 | 28:24.50 | 8:00.30 | 127850 | 163879
6 | 36:25.05 | 7:44.02 | 163880 | 198681

Track 1

Filename K:\Torrents\Marconi Union - Beautifully Falling Apart [Ambient Transmissions Vol. 1] (2011) [FLAC]\01. Marconi Union - Breathing With Assistance.wav

Pre-gap length 0:00:02.00

Peak level 98.9 %
Extraction speed 1.9 X
Track quality 100.0 %
Test CRC C36BDD63
Copy CRC C36BDD63
Track not present in AccurateRip database
Copy OK

Track 2

Filename K:\Torrents\Marconi Union - Beautifully Falling Apart [Ambient Transmissions Vol. 1] (2011) [FLAC]\02. Marconi Union - Slow Collapse.wav

Peak level 67.2 %
Extraction speed 2.3 X
Track quality 100.0 %
Test CRC 5671283D
Copy CRC 5671283D
Track not present in AccurateRip database
Copy OK

Track 3

Filename K:\Torrents\Marconi Union - Beautifully Falling Apart [Ambient Transmissions Vol. 1] (2011) [FLAC]\03. Marconi Union - Blue Collar Parade.wav

Peak level 98.3 %
Extraction speed 2.8 X
Track quality 100.0 %
Test CRC C5A299FB
Copy CRC C5A299FB
Track not present in AccurateRip database
Copy OK

Track 4

Filename K:\Torrents\Marconi Union - Beautifully Falling Apart [Ambient Transmissions Vol. 1] (2011) [FLAC]\04. Marconi Union - Losing The Light.wav

Peak level 93.9 %
Extraction speed 3.1 X
Track quality 100.0 %
Test CRC 7FBEFE52
Copy CRC 7FBEFE52
Track not present in AccurateRip database
Copy OK

Track 5

Filename K:\Torrents\Marconi Union - Beautifully Falling Apart [Ambient Transmissions Vol. 1] (2011) [FLAC]\05. Marconi Union - Beautifully Falling Apart.wav

Pre-gap length 0:00:02.30

Peak level 64.6 %
Extraction speed 2.8 X
Track quality 100.0 %
Test CRC 322A52ED
Copy CRC 322A52ED
Track not present in AccurateRip database
Copy OK

Track 6

Filename K:\Torrents\Marconi Union - Beautifully Falling Apart [Ambient Transmissions Vol. 1] (2011) [FLAC]\06. Marconi Union - A Shower of Sparks.wav

Pre-gap length 0:00:01.24

Peak level 99.0 %
Extraction speed 3.2 X
Track quality 100.0 %
Test CRC 7211626A
Copy CRC 7211626A
Track not present in AccurateRip database
Copy OK

None of the tracks are present in the AccurateRip database

No errors occurred

End of status report

==== Log checksum 23D4FC4093F85638052F62764C40B84F913972410F2E8D93F4060301D970D841 ====


REM GENRE "Downtempo, Ambient"
REM DATE 2011
REM DISCID 570A5906
REM COMMENT "ExactAudioCopy v1.0b1"
PERFORMER "Marconi Union"
TITLE "Beautifully Falling Apart [Ambient Transmissions Vol. 1]"
FILE "01. Marconi Union - Breathing With Assistance.wav" WAVE
TRACK 01 AUDIO
TITLE "Breathing With Assistance"
PERFORMER "Marconi Union"
ISRC GBDDN1100442
INDEX 01 00:00:00
FILE "02. Marconi Union - Slow Collapse.wav" WAVE
TRACK 02 AUDIO
TITLE "Slow Collapse"
PERFORMER "Marconi Union"
ISRC GBDDN1100443
INDEX 01 00:00:00
FILE "03. Marconi Union - Blue Collar Parade.wav" WAVE
TRACK 03 AUDIO
TITLE "Blue Collar Parade"
PERFORMER "Marconi Union"
ISRC GBDDN1100444
INDEX 01 00:00:00
FILE "04. Marconi Union - Losing The Light.wav" WAVE
TRACK 04 AUDIO
TITLE "Losing The Light"
PERFORMER "Marconi Union"
ISRC GBDDN1100445
INDEX 01 00:00:00
TRACK 05 AUDIO
TITLE "Beautifully Falling Apart"
PERFORMER "Marconi Union"
ISRC GBDDN1100446
INDEX 00 07:15:04
FILE "05. Marconi Union - Beautifully Falling Apart.wav" WAVE
INDEX 01 00:00:00
TRACK 06 AUDIO
TITLE "A Shower of Sparks"
PERFORMER "Marconi Union"
ISRC GBDDN1100447
INDEX 00 07:59:12
FILE "06. Marconi Union - A Shower of Sparks.wav" WAVE
INDEX 01 00:00:00

Год выпуска: 2012
Продолжительность: 00:48:18
Треклист:

01. First Light (07:37)
02. Alone Together (07:07)
03. Flying (In Crimson Skies) (07:32)
04. Always Numb (06:15)
05. Time Lapse (07:45)
06. On Reflection (05:38)
07. Broken Colours (06:24)

Exact Audio Copy V1.0 beta 3 from 29. August 2011

EAC extraction logfile from 27. June 2012, 21:56

Marconi Union / Different Colours

Used drive : HL-DT-STDVDRAM GP40LB10 Adapter: 1 ID: 0

Read mode : Secure
Utilize accurate stream : Yes
Defeat audio cache : Yes
Make use of C2 pointers : No

Read offset correction : 6
Overread into Lead-In and Lead-Out : No
Fill up missing offset samples with silence : Yes
Delete leading and trailing silent blocks : No
Null samples used in CRC calculations : Yes
Used interface : Native Win32 interface for Win NT & 2000
Gap handling : Appended to previous track

Used output format : User Defined Encoder
Selected bitrate : 1024 kBit/s
Quality : High
Add ID3 tag : No
Command line compressor : C:\Program Files (x86)\Exact Audio Copy\FLAC\FLAC.EXE
Additional command line options : -8 -V -T "ARTIST=%artist%" -T "TITLE=%title%" -T "ALBUM=%albumtitle%" -T "DATE=%year%" -T "TRACKNUMBER=%tracknr%" -T "GENRE=%genre%" -T "PERFORMER=%albuminterpret%" -T "COMPOSER=%composer%" %haslyrics%--tag-from-file=LYRICS="%lyricsfile%"%haslyrics% -T "ALBUMARTIST=%albumartist%" -T "DISCNUMBER=%cdnumber%" -T "TOTALDISCS=%totalcds%" -T "TOTALTRACKS=%numtracks%" -T "COMMENT=%comment%" %source% -o %dest%

TOC of the extracted CD

Track | Start | Length | Start sector | End sector
---------------------------------------------------------
1 | 0:00.00 | 7:36.74 | 0 | 34273
2 | 7:36.74 | 7:06.74 | 34274 | 66297
3 | 14:43.73 | 7:32.12 | 66298 | 100209
4 | 22:16.10 | 6:15.04 | 100210 | 128338
5 | 28:31.14 | 7:45.33 | 128339 | 163246
6 | 36:16.47 | 5:38.02 | 163247 | 188598
7 | 41:54.49 | 6:24.06 | 188599 | 217404

Track 1

Filename I:\Music3\Marconi Union - Different Colours (2012) FLAC\01 - First Light.wav

Pre-gap length 0:00:02.00

Peak level 99.0 %
Extraction speed 1.3 X
Track quality 100.0 %
Test CRC F8402C47
Copy CRC F8402C47
Track not present in AccurateRip database
Copy OK

Track 2

Filename I:\Music3\Marconi Union - Different Colours (2012) FLAC\02 - Alone Together.wav

Pre-gap length 0:00:01.41

Peak level 99.8 %
Extraction speed 1.6 X
Track quality 100.0 %
Test CRC D0232E81
Copy CRC D0232E81
Track not present in AccurateRip database
Copy OK

Track 3

Filename I:\Music3\Marconi Union - Different Colours (2012) FLAC\03 - Flying (in crimson skies).wav

Pre-gap length 0:00:02.12

Peak level 99.0 %
Extraction speed 1.6 X
Track quality 99.9 %
Test CRC F1E224A8
Copy CRC F1E224A8
Track not present in AccurateRip database
Copy OK

Track 4

Filename I:\Music3\Marconi Union - Different Colours (2012) FLAC\04 - Always Numb.wav

Peak level 97.5 %
Extraction speed 1.9 X
Track quality 100.0 %
Test CRC 01B3FD61
Copy CRC 01B3FD61
Track not present in AccurateRip database
Copy OK

Track 5

Filename I:\Music3\Marconi Union - Different Colours (2012) FLAC\05 - Time Lapse.wav

Pre-gap length 0:00:01.63

Peak level 99.0 %
Extraction speed 2.0 X
Track quality 99.9 %
Test CRC DDA9922B
Copy CRC DDA9922B
Track not present in AccurateRip database
Copy OK

Track 6

Filename I:\Music3\Marconi Union - Different Colours (2012) FLAC\06 - On Reflection.wav

Peak level 99.0 %
Extraction speed 2.2 X
Track quality 100.0 %
Test CRC 769E2B09
Copy CRC 769E2B09
Track not present in AccurateRip database
Copy OK

Track 7

Filename I:\Music3\Marconi Union - Different Colours (2012) FLAC\07 - Broken Colours.wav

Pre-gap length 0:00:02.58

Peak level 99.2 %
Extraction speed 2.3 X
Track quality 100.0 %
Test CRC 9C38B764
Copy CRC 9C38B764
Track not present in AccurateRip database
Copy OK

None of the tracks are present in the AccurateRip database

No errors occurred

End of status report

==== Log checksum 5936E5C37ADA7BA986741FE3E887423A79066AE0AC39CF1ECDDC51526A7B3832 ====

REM DATE 2012
REM DISCID 630B5207
REM COMMENT "ExactAudioCopy v1.0b3"
PERFORMER "Marconi Union"
TITLE "Different Colours"
FILE "01 - First Light.wav" WAVE
TRACK 01 AUDIO
TITLE "First Light"
PERFORMER "Marconi Union"
INDEX 01 00:00:00
TRACK 02 AUDIO
TITLE "Alone Together"
PERFORMER "Marconi Union"
INDEX 00 07:35:33
FILE "02 - Alone Together.wav" WAVE
INDEX 01 00:00:00
TRACK 03 AUDIO
TITLE "Flying (in crimson skies)"
PERFORMER "Marconi Union"
INDEX 00 07:04:62
FILE "03 - Flying (in crimson skies).wav" WAVE
INDEX 01 00:00:00
FILE "04 - Always Numb.wav" WAVE
TRACK 04 AUDIO
TITLE "Always Numb"
PERFORMER "Marconi Union"
INDEX 01 00:00:00
TRACK 05 AUDIO
TITLE "Time Lapse"
PERFORMER "Marconi Union"
INDEX 00 06:13:16
FILE "05 - Time Lapse.wav" WAVE
INDEX 01 00:00:00
FILE "06 - On Reflection.wav" WAVE
TRACK 06 AUDIO
TITLE "On Reflection"
PERFORMER "Marconi Union"
INDEX 01 00:00:00
TRACK 07 AUDIO
TITLE "Broken Colours"
PERFORMER "Marconi Union"
INDEX 00 05:35:19
FILE "07 - Broken Colours.wav" WAVE
INDEX 01 00:00:00

Год выпуска: 2012
Продолжительность: 00:48:14
Треклист:

01. First Light (07:36)
02. Alone Together (07:07)
03. Flying (In Crimson Skies) (07:32)
04. Always Numb (06:15)
05. Time Lapse (07:45)
06. On Reflection (05:38)
07. Broken Colours (06:21)

foobar2000 1.1 / Dynamic Range Meter 1.1.1
log date: 2017-01-22 00:07:28

--------------------------------------------------------------------------------
Analyzed: Marconi Union / Different Colours
--------------------------------------------------------------------------------

DR Peak RMS Duration Track
--------------------------------------------------------------------------------
DR9 -0.08 dB -11.73 dB 7:36 ?-First Light
DR11 -0.01 dB -13.70 dB 7:07 ?-Alone Together
DR8 -0.08 dB -11.94 dB 7:32 ?-Flying (In Crimson Skies)
DR10 -0.21 dB -14.89 dB 6:15 ?-Always Numb
DR9 -0.08 dB -11.31 dB 7:45 ?-Time Lapse
DR8 -0.08 dB -10.71 dB 5:38 ?-On Reflection
DR8 -0.07 dB -10.70 dB 6:21 ?-Broken Colours
--------------------------------------------------------------------------------

Number of tracks: 7
Official DR value: DR9

Samplerate: 44100 Hz
Channels: 2
Bits per sample: 24
Bitrate: 1639 kbps
Codec: FLAC
================================================================================

Год выпуска: 2013
Продолжительность: 00:42:22
Треклист:

01. Wealth (07:12)
02. Reality Crash (05:10)
03. Anomic (06:04)
04. Love In The Banlieues (06:32)
05. Times Of Despair (06:52)
06. The Rain Has Stopped (03:57)
07. Terminus (06:35)

Exact Audio Copy V1.0 beta 3 from 29. August 2011

EAC extraction logfile from 5. September 2013, 22:16

Jah Wobble & Marconi Union / Anomic

Used drive : HL-DT-STDVDRAM GE20NU11 Adapter: 5 ID: 0

Read mode : Secure
Utilize accurate stream : Yes
Defeat audio cache : Yes
Make use of C2 pointers : No

Read offset correction : 667
Overread into Lead-In and Lead-Out : No
Fill up missing offset samples with silence : Yes
Delete leading and trailing silent blocks : No
Null samples used in CRC calculations : Yes
Used interface : Native Win32 interface for Win NT & 2000
Gap handling : Appended to previous track

Used output format : User Defined Encoder
Selected bitrate : 1024 kBit/s
Quality : High
Add ID3 tag : No
Command line compressor : C:\Program Files (x86)\FLAC Frontend\tools\flac.exe
Additional command line options : -8 -V -T "ARTIST=%artist%" -T "TITLE=%title%" -T "ALBUM=%albumtitle%" -T "DATE=%year%" -T "TRACKNUMBER=%tracknr1%" -T "GENRE=%genre%" -T "PERFORMER=%albuminterpret%" -T "COMPOSER=%composer%" %haslyrics%--tag-from-file=LYRICS="%lyricsfile%"%haslyrics% -T "ALBUMARTIST=%albumartist%" -T "DISCNUMBER=%cdnumber%" -T "TOTALDISCS=%totalcds%" -T "TOTALTRACKS=%numtracks%" -T "COMMENT=%comment%" %source% -o %dest%

TOC of the extracted CD

Track | Start | Length | Start sector | End sector
---------------------------------------------------------
1 | 0:00.00 | 7:12.00 | 0 | 32399
2 | 7:12.00 | 5:10.22 | 32400 | 55671
3 | 12:22.22 | 6:04.18 | 55672 | 82989
4 | 18:26.40 | 6:32.31 | 82990 | 112420
5 | 24:58.71 | 6:52.03 | 112421 | 143323
6 | 31:50.74 | 3:57.25 | 143324 | 161123
7 | 35:48.24 | 6:34.61 | 161124 | 190734

Track 1

Filename C:\Users\Wesz\Desktop\Jah Wobble & Marconi Union - Anomic (2013) [FLAC]\01 - Wealth.wav

Pre-gap length 0:00:02.00

Peak level 98.8 %
Extraction speed 1.3 X
Track quality 100.0 %
Test CRC 2D2D7606
Copy CRC 2D2D7606
Track not present in AccurateRip database
Copy OK

Track 2

Filename C:\Users\Wesz\Desktop\Jah Wobble & Marconi Union - Anomic (2013) [FLAC]\02 - Reality Crash.wav

Peak level 98.7 %
Extraction speed 1.5 X
Track quality 100.0 %
Test CRC 6F61840A
Copy CRC 6F61840A
Track not present in AccurateRip database
Copy OK

Track 3

Filename C:\Users\Wesz\Desktop\Jah Wobble & Marconi Union - Anomic (2013) [FLAC]\03 - Anomic.wav

Peak level 98.8 %
Extraction speed 1.7 X
Track quality 100.0 %
Test CRC 11CA3B36
Copy CRC 11CA3B36
Track not present in AccurateRip database
Copy OK

Track 4

Filename C:\Users\Wesz\Desktop\Jah Wobble & Marconi Union - Anomic (2013) [FLAC]\04 - Love In The Banlieues.wav

Peak level 98.8 %
Extraction speed 1.7 X
Track quality 99.9 %
Test CRC 2AB0481E
Copy CRC 2AB0481E
Track not present in AccurateRip database
Copy OK

Track 5

Filename C:\Users\Wesz\Desktop\Jah Wobble & Marconi Union - Anomic (2013) [FLAC]\05 - Times Of Despair.wav

Peak level 98.8 %
Extraction speed 1.9 X
Track quality 99.9 %
Test CRC 30CF4701
Copy CRC 30CF4701
Track not present in AccurateRip database
Copy OK

Track 6

Filename C:\Users\Wesz\Desktop\Jah Wobble & Marconi Union - Anomic (2013) [FLAC]\06 - The Rain Has Stopped.wav

Peak level 73.1 %
Extraction speed 2.0 X
Track quality 100.0 %
Test CRC 91A0B190
Copy CRC 91A0B190
Track not present in AccurateRip database
Copy OK

Track 7

Filename C:\Users\Wesz\Desktop\Jah Wobble & Marconi Union - Anomic (2013) [FLAC]\07 - Terminus.wav

Peak level 98.8 %
Extraction speed 2.3 X
Track quality 100.0 %
Test CRC FD351590
Copy CRC FD351590
Track not present in AccurateRip database
Copy OK

None of the tracks are present in the AccurateRip database

No errors occurred

End of status report

---- CUETools DB Plugin V2.1.3

[CTDB TOCID: l0ckLBT4JpdJI2FV52L.eYvuikM-] found, Submit result: l0ckLBT4JpdJI2FV52L.eYvuikM- has been confirmed
[a2fce7d3] (1/1) Accurately ripped

==== Log checksum FC348BF6D805D6609F00BD87C3D48A38721F3C5C4BCE111A5610AEED0519375F ====


REM GENRE Ambient
REM DATE 2013
REM DISCID 4109EF07
REM COMMENT "ExactAudioCopy v1.0b3"
PERFORMER "Jah Wobble & Marconi Union"
TITLE "Anomic"
FILE "01 - Wealth.wav" WAVE
TRACK 01 AUDIO
TITLE "Wealth"
PERFORMER "Jah Wobble & Marconi Union"
FLAGS DCP
INDEX 01 00:00:00
FILE "02 - Reality Crash.wav" WAVE
TRACK 02 AUDIO
TITLE "Reality Crash"
PERFORMER "Jah Wobble & Marconi Union"
FLAGS DCP
INDEX 01 00:00:00
FILE "03 - Anomic.wav" WAVE
TRACK 03 AUDIO
TITLE "Anomic"
PERFORMER "Jah Wobble & Marconi Union"
FLAGS DCP
INDEX 01 00:00:00
FILE "04 - Love In The Banlieues.wav" WAVE
TRACK 04 AUDIO
TITLE "Love In The Banlieues"
PERFORMER "Jah Wobble & Marconi Union"
FLAGS DCP
INDEX 01 00:00:00
FILE "05 - Times Of Despair.wav" WAVE
TRACK 05 AUDIO
TITLE "Times Of Despair"
PERFORMER "Jah Wobble & Marconi Union"
FLAGS DCP
INDEX 01 00:00:00
FILE "06 - The Rain Has Stopped.wav" WAVE
TRACK 06 AUDIO
TITLE "The Rain Has Stopped"
PERFORMER "Jah Wobble & Marconi Union"
FLAGS DCP
INDEX 01 00:00:00
FILE "07 - Terminus.wav" WAVE
TRACK 07 AUDIO
TITLE "Terminus"
PERFORMER "Jah Wobble & Marconi Union"
FLAGS DCP
INDEX 01 00:00:00

Год выпуска: 2014
Продолжительность: 00:42:31
Треклист:

01. Weightless Part 1 (08:04)
02. Weightless Part 2 (07:10)
03. Weightless Part 3 (07:36)
04. Weightless Part 4 (07:14)
05. Weightless Part 5 (07:17)
06. Weightless Part 6 (05:10)

Exact Audio Copy V1.0 beta 1 from 15. November 2010

EAC extraction logfile from 7. September 2014, 20:58

Marconi Union / Weightless (Ambient Transmissions vol.2)

Used drive : Optiarc DVD RW AD-7243S Adapter: 3 ID: 1

Read mode : Secure
Utilize accurate stream : Yes
Defeat audio cache : Yes
Make use of C2 pointers : No

Read offset correction : 48
Overread into Lead-In and Lead-Out : No
Fill up missing offset samples with silence : Yes
Delete leading and trailing silent blocks : No
Null samples used in CRC calculations : Yes
Used interface : Native Win32 interface for Win NT & 2000
Gap handling : Appended to previous track

Used output format : User Defined Encoder
Selected bitrate : 896 kBit/s
Quality : High
Add ID3 tag : No
Command line compressor : C:\Program Files (x86)\Exact Audio Copy\FLAC\FLAC.EXE
Additional command line options : -6 -V -T "ARTIST=%a" -T "TITLE=%t" -T "ALBUM=%g" -T "DATE=%y" -T "TRACKNUMBER=%n" -T "GENRE=%m" -T "COMMENT=%e" %j--picture="%i"%j %s -o %d

TOC of the extracted CD

Track | Start | Length | Start sector | End sector
---------------------------------------------------------
1 | 0:00.00 | 8:03.63 | 0 | 36287
2 | 8:03.63 | 7:09.38 | 36288 | 68500
3 | 15:13.26 | 7:35.68 | 68501 | 102693
4 | 22:49.19 | 7:14.19 | 102694 | 135262
5 | 30:03.38 | 7:17.25 | 135263 | 168062
6 | 37:20.63 | 5:10.11 | 168063 | 191323

Track 1

Filename C:\Temp\01. Marconi Union - Weightless Part 1.wav

Pre-gap length 0:00:02.00

Peak level 97.2 %
Extraction speed 2.7 X
Track quality 100.0 %
Test CRC 4435F235
Copy CRC 4435F235
Track not present in AccurateRip database
Copy OK

Track 2

Filename C:\Temp\02. Marconi Union - Weightless Part 2.wav

Peak level 99.2 %
Extraction speed 3.2 X
Track quality 100.0 %
Test CRC A3A55AB9
Copy CRC A3A55AB9
Track not present in AccurateRip database
Copy OK

Track 3

Filename C:\Temp\03. Marconi Union - Weightless Part 3.wav

Peak level 84.6 %
Extraction speed 3.3 X
Track quality 99.9 %
Test CRC C6357CCF
Copy CRC C6357CCF
Track not present in AccurateRip database
Copy OK

Track 4

Filename C:\Temp\04. Marconi Union - Weightless Part 4.wav

Peak level 89.2 %
Extraction speed 3.9 X
Track quality 100.0 %
Test CRC 8CF0A797
Copy CRC 8CF0A797
Track not present in AccurateRip database
Copy OK

Track 5

Filename C:\Temp\05. Marconi Union - Weightless Part 5.wav

Peak level 100.0 %
Extraction speed 4.0 X
Track quality 99.9 %
Test CRC DBF10BFD
Copy CRC DBF10BFD
Track not present in AccurateRip database
Copy OK

Track 6

Filename C:\Temp\06. Marconi Union - Weightless Part 6.wav

Peak level 82.9 %
Extraction speed 3.8 X
Track quality 99.9 %
Test CRC 7794CFB3
Copy CRC 7794CFB3
Track not present in AccurateRip database
Copy OK

None of the tracks are present in the AccurateRip database

No errors occurred

End of status report

==== Log checksum C78916DDBFEEF61C05689DDF0ADB8A0DC19496D25EAD6CB6644024F02FE0BB1D ====


REM GENRE Ambient
REM DATE 2014
REM DISCID 4609F606
REM COMMENT "ExactAudioCopy v1.0b1"
PERFORMER "Marconi Union"
TITLE "Weightless (Ambient Transmissions vol.2)"
FILE "01. Marconi Union - Weightless Part 1.wav" WAVE
TRACK 01 AUDIO
TITLE "Weightless Part 1"
PERFORMER "Marconi Union"
INDEX 01 00:00:00
FILE "02. Marconi Union - Weightless Part 2.wav" WAVE
TRACK 02 AUDIO
TITLE "Weightless Part 2"
PERFORMER "Marconi Union"
INDEX 01 00:00:00
FILE "03. Marconi Union - Weightless Part 3.wav" WAVE
TRACK 03 AUDIO
TITLE "Weightless Part 3"
PERFORMER "Marconi Union"
INDEX 01 00:00:00
FILE "04. Marconi Union - Weightless Part 4.wav" WAVE
TRACK 04 AUDIO
TITLE "Weightless Part 4"
PERFORMER "Marconi Union"
INDEX 01 00:00:00
FILE "05. Marconi Union - Weightless Part 5.wav" WAVE
TRACK 05 AUDIO
TITLE "Weightless Part 5"
PERFORMER "Marconi Union"
INDEX 01 00:00:00
FILE "06. Marconi Union - Weightless Part 6.wav" WAVE
TRACK 06 AUDIO
TITLE "Weightless Part 6"
PERFORMER "Marconi Union"
INDEX 01 00:00:00

Год выпуска: 2016
Продолжительность: 00:46:28
Треклист:

01. Sleeper (10:00)
02. Remnants / Shadow Scheme (12:00)
03. Abandoned / In Silence (14:22)
04. Riser (10:06)

-----------------------

DON'T MODIFY THIS FILE

-----------------------

PERFORMER: auCDtect Task Manager, ver. 1.5.1RC6 build 1.5.1.7
Copyright (c) 2008-2010 y-soft. All rights reserved
http://y-soft.org

ANALYZER: auCDtect: CD records authenticity detector, version 0.8.2
Copyright (c) 2004 Oleg Berngardt. All rights reserved.
Copyright (c) 2004 Alexander Djourik. All rights reserved.

FILE: 04. Riser.flac
Size: 55865266 Hash: 52636BEA25552F4068683AD2BFBE8FCC Accuracy: -m0
Conclusion: CDDA 43%
Signature: DF7F6B8711125B97791859EEBD311E9A7A4EB7EE
FILE: 03. Abandoned , In Silence.flac
Size: 83008603 Hash: 1DBF717947F0241AB8502A4DD1C95281 Accuracy: -m0
Conclusion: CDDA 43%
Signature: E68F125C8B3A9804A014E88A8676495B806D0572
FILE: 02. Remnants , Shadow Scheme.flac
Size: 65869382 Hash: 25D1C86AEFF84A690844A49BA81E06A2 Accuracy: -m0
Conclusion: MPEG 90%
Signature: A2C86E9456FED425B4E1B8F761F4D119713425F8
FILE: 01. Sleeper.flac
Size: 62089316 Hash: 820B53BE087E7FABBB868AB1466DD7DB Accuracy: -m0
Conclusion: ???
Signature: 625A8FFA2C5F1C078F1260855228BE6AE0BE196B

Год выпуска: 2017
Продолжительность: 01:17:49
Треклист:

01. Ginza District (05:11)
02. Lost In Neon (04:01)
03. Nightworker (06:11)
04. Hatsunori (04:12)
05. Red Line 12am (07:28)
06. Akihabara (Electric Town) (07:17)
07. Temperature Drop (05:39)
08. Temperature Drop + (11:18)
09. Akihabara (Electric Town) + (07:47)
10. Gina District + (08:47)
11. Red Line 12am + (09:58)

-----------------------

DON'T MODIFY THIS FILE

-----------------------

PERFORMER: auCDtect Task Manager, ver. 1.6.0 RC1 build 1.6.0.1
Copyright (c) 2008-2010 y-soft. All rights reserved
http://y-soft.org

ANALYZER: auCDtect: CD records authenticity detector, version 0.8.2
Copyright (c) 2004 Oleg Berngardt. All rights reserved.
Copyright (c) 2004 Alexander Djourik. All rights reserved.

FILE: 11. Red Line 12am +.flac
Size: 53124968 Hash: 51E1B8AC664C4BE19C69EB09FD494261 Accuracy: -m0
Conclusion: CDDA 62%
Signature: 54FDB63281A4ABD3FE870E59CBD81DB1A9B3F3CF
FILE: 10. Gina District +.flac
Size: 55280508 Hash: CE7446835496C68856DA997E836A93AE Accuracy: -m0
Conclusion: CDDA 100%
Signature: 8A0F1728535BA39FBEB4C22F68FC8AFC995DC405
FILE: 09. Akihabara (Electric Town) +.flac
Size: 44636678 Hash: 19C326A683BA53D6A8573F6E585C1525 Accuracy: -m0
Conclusion: CDDA 85%
Signature: 5B337B6EBAD8BB9FB495A8072BC14FB5E1DE744A
FILE: 08. Temperature Drop +.flac
Size: 69434524 Hash: 1F94DFC3D6129D3BB4122A6F8A8ADBCB Accuracy: -m0
Conclusion: CDDA 100%
Signature: 10FA500869B2764DFB1AFF0D145127DAC7B6149A
FILE: 07. Temperature Drop.flac
Size: 31524471 Hash: 73E7FF0526D5C9B97E140F0AD0CDECFE Accuracy: -m0
Conclusion: MPEG 95%
Signature: A28C5D0B75DEAD9D5C8D01FC1F7C9F660A728278
FILE: 06. Akihabara (Electric Town).flac
Size: 38342328 Hash: 2D231BDA44BF07187BDDB17C17F96A20 Accuracy: -m0
Conclusion: CDDA 100%
Signature: 127556EEAFBED949187C1162A6BDD6918072F455
FILE: 05. Red Line 12am.flac
Size: 32505613 Hash: 8F41E5F5279C664B4DD166D33F237196 Accuracy: -m0
Conclusion: CDDA 100%
Signature: 23A5E33B23D107C8C4A935AC5E42CE38572C1442
FILE: 04. Hatsunori.flac
Size: 21013200 Hash: 002EAC0F77355D8586B6111BEF942DB6 Accuracy: -m0
Conclusion: CDDA 100%
Signature: 60534FE35B6B2264467B6E4288EDFA92532FE139
FILE: 03. Nightworker.flac
Size: 23820099 Hash: 448F9D5B86A01C1B32D6DA7C58CBD422 Accuracy: -m0
Conclusion: CDDA 85%
Signature: 325A7575EEDDF4FAC0930933CF77C71BD8CDA85A
FILE: 02. Lost In Neon.flac
Size: 21294604 Hash: 140D60014FA079E6B1ABB9C6096F4500 Accuracy: -m0
Conclusion: CDDA 99%
Signature: 33EB2A92DD609397756E665F7C7021ABD2706C41
FILE: 01. Ginza District.flac
Size: 25907814 Hash: A1C5A7AD4B749C4A35C5699529A3C23C Accuracy: -m0
Conclusion: ???
Signature: CC983DB3633C8C971E0860BEE153DE60EA0EDF34

Год выпуска: 2010
Продолжительность: 00:20:44
Треклист:

01. Glassworks Red (New Mix) (05:28)
02. Glassworks Edit (Video Edit) (03:55)
03. Glassworks Blue (Derelict Mix) (05:55)
04. Glassworks Black (Original Terrace Mix) (05:26)

-----------------------

DON'T MODIFY THIS FILE

-----------------------

PERFORMER: auCDtect Task Manager, ver. 1.6.0 RC1 build 1.6.0.1
Copyright (c) 2008-2010 y-soft. All rights reserved
http://y-soft.org

ANALYZER: auCDtect: CD records authenticity detector, version 0.8.2
Copyright (c) 2004 Oleg Berngardt. All rights reserved.
Copyright (c) 2004 Alexander Djourik. All rights reserved.

FILE: 04. Glassworks Black (Original Terrace Mix).flac
Size: 28106251 Hash: 4A5688786250B4C8A0FE22C55B9110D5 Accuracy: -m0
Conclusion: CDDA 100%
Signature: 0785E22155AE847BFB1E9F2E40BD9EE702F8D012
FILE: 03. Glassworks Blue (Derelict Mix).flac
Size: 27601992 Hash: A5D9369FD3B8456A1E5FB4206C601962 Accuracy: -m0
Conclusion: CDDA 43%
Signature: 52512A1FE876511C2141F1C5D425F768E6F9CB77
FILE: 02. Glassworks Edit (Video Edit).flac
Size: 23654443 Hash: ECD1A8A2F9DD066A348DB202D8AE4E10 Accuracy: -m0
Conclusion: CDDA 100%
Signature: F4C2051557C6E5A0B6BE4D0440B143BABD1E6CE3
FILE: 01. Glassworks Red (New Mix).flac
Size: 32314127 Hash: E5EEA9528765D8E1AB6809B0CAE7025F Accuracy: -m0
Conclusion: CDDA 100%
Signature: 7736549DA732896D1604ACE7E372F24D105FA8BD

Год выпуска: 2015
Продолжительность: 00:06:28
Треклист:

01. A Distant Light (06:28)

foobar2000 1.1 / Dynamic Range Meter 1.1.1
log date: 2017-01-22 00:12:30

--------------------------------------------------------------------------------
Statistics for: ?-A Distant Light
Number of samples: 18624000
Duration: 6:28
--------------------------------------------------------------------------------

Left Right

Peak Value: -6.44 dB --- -4.95 dB
Avg RMS: -21.22 dB --- -19.89 dB
DR channel: 11.00 dB --- 10.47 dB
--------------------------------------------------------------------------------

Official DR Value: DR11

Samplerate: 48000 Hz
Channels: 2
Bits per sample: 24
Bitrate: 1122 kbps
Codec: FLAC
================================================================================

Год выпуска: 2015
Продолжительность: 00:29:17
Треклист:

01. Still (04:49)
02. Departure (04:54)
03. Aftermath (04:56)
04. Loss (07:21)
05. Fading (07:17)

-----------------------

DON'T MODIFY THIS FILE

-----------------------

PERFORMER: auCDtect Task Manager, ver. 1.5.1RC6 build 1.5.1.7
Copyright (c) 2008-2010 y-soft. All rights reserved
http://y-soft.org

ANALYZER: auCDtect: CD records authenticity detector, version 0.8.2
Copyright (c) 2004 Oleg Berngardt. All rights reserved.
Copyright (c) 2004 Alexander Djourik. All rights reserved.

FILE: 05. Fading.flac
Size: 28903456 Hash: 848189047A0CADF6477BD1641B267716 Accuracy: -m0
Conclusion: CDDA 100%
Signature: ADCE59BB9851C855A91A9D2BF55DC17E09C21F0D
FILE: 04. Loss.flac
Size: 30226869 Hash: 2858AAE536B1A4C6BFD5EBD6FBE70BC4 Accuracy: -m0
Conclusion: CDDA 100%
Signature: E177208B28A61AE7AE05D1C11BFD7768F1927DB9
FILE: 03. Aftermath.flac
Size: 19918674 Hash: E9FA0DE1A941827CC05824A267388D00 Accuracy: -m0
Conclusion: CDDA 99%
Signature: E2AC09F320E0E9155D8856012B97288AAEA3A402
FILE: 02. Departure.flac
Size: 21991592 Hash: DC64F20212647FA4F22FBE223F84C5C0 Accuracy: -m0
Conclusion: CDDA 100%
Signature: EE4B5421615AB90FA7BF70E379D8BEE6933604E5
FILE: 01. Still.flac
Size: 20174407 Hash: E46BB250D1FABDBD36D6AC2149632F0D Accuracy: -m0
Conclusion: CDDA 43%
Signature: CFEC88517054C4352CC2B57DBE250920C50A6679

Время раздачи: 12/7
[NNMClub.to]_Marconi Union FLAC.torrent
 Торрент: Серебряная раздча  Зарегистрирован
 
Примагнититься
Free Leech
Зарегистрируйтесь и скачайте торрент!
29 KB
 Зарегистрирован:   22 Янв 2017 00:59:18
 Размер:   3,15 GB  (
 Рейтинг:    (Голосов: 7)
 Поблагодарили:   29
 Проверка:   Оформление проверено модератором 22 Янв 2017 00:59:48
Как cкачать  ·  Как раздать  ·  Правильно оформить  ·  Поднять ратио!  
gwygwy
Стаж: 5 лет
Сообщений: 5
Ratio: 1,551
100%
Спасибо!
zapahgary
Стаж: 6 лет 8 мес.
Сообщений: 62
Ratio: 65,711
Поблагодарили: 91
100%
russia.gif
огромное спасибище, как Вы всё успеваете...
Показать сообщения:   
Начать новую тему   Ответить на тему    Торрент-трекер NNM-Club -> Electronic -> Easy listening (Lossless) Часовой пояс: GMT + 3
Страница 1 из 1