Интеллигентный торрент-трекер
canvas not supported
Нас вместе: 4 332 545

Phantom Blues Band - Inside Out (2011) [FLAC|Lossless|image + .cue] <Modern Electric Blues>


 
 
RSS
Начать новую тему   Ответить на тему    Торрент-трекер NNM-Club -> Jazz, Blues, Soul -> Blues, Soul (Lossless)
Автор Сообщение
Svetojar ®
RG Music
 
Стаж: 7 мес. 4 дня
Сообщений: 690
Ratio: 202,111
Поблагодарили: 29334
100%
Phantom Blues Band - Inside Out (2011)
Год: 2011
Жанр: Modern Electric Blues
Издание: Vizztone Label Group ‎– none
Продолжительность: 00:51:20

Кодек: FLAC
Битрейт: Lossless
Тип рипа: image + .cue

Треклист:
1. I Can't Stand It (2:49)
2. Good Time For the Blues (3:16)
3. Boogah Man (3:27)
4. So Far From Heaven (6:00)
5. Little Fernandez (3:00)
6. Death Letter] (4:59)
7. Where Did My Monkey Go? (3:09)
8. Change (4:44)
9. It's All Right (4:28)
10. Feel Like Going Home (4:11)
11. Boogie-Woogie Country Girl (3:14)
12. Shame, Shame (4:16)
13. Stone Survivor (3:41)
foobar2000 1.3.14 / Dynamic Range Meter 1.1.1
log date: 2017-01-23 13:01:30

--------------------------------------------------------------------------------
Analyzed: Phantom Blues Band / Inside Out
--------------------------------------------------------------------------------

DR Peak RMS Duration Track
--------------------------------------------------------------------------------
DR8 -0.20 dB -9.40 dB 2:50 01-I Can't Stand It
DR7 -0.20 dB -7.78 dB 3:16 02-A Good Time With The Blues
DR7 -0.20 dB -7.84 dB 3:28 03-Boogah Man
DR7 -0.20 dB -8.60 dB 6:01 04-So Far From Heaven
DR7 -0.20 dB -8.47 dB 3:01 05-Little Fernandez
DR8 -0.20 dB -9.23 dB 4:59 06-Death Letter
DR8 -0.10 dB -8.78 dB 3:10 07-Where Did My Monkey Go?
DR7 -0.20 dB -8.66 dB 4:45 08-Change
DR7 -0.10 dB -8.39 dB 4:28 09-It's All Right
DR7 -0.20 dB -10.55 dB 4:12 10-Goin' Home
DR7 -0.20 dB -8.19 dB 3:15 11-Boogie-Woogie Country Girl
DR8 -0.20 dB -9.13 dB 4:17 12-Shame, Shame
DR7 -0.20 dB -8.55 dB 3:41 13-Stone Survivor
--------------------------------------------------------------------------------

Number of tracks: 13
Official DR value: DR7

Samplerate: 44100 Hz
Channels: 2
Bits per sample: 16
Bitrate: 895 kbps
Codec: FLAC
================================================================================




Поглощение/вытеснение
Только с согласия релизера

gvm55

Время раздачи: По мере возможности (до появления первых 3-5 скачавших)
[NNMClub.to]_Phantom Blues Band - 2011 - Inside Out.torrent
 Торрент: Платиновая раздача  Зарегистрирован
 
Примагнититься

Скачать
 Зарегистрирован:   23 Янв 2017 11:12:46
 Размер:   332 MB  (
 Рейтинг:    (Голосов: 5)
 Поблагодарили:   59
 Проверка:   Оформление проверено модератором 23 Янв 2017 12:06:30
Как cкачать  ·  Как раздать  ·  Правильно оформить  ·  Поднять ратио!  
PrimusAsus
Стаж: 1 год
Сообщений: 98
Ratio: 15,187
100%
Отвязный дядька! Хорош!!)
Svetojar ®
RG Music
 
Стаж: 7 мес. 4 дня
Сообщений: 690
Ratio: 202,111
Поблагодарили: 29334
100%
PrimusAsus
Эт точно! ))) Хорош до невозможности)))

_________________
Я человек ленивый, поэтому все делаю быстро и качественно. Чтобы быстрее освободиться и не переделывать.
Показать сообщения:   
Начать новую тему   Ответить на тему    Торрент-трекер NNM-Club -> Jazz, Blues, Soul -> Blues, Soul (Lossless) Часовой пояс: GMT + 3
Страница 1 из 1