Интеллигентный торрент-трекер
canvas not supported
Нас вместе: 4 332 030

The Lachy Doley Group - Conviction (2015) [FLAC|Lossless|WEB-DL|tracks + .cue] <Blues-Rock>


 
 
RSS
Начать новую тему   Ответить на тему    Торрент-трекер NNM-Club -> Jazz, Blues, Soul -> Blues, Soul (Lossless)
Автор Сообщение
Svetojar ®
RG Music
 
Стаж: 7 мес. 5 дней
Сообщений: 690
Ratio: 202,111
Поблагодарили: 29339
100%
The Lachy Doley Group - Conviction (2015) WEB
Год: 2015
Жанр: Blues-Rock
Издание: Freight Train studio
Источник: bandcamp.com
Продолжительность: 00:42:53

Кодек: FLAC
Битрейт: Lossless
Тип рипа: tracks + .cue

Треклист:
01 Betcha I'll Getcha (02:42)
02 Conviction (05:31)
03 Make It Up (04:38)
04 Back In Black (04:48)
05 Frankly My Dear I Don't Give A Damn (05:06)
06 Downtown Smalltown (05:27)
07 Too Late (03:25)
08 Use Me (06:17)
09 Lucille (01:58)
10 Stop Listening To The Blues (03:01)
foobar2000 1.3.14 / Dynamic Range Meter 1.1.1
log date: 2017-01-23 13:17:00

--------------------------------------------------------------------------------
Analyzed: The Lachy Doley Group / Conviction
--------------------------------------------------------------------------------

DR Peak RMS Duration Track
--------------------------------------------------------------------------------
DR6 -0.34 dB -7.50 dB 2:42 01-Betcha I'll Getcha
DR5 -0.12 dB -8.53 dB 5:31 02-Conviction
DR6 0.00 dB -7.64 dB 4:38 03-Make It Up
DR6 -0.48 dB -8.17 dB 4:48 04-Back In Black
DR8 -0.19 dB -10.33 dB 5:06 05-Frankly My Dear I Don't Give A Damn
DR8 -0.73 dB -9.89 dB 5:27 06-Downtown Smalltown
DR7 -0.45 dB -10.56 dB 3:25 07-Too Late
DR7 -2.08 dB -11.17 dB 6:17 08-Use Me
DR6 -0.38 dB -7.41 dB 1:58 09-Lucille
DR8 -0.81 dB -10.46 dB 3:01 10-Stop Listening To The Blues
--------------------------------------------------------------------------------

Number of tracks: 10
Official DR value: DR7

Samplerate: 44100 Hz
Channels: 2
Bits per sample: 16
Bitrate: 829 kbps
Codec: FLAC
================================================================================
Время раздачи: По мере возможности (до появления первых 3-5 скачавших)
[NNMClub.to]_The Lachy Doley Group - 2015 - Conviction.torrent
 Торрент:   Зарегистрирован
 
Примагнититься
Free Leech
Зарегистрируйтесь и скачайте торрент!
12,2 KB
 Зарегистрирован:   23 Янв 2017 11:34:00
 Размер:   274 MB  (
 Рейтинг:    (Голосов: 6)
 Поблагодарили:   53
 Проверка:   Оформление проверено модератором 23 Янв 2017 12:03:35
Как cкачать  ·  Как раздать  ·  Правильно оформить  ·  Поднять ратио!  
Показать сообщения:   
Начать новую тему   Ответить на тему    Торрент-трекер NNM-Club -> Jazz, Blues, Soul -> Blues, Soul (Lossless) Часовой пояс: GMT + 3
Страница 1 из 1