Интеллигентный торрент-трекер
canvas not supported
Нас вместе: 4 253 997

Serj Tankian - Orca (Symphony No. 1) (2012) [FLAC|Lossless|tracks + .cue] <Alt. Rock, Experimental>


 
 
RSS
Начать новую тему   Ответить на тему    Торрент-трекер NNM-Club -> Rock, Alternative, Punk, Metal -> Rock (Lossless)
Автор Сообщение
Svetojar ®
RG Музыки
 
Стаж: 2 мес. 8 дней
Сообщений: 379
Ratio: 148,241
Поблагодарили: 14800
100%
Откуда: Тюмень
Serj Tankian - Orca (Symphony No. 1) (2012)
Год: 2012
Жанр: Alt. Rock, Experimental
Издание: Serjical Strike Records ‎– SS 018
Продолжительность: 00:33:46

Кодек: FLAC
Битрейт: Lossless
Тип рипа: tracks + .cue

Треклист:
01. Act I - Victorious Orcinus (08:45)
02. Act II - Oceanic Subterfuge (08:05)
03. Act III - Delphinus Capensis (07:58)
04. Act IV - Lamentation Of The Beached (08:53)
foobar2000 1.3.14 / Dynamic Range Meter 1.1.1
log date: 2017-01-24 08:32:14

--------------------------------------------------------------------------------
Analyzed: Serj Tankian / Orca (Symphony No. 1)
--------------------------------------------------------------------------------

DR Peak RMS Duration Track
--------------------------------------------------------------------------------
DR14 -0.07 dB -19.33 dB 8:47 01-Victorious Orcinus
DR14 -0.06 dB -18.64 dB 8:05 02-Oceanic Suberfuge
DR14 -0.16 dB -18.97 dB 7:59 03-Delphinus Capensis
DR13 -0.06 dB -19.21 dB 8:55 04-Lamentation of the Beached
--------------------------------------------------------------------------------

Number of tracks: 4
Official DR value: DR14

Samplerate: 44100 Hz
Channels: 2
Bits per sample: 16
Bitrate: 592 kbps
Codec: FLAC
================================================================================
Время раздачи: По мере возможности (до появления первых 3-5 скачавших)


Поглощение/вытеснение
Только с согласия релизера

Bigbeer
[NNMClub.to]_Serj Tankian - 2012 - Orca (Symphony No. 1).torrent
 Торрент:   Зарегистрирован
 
Примагнититься
Free Leech
Зарегистрируйтесь и скачайте торрент!
13,6 KB
 Зарегистрирован:   24 Янв 2017 06:49:44
 Размер:   154 MB  (
 Рейтинг:    (Голосов: 8)
 Поблагодарили:   44
 Проверка:   Оформление проверено модератором 24 Янв 2017 12:25:51
Как cкачать  ·  Как раздать  ·  Правильно оформить  ·  Поднять ратио!  
Показать сообщения:   
Начать новую тему   Ответить на тему    Торрент-трекер NNM-Club -> Rock, Alternative, Punk, Metal -> Rock (Lossless) Часовой пояс: GMT + 3
Страница 1 из 1