Интеллигентный торрент-трекер
canvas not supported
Нас вместе: 4 303 456

Benge - Discography 19 Releases (1996-2016) Expanding Records [FLAC|Lossless|tracks+.cue, tracks] <Experimental, IDM, Ambient, Abstract>


 
 
RSS
Начать новую тему   Ответить на тему    Торрент-трекер NNM-Club -> Electronic -> IDM (Lossless)
Автор Сообщение
vilator ®
Модератор Музыки
RG Music
 
Стаж: 7 лет 11 мес.
Сообщений: 5694
Ratio: 124,799
Поблагодарили: 111791
100%
Откуда: Minsk
pirates.png
Benge Discography

Benge is Ben Edwards. He has been exploring the sonic possibilities of electronic instruments since he was a small boy when he would spend his evenings in the music room of the school his parents ran. Being the 1970s it was full of synths and organs as well as percussion, recording and other classroom instruments. After graduating from art school in 1990 he began to set up a music studio and started recording his own blend of electronica, culminating in his debut album "Electro-Orgoustic Music" and the formation of Expanding Records in 1995. Since then he has released fourteen albums as Benge.
Жанр: Experimental, IDM, Ambient, Abstract • Страна: UK • Год издания: 1996-2016 • Тип издания: CD, Web • Лейбл: Expanding Records
Аудиокодек: FLAC (*.flac) • Тип рипа: tracks+.cue, tracks • Продолжительность: 12:30:18 • Источник: What, Juno, Bandcamp
Треклист:
Год выпуска: 1996
Продолжительность: 00:56:37
Треклист:

01. One (09:48)
02. Two (06:02)
03. Three (06:39)
04. Four (05:45)
05. Five (08:32)
06. Six (06:01)
07. Seven (07:30)
08. Eight (06:20)

-----------------------

DON'T MODIFY THIS FILE

-----------------------

PERFORMER: auCDtect Task Manager, ver. 1.6.0 RC1 build 1.6.0.1
Copyright (c) 2008-2010 y-soft. All rights reserved
http://y-soft.org

ANALYZER: auCDtect: CD records authenticity detector, version 0.8.2
Copyright (c) 2004 Oleg Berngardt. All rights reserved.
Copyright (c) 2004 Alexander Djourik. All rights reserved.

FILE: 08. Eight.flac
Size: 27878518 Hash: 61FFD165D269D4773F911D495F0450E5 Accuracy: -m0
Conclusion: CDDA 94%
Signature: 80A868F2C7225D0394AD99CAF95CCE05E9B7F8D5
FILE: 07. Seven.flac
Size: 42816213 Hash: C7BD9736144F1060A44E2C10F370116E Accuracy: -m0
Conclusion: CDDA 86%
Signature: C67116C2FCEC2EC7865F92386CCEE10DD9020858
FILE: 06. Six.flac
Size: 34261904 Hash: 5BF36D89F686D12A53CD2638F4B23A4F Accuracy: -m0
Conclusion: CDDA 100%
Signature: 5CC53F312FABA64B593B06268F806473CAD1CD63
FILE: 05. Five.flac
Size: 45582074 Hash: 68C37E92C7CB840549ED174535010A0F Accuracy: -m0
Conclusion: CDDA 85%
Signature: BC22CFDDF6305B7C445A2FBF9D3035BE9D51997F
FILE: 04. Four.flac
Size: 29378541 Hash: 0976D9F20B2678849CFADF0775D6CB67 Accuracy: -m0
Conclusion: CDDA 54%
Signature: 634711E44DAF737F3E0E6D1E76B25C13CDAB2116
FILE: 03. Three.flac
Size: 34621568 Hash: 072E6C13DF81310FD8D4BA2E22F7C7DC Accuracy: -m0
Conclusion: CDDA 100%
Signature: C3DD7E37E43065B8565E35A723E79B97B14BF2B6
FILE: 02. Two.flac
Size: 28561192 Hash: EAB61F6B45C9315EC155128EBF0E811A Accuracy: -m0
Conclusion: CDDA 76%
Signature: 71165E40C407A91CD7A081CB7E30D5BC60AA10B8
FILE: 01. One.flac
Size: 57034002 Hash: 946A85026EDB0D16E75F1E518B934E86 Accuracy: -m0
Conclusion: MPEG 95%
Signature: 8A983F756D6077912335478B9B8820F10F9520A8

Год выпуска: 1997
Продолжительность: 00:26:48
Треклист:

01. 1 (04:24)
02. 2 (06:23)
03. 3 (04:46)
04. 4 (07:44)
05. 5 (03:31)

Exact Audio Copy V0.99 prebeta 3 from 28. July 2007

EAC extraction logfile from 6. October 2008, 14:47

Benge / Polyrythmic Electronica

Used drive : HL-DT-STDVDRAM GMA-4082N Adapter: 0 ID: 0

Read mode : Secure
Utilize accurate stream : Yes
Defeat audio cache : Yes
Make use of C2 pointers : No

Read offset correction : 667
Overread into Lead-In and Lead-Out : No
Fill up missing offset samples with silence : Yes
Delete leading and trailing silent blocks : No
Null samples used in CRC calculations : Yes
Used interface : Installed external ASPI interface
Gap handling : Appended to previous track

Used output format : User Defined Encoder
Selected bitrate : 320 kBit/s
Quality : High
Add ID3 tag : No
Command line compressor : C:\Program Files\FLAC\flac.exe
Additional command line options : -V -8 -T "artist=%a" -T "title=%t" -T "album=%g" -T "date=%y" -T "tracknumber=%n" -T "genre=%m" %s

TOC of the extracted CD

Track | Start | Length | Start sector | End sector
---------------------------------------------------------
1 | 0:00.00 | 4:23.52 | 0 | 19776
2 | 4:23.52 | 6:22.45 | 19777 | 48471
3 | 10:46.22 | 4:46.05 | 48472 | 69926
4 | 15:32.27 | 7:44.35 | 69927 | 104761
5 | 23:16.62 | 3:31.13 | 104762 | 120599

Track 1

Filename C:\Documents and Settings\Administrator\Desktop\rips\[expandcd397] benge - polyrhythmic electronica (1997)\01 1.wav

Pre-gap length 0:00:02.00

Peak level 74.9 %
Track quality 100.0 %
Test CRC 82463D56
Copy CRC 82463D56
Track not present in AccurateRip database
Copy OK

Track 2

Filename C:\Documents and Settings\Administrator\Desktop\rips\[expandcd397] benge - polyrhythmic electronica (1997)\02 2.wav

Peak level 64.3 %
Track quality 100.0 %
Test CRC C92D65D1
Copy CRC C92D65D1
Track not present in AccurateRip database
Copy OK

Track 3

Filename C:\Documents and Settings\Administrator\Desktop\rips\[expandcd397] benge - polyrhythmic electronica (1997)\03 3.wav

Peak level 77.6 %
Track quality 100.0 %
Test CRC 5EE31E14
Copy CRC 5EE31E14
Track not present in AccurateRip database
Copy OK

Track 4

Filename C:\Documents and Settings\Administrator\Desktop\rips\[expandcd397] benge - polyrhythmic electronica (1997)\04 4.wav

Peak level 68.5 %
Track quality 100.0 %
Test CRC 29211E36
Copy CRC 29211E36
Track not present in AccurateRip database
Copy OK

Track 5

Filename C:\Documents and Settings\Administrator\Desktop\rips\[expandcd397] benge - polyrhythmic electronica (1997)\05 5.wav

Peak level 68.3 %
Track quality 100.0 %
Test CRC EF4561E9
Copy CRC EF4561E9
Track not present in AccurateRip database
Copy OK

None of the tracks are present in the AccurateRip database

No errors occurred

End of status report


REM GENRE Electronic
REM DATE 1997
REM DISCID 46064805
REM COMMENT "ExactAudioCopy v0.99pb3"
PERFORMER "Benge"
TITLE "Polyrythmic Electronica"
FILE "01 1.wav" WAVE
TRACK 01 AUDIO
TITLE "1"
PERFORMER "Benge"
INDEX 01 00:00:00
FILE "02 2.wav" WAVE
TRACK 02 AUDIO
TITLE "2"
PERFORMER "Benge"
INDEX 01 00:00:00
FILE "03 3.wav" WAVE
TRACK 03 AUDIO
TITLE "3"
PERFORMER "Benge"
INDEX 01 00:00:00
FILE "04 4.wav" WAVE
TRACK 04 AUDIO
TITLE "4"
PERFORMER "Benge"
INDEX 01 00:00:00
FILE "05 5.wav" WAVE
TRACK 05 AUDIO
TITLE "5"
PERFORMER "Benge"
INDEX 01 00:00:00

Год выпуска: 2002
Продолжительность: 00:57:49
Треклист:

01. Adam-Age Loneliness (06:48)
02. Alpaca (00:55)
03. A Caped Hero (06:39)
04. Faun Six (07:23)
05. Urban (03:32)
06. Ajax Goon (05:40)
07. Nike (03:48)
08. Pica Unit (05:07)
09. Tame/Rude Image (04:05)
10. Proton (06:21)
11. Eve's Escape Valve (07:31)

Exact Audio Copy V0.99 prebeta 3 from 28. July 2007

EAC extraction logfile from 1. February 2008, 1:13

Benge / Meme Tunes

Used drive : SONY CDRWDVD CRX310S Adapter: 0 ID: 1

Read mode : Secure
Utilize accurate stream : Yes
Defeat audio cache : Yes
Make use of C2 pointers : No

Read offset correction : 6
Overread into Lead-In and Lead-Out : No
Fill up missing offset samples with silence : Yes
Delete leading and trailing silent blocks : No
Null samples used in CRC calculations : Yes
Used interface : Installed external ASPI interface
Gap handling : Appended to previous track

Used output format : User Defined Encoder
Selected bitrate : 128 kBit/s
Quality : High
Add ID3 tag : No
Command line compressor : C:\Program Files\FLAC\flac.exe
Additional command line options : -V -8 -T "artist=%a" -T "title=%t" -T "album=%g" -T "date=%y" -T "tracknumber=%n" -T "genre=%m" %s

TOC of the extracted CD

Track | Start | Length | Start sector | End sector
---------------------------------------------------------
1 | 0:00.00 | 6:48.23 | 0 | 30622
2 | 6:48.23 | 0:54.42 | 30623 | 34714
3 | 7:42.65 | 6:38.40 | 34715 | 64604
4 | 14:21.30 | 7:22.63 | 64605 | 97817
5 | 21:44.18 | 3:31.66 | 97818 | 113708
6 | 25:16.09 | 5:40.16 | 113709 | 139224
7 | 30:56.25 | 3:48.15 | 139225 | 156339
8 | 34:44.40 | 5:06.45 | 156340 | 179334
9 | 39:51.10 | 4:04.55 | 179335 | 197689
10 | 43:55.65 | 6:20.57 | 197690 | 226246
11 | 50:16.47 | 7:31.28 | 226247 | 260099

Track 1

Filename C:\EAC\01 - adam-age loneliness.wav

Pre-gap length 0:00:02.00

Peak level 96.5 %
Track quality 100.0 %
Test CRC 23638C94
Copy CRC 23638C94
Track not present in AccurateRip database
Copy OK

Track 2

Filename C:\EAC\02 - alpaca.wav

Peak level 69.9 %
Track quality 100.0 %
Test CRC 523E80D7
Copy CRC 523E80D7
Track not present in AccurateRip database
Copy OK

Track 3

Filename C:\EAC\03 - a caped hero.wav

Peak level 99.9 %
Track quality 100.0 %
Test CRC 2DE9752D
Copy CRC 2DE9752D
Track not present in AccurateRip database
Copy OK

Track 4

Filename C:\EAC\04 - faun six.wav

Peak level 96.5 %
Track quality 100.0 %
Test CRC 1B5D9DEA
Copy CRC 1B5D9DEA
Track not present in AccurateRip database
Copy OK

Track 5

Filename C:\EAC\05 - urban.wav

Peak level 96.5 %
Track quality 100.0 %
Test CRC 51776F7B
Copy CRC 51776F7B
Track not present in AccurateRip database
Copy OK

Track 6

Filename C:\EAC\06 - ajax goon.wav

Peak level 96.5 %
Track quality 100.0 %
Test CRC 73B22D2D
Copy CRC 73B22D2D
Track not present in AccurateRip database
Copy OK

Track 7

Filename C:\EAC\07 - nike.wav

Peak level 96.5 %
Track quality 100.0 %
Test CRC 1094657E
Copy CRC 1094657E
Track not present in AccurateRip database
Copy OK

Track 8

Filename C:\EAC\08 - pica unit.wav

Peak level 96.5 %
Track quality 100.0 %
Test CRC 5A50E8F2
Copy CRC 5A50E8F2
Track not present in AccurateRip database
Copy OK

Track 9

Filename C:\EAC\09 - tame_rude image.wav

Peak level 96.5 %
Track quality 99.9 %
Test CRC 5CFAC7ED
Copy CRC 5CFAC7ED
Track not present in AccurateRip database
Copy OK

Track 10

Filename C:\EAC\10 - proton.wav

Peak level 96.5 %
Track quality 100.0 %
Test CRC 846167C0
Copy CRC 846167C0
Track not present in AccurateRip database
Copy OK

Track 11

Filename C:\EAC\11 - eve's escape valve.wav

Peak level 96.5 %
Track quality 100.0 %
Test CRC 15E785EE
Copy CRC 15E785EE
Track not present in AccurateRip database
Copy OK

None of the tracks are present in the AccurateRip database

No errors occurred

End of status report

------------------------------------------------------------

Exact Audio Copy V0.99 prebeta 3 from 28. July 2007

EAC extraction logfile from 1. February 2008, 1:13

Benge / Meme Tunes

Used drive : SONY CDRWDVD CRX310S Adapter: 0 ID: 1

Read mode : Secure
Utilize accurate stream : Yes
Defeat audio cache : Yes
Make use of C2 pointers : No

Read offset correction : 6
Overread into Lead-In and Lead-Out : No
Fill up missing offset samples with silence : Yes
Delete leading and trailing silent blocks : No
Null samples used in CRC calculations : Yes
Used interface : Installed external ASPI interface
Gap handling : Appended to previous track

Used output format : User Defined Encoder
Selected bitrate : 128 kBit/s
Quality : High
Add ID3 tag : No
Command line compressor : C:\Program Files\FLAC\flac.exe
Additional command line options : -V -8 -T "artist=%a" -T "title=%t" -T "album=%g" -T "date=%y" -T "tracknumber=%n" -T "genre=%m" %s

TOC of the extracted CD

Track | Start | Length | Start sector | End sector
---------------------------------------------------------
1 | 0:00.00 | 6:48.23 | 0 | 30622
2 | 6:48.23 | 0:54.42 | 30623 | 34714
3 | 7:42.65 | 6:38.40 | 34715 | 64604
4 | 14:21.30 | 7:22.63 | 64605 | 97817
5 | 21:44.18 | 3:31.66 | 97818 | 113708
6 | 25:16.09 | 5:40.16 | 113709 | 139224
7 | 30:56.25 | 3:48.15 | 139225 | 156339
8 | 34:44.40 | 5:06.45 | 156340 | 179334
9 | 39:51.10 | 4:04.55 | 179335 | 197689
10 | 43:55.65 | 6:20.57 | 197690 | 226246
11 | 50:16.47 | 7:31.28 | 226247 | 260099

Track 1

Filename C:\EAC\01 - adam-age loneliness.wav

Pre-gap length 0:00:02.00

Peak level 96.5 %
Track quality 100.0 %
Test CRC 23638C94
Copy CRC 23638C94
Track not present in AccurateRip database
Copy OK

Track 2

Filename C:\EAC\02 - alpaca.wav

Peak level 69.9 %
Track quality 100.0 %
Test CRC 523E80D7
Copy CRC 523E80D7
Track not present in AccurateRip database
Copy OK

Track 3

Filename C:\EAC\03 - a caped hero.wav

Peak level 99.9 %
Track quality 100.0 %
Test CRC 2DE9752D
Copy CRC 2DE9752D
Track not present in AccurateRip database
Copy OK

Track 4

Filename C:\EAC\04 - faun six.wav

Peak level 96.5 %
Track quality 100.0 %
Test CRC 1B5D9DEA
Copy CRC 1B5D9DEA
Track not present in AccurateRip database
Copy OK

Track 5

Filename C:\EAC\05 - urban.wav

Peak level 96.5 %
Track quality 100.0 %
Test CRC 51776F7B
Copy CRC 51776F7B
Track not present in AccurateRip database
Copy OK

Track 6

Filename C:\EAC\06 - ajax goon.wav

Peak level 96.5 %
Track quality 100.0 %
Test CRC 73B22D2D
Copy CRC 73B22D2D
Track not present in AccurateRip database
Copy OK

Track 7

Filename C:\EAC\07 - nike.wav

Peak level 96.5 %
Track quality 100.0 %
Test CRC 1094657E
Copy CRC 1094657E
Track not present in AccurateRip database
Copy OK

Track 8

Filename C:\EAC\08 - pica unit.wav

Peak level 96.5 %
Track quality 100.0 %
Test CRC 5A50E8F2
Copy CRC 5A50E8F2
Track not present in AccurateRip database
Copy OK

Track 9

Filename C:\EAC\09 - tame_rude image.wav

Peak level 96.5 %
Track quality 99.9 %
Test CRC 5CFAC7ED
Copy CRC 5CFAC7ED
Track not present in AccurateRip database
Copy OK

Track 10

Filename C:\EAC\10 - proton.wav

Peak level 96.5 %
Track quality 100.0 %
Test CRC 846167C0
Copy CRC 846167C0
Track not present in AccurateRip database
Copy OK

Track 11

Filename C:\EAC\11 - eve's escape valve.wav

Peak level 96.5 %
Track quality 100.0 %
Test CRC 15E785EE
Copy CRC 15E785EE
Track not present in AccurateRip database
Copy OK

None of the tracks are present in the AccurateRip database

No errors occurred

End of status report


REM GENRE IDM
REM DATE 2002
REM DISCID 940D8C0B
REM COMMENT "ExactAudioCopy v0.99pb3"
PERFORMER "Benge"
TITLE "Meme Tunes"
FILE "01 - adam-age loneliness.wav" WAVE
TRACK 01 AUDIO
TITLE "adam-age loneliness"
PERFORMER "Benge"
INDEX 01 00:00:00
FILE "02 - alpaca.wav" WAVE
TRACK 02 AUDIO
TITLE "alpaca"
PERFORMER "Benge"
INDEX 01 00:00:00
FILE "03 - a caped hero.wav" WAVE
TRACK 03 AUDIO
TITLE "a caped hero"
PERFORMER "Benge"
INDEX 01 00:00:00
FILE "04 - faun six.wav" WAVE
TRACK 04 AUDIO
TITLE "faun six"
PERFORMER "Benge"
INDEX 01 00:00:00
FILE "05 - urban.wav" WAVE
TRACK 05 AUDIO
TITLE "urban"
PERFORMER "Benge"
INDEX 01 00:00:00
FILE "06 - ajax goon.wav" WAVE
TRACK 06 AUDIO
TITLE "ajax goon"
PERFORMER "Benge"
INDEX 01 00:00:00
FILE "07 - nike.wav" WAVE
TRACK 07 AUDIO
TITLE "nike"
PERFORMER "Benge"
INDEX 01 00:00:00
FILE "08 - pica unit.wav" WAVE
TRACK 08 AUDIO
TITLE "pica unit"
PERFORMER "Benge"
INDEX 01 00:00:00
FILE "09 - tame_rude image.wav" WAVE
TRACK 09 AUDIO
TITLE "tame_rude image"
PERFORMER "Benge"
INDEX 01 00:00:00
FILE "10 - proton.wav" WAVE
TRACK 10 AUDIO
TITLE "proton"
PERFORMER "Benge"
INDEX 01 00:00:00
FILE "11 - eve's escape valve.wav" WAVE
TRACK 11 AUDIO
TITLE "eve's escape valve"
PERFORMER "Benge"
INDEX 01 00:00:00

Год выпуска: 2005
Продолжительность: 00:52:29
Треклист:

01. Iso-Grifo (05:09)
02. Elan (05:05)
03. Panhard (06:36)
04. Facel3 (07:10)
05. Zeta (03:41)
06. Abarth-Simca (05:39)
07. Scimitar (02:57)
08. Elva-Courier (09:09)
09. Jensen (07:03)

Exact Audio Copy V0.99 prebeta 4 from 23. January 2008

EAC extraction logfile from 3. January 2009, 21:45

Benge / i am 9

Used drive : HL-DT-STDVDRAM GSA-T20L Adapter: 1 ID: 0

Read mode : Secure
Utilize accurate stream : Yes
Defeat audio cache : Yes
Make use of C2 pointers : No

Read offset correction : 667
Overread into Lead-In and Lead-Out : No
Fill up missing offset samples with silence : Yes
Delete leading and trailing silent blocks : No
Null samples used in CRC calculations : Yes
Used interface : Native Win32 interface for Win NT & 2000
Gap handling : Appended to previous track

Used output format : User Defined Encoder
Selected bitrate : 320 kBit/s
Quality : High
Add ID3 tag : No
Command line compressor : C:\Users\Downloads\flac-1.2.1-win\bin\flac.exe
Additional command line options : -V -8 -T "artist=%a" -T "title=%t" -T "album=%g" -T "date=%y" -T "tracknumber=%n" -T "genre=%m" %s

TOC of the extracted CD

Track | Start | Length | Start sector | End sector
---------------------------------------------------------
1 | 0:00.00 | 5:09.20 | 0 | 23194
2 | 5:09.20 | 5:04.58 | 23195 | 46052
3 | 10:14.03 | 6:35.43 | 46053 | 75720
4 | 16:49.46 | 7:10.09 | 75721 | 107979
5 | 23:59.55 | 3:41.13 | 107980 | 124567
6 | 27:40.68 | 5:38.52 | 124568 | 149969
7 | 33:19.45 | 2:56.53 | 149970 | 163222
8 | 36:16.23 | 9:08.63 | 163223 | 204385
9 | 45:25.11 | 7:02.66 | 204386 | 236101

Track 1

Filename C:\download\Benge - 2005 - i am 9\01 - iso-grifo.wav

Pre-gap length 0:00:02.00

Peak level 99.9 %
Track quality 100.0 %
Test CRC 96E03DC2
Copy CRC 96E03DC2
Track not present in AccurateRip database
Copy OK

Track 2

Filename C:\download\Benge - 2005 - i am 9\02 - Elan.wav

Pre-gap length 0:00:02.00

Peak level 100.0 %
Track quality 100.0 %
Test CRC 7BB8865F
Copy CRC 7BB8865F
Track not present in AccurateRip database
Copy OK

Track 3

Filename C:\download\Benge - 2005 - i am 9\03 - Panhard.wav

Pre-gap length 0:00:02.00

Peak level 100.0 %
Track quality 100.0 %
Test CRC 25332972
Copy CRC 25332972
Track not present in AccurateRip database
Copy OK

Track 4

Filename C:\download\Benge - 2005 - i am 9\04 - Facel3.wav

Pre-gap length 0:00:02.00

Peak level 100.0 %
Track quality 100.0 %
Test CRC FD1B187D
Copy CRC FD1B187D
Track not present in AccurateRip database
Copy OK

Track 5

Filename C:\download\Benge - 2005 - i am 9\05 - Zeta.wav

Pre-gap length 0:00:02.00

Peak level 100.0 %
Track quality 99.9 %
Test CRC B377A765
Copy CRC B377A765
Track not present in AccurateRip database
Copy OK

Track 6

Filename C:\download\Benge - 2005 - i am 9\06 - Abarth-Simca.wav

Pre-gap length 0:00:02.00

Peak level 100.0 %
Track quality 99.9 %
Test CRC 5E7B2142
Copy CRC 5E7B2142
Track not present in AccurateRip database
Copy OK

Track 7

Filename C:\download\Benge - 2005 - i am 9\07 - Scimitar.wav

Pre-gap length 0:00:02.00

Peak level 100.0 %
Track quality 100.0 %
Test CRC B2A983DB
Copy CRC B2A983DB
Track not present in AccurateRip database
Copy OK

Track 8

Filename C:\download\Benge - 2005 - i am 9\08 - Elva-Courier.wav

Pre-gap length 0:00:02.00

Peak level 100.0 %
Track quality 100.0 %
Test CRC C32309AA
Copy CRC C32309AA
Track not present in AccurateRip database
Copy OK

Track 9

Filename C:\download\Benge - 2005 - i am 9\09 - Jensen.wav

Pre-gap length 0:00:02.00

Peak level 100.0 %
Track quality 100.0 %
Test CRC 2928D714
Copy CRC 2928D714
Track not present in AccurateRip database
Copy OK

None of the tracks are present in the AccurateRip database

No errors occurred

End of status report


REM GENRE IDM
REM DATE 2005
REM DISCID 570C4C09
REM COMMENT "ExactAudioCopy v0.99pb4"
FILE "01 - iso-grifo.wav" WAVE
TRACK 01 AUDIO
INDEX 01 00:00:00
TRACK 02 AUDIO
INDEX 00 05:07:20
FILE "02 - Elan.wav" WAVE
INDEX 01 00:00:00
TRACK 03 AUDIO
INDEX 00 05:02:58
FILE "03 - Panhard.wav" WAVE
INDEX 01 00:00:00
TRACK 04 AUDIO
INDEX 00 06:33:43
FILE "04 - Facel3.wav" WAVE
INDEX 01 00:00:00
TRACK 05 AUDIO
INDEX 00 07:08:09
FILE "05 - Zeta.wav" WAVE
INDEX 01 00:00:00
TRACK 06 AUDIO
INDEX 00 03:39:13
FILE "06 - Abarth-Simca.wav" WAVE
INDEX 01 00:00:00
TRACK 07 AUDIO
INDEX 00 05:36:52
FILE "07 - Scimitar.wav" WAVE
INDEX 01 00:00:00
TRACK 08 AUDIO
INDEX 00 02:54:53
FILE "08 - Elva-Courier.wav" WAVE
INDEX 01 00:00:00
TRACK 09 AUDIO
INDEX 00 09:06:63
FILE "09 - Jensen.wav" WAVE
INDEX 01 00:00:00

Год выпуска: 2008
Продолжительность: 01:04:31
Треклист:

01. 1968 Moog Modular (03:26)
02. 1969 EMS VCS3 (05:12)
03. 1970 ARP 2500 (03:08)
04. 1971 ARP 2600 (01:44)
05. 1972 Serge Modular (04:05)
06. 1973 Roland SH2000 (03:45)
07. 1974 Oberheim SEM (01:55)
08. 1975 Moog Polymoog (02:56)
09. 1976 Yamaha CS80 (03:49)
10. 1977 Yamaha CS30 (02:24)
11. 1978 Roland 100M (04:11)
12. 1979 Korg Lambda (01:42)
13. 1980 Korg Trident (02:04)
14. 1981 Yamaha CS70M (02:09)
15. 1982 PPG Wave (02:04)
16. 1983 Fairlight CMI (03:47)
17. 1984 Oberheim Xpander (01:44)
18. 1985 Yamaha CX5M (02:35)
19. 1986 NED Synclavier (07:28)
20. 1987 Kawai K5M (04:23)

Exact Audio Copy V0.99 prebeta 3 from 28. July 2007

EAC extraction logfile from 25. December 2008, 11:38

Benge / Twenty Systems

Used drive : Optiarc DVD RW AD-7170A Adapter: 0 ID: 0

Read mode : Secure
Utilize accurate stream : Yes
Defeat audio cache : Yes
Make use of C2 pointers : No

Read offset correction : 48
Overread into Lead-In and Lead-Out : No
Fill up missing offset samples with silence : Yes
Delete leading and trailing silent blocks : No
Null samples used in CRC calculations : Yes
Used interface : Installed external ASPI interface
Gap handling : Appended to previous track

Used output format : User Defined Encoder
Selected bitrate : 128 kBit/s
Quality : High
Add ID3 tag : No
Command line compressor : C:\Program Files\FLAC\flac.exe
Additional command line options : -V -8 -T "artist=%a" -T "title=%t" -T "album=%g" -T "date=%y" -T "tracknumber=%n" -T "genre=%m" %s

TOC of the extracted CD

Track | Start | Length | Start sector | End sector
---------------------------------------------------------
1 | 0:00.00 | 3:26.05 | 0 | 15454
2 | 3:26.05 | 5:12.35 | 15455 | 38889
3 | 8:38.40 | 3:07.73 | 38890 | 52987
4 | 11:46.38 | 1:43.60 | 52988 | 60772
5 | 13:30.23 | 4:05.10 | 60773 | 79157
6 | 17:35.33 | 3:44.58 | 79158 | 96015
7 | 21:20.16 | 1:54.60 | 96016 | 104625
8 | 23:15.01 | 2:56.25 | 104626 | 117850
9 | 26:11.26 | 3:49.22 | 117851 | 135047
10 | 30:00.48 | 2:23.38 | 135048 | 145810
11 | 32:24.11 | 4:10.46 | 145811 | 164606
12 | 36:34.57 | 1:42.22 | 164607 | 172278
13 | 38:17.04 | 2:03.39 | 172279 | 181542
14 | 40:20.43 | 2:09.01 | 181543 | 191218
15 | 42:29.44 | 2:04.00 | 191219 | 200518
16 | 44:33.44 | 3:47.01 | 200519 | 217544
17 | 48:20.45 | 1:44.00 | 217545 | 225344
18 | 50:04.45 | 2:35.34 | 225345 | 237003
19 | 52:40.04 | 7:28.00 | 237004 | 270603
20 | 60:08.04 | 4:23.13 | 270604 | 290341

Track 1

Filename C:\Rips\Twenty Systems - Benge (FLAC)\01 - 1968 - Moog Modular.wav

Pre-gap length 0:00:02.00

Peak level 100.0 %
Track quality 100.0 %
Test CRC 75A4605F
Copy CRC 75A4605F
Copy OK

Track 2

Filename C:\Rips\Twenty Systems - Benge (FLAC)\02 - 1969 - EMS VCS3.wav

Peak level 99.0 %
Track quality 99.9 %
Test CRC 11318158
Copy CRC 11318158
Copy OK

Track 3

Filename C:\Rips\Twenty Systems - Benge (FLAC)\03 - 1970 - ARP 2500.wav

Peak level 100.0 %
Track quality 99.9 %
Test CRC A9F20566
Copy CRC A9F20566
Copy OK

Track 4

Filename C:\Rips\Twenty Systems - Benge (FLAC)\04 - 1971 - ARP 2600.wav

Peak level 41.5 %
Track quality 100.0 %
Test CRC E66048C2
Copy CRC E66048C2
Copy OK

Track 5

Filename C:\Rips\Twenty Systems - Benge (FLAC)\05 - 1972 - Serge Modular.wav

Peak level 99.0 %
Track quality 100.0 %
Test CRC 56E96183
Copy CRC 56E96183
Copy OK

Track 6

Filename C:\Rips\Twenty Systems - Benge (FLAC)\06 - 1973 - Roland Modular.wav

Peak level 100.0 %
Track quality 99.9 %
Test CRC 8173314D
Copy CRC 8173314D
Copy OK

Track 7

Filename C:\Rips\Twenty Systems - Benge (FLAC)\07 - 1974 - Oberheim SEM.wav

Peak level 63.5 %
Track quality 100.0 %
Test CRC 94874B2D
Copy CRC 94874B2D
Copy OK

Track 8

Filename C:\Rips\Twenty Systems - Benge (FLAC)\08 - 1975 - Moog Polymoog.wav

Peak level 89.9 %
Track quality 99.9 %
Test CRC FE801558
Copy CRC FE801558
Copy OK

Track 9

Filename C:\Rips\Twenty Systems - Benge (FLAC)\09 - 1976 - Yamaha CS80.wav

Peak level 100.0 %
Track quality 100.0 %
Test CRC 932FDE2D
Copy CRC 932FDE2D
Copy OK

Track 10

Filename C:\Rips\Twenty Systems - Benge (FLAC)\10 - 1977 - Yamaha CS30.wav

Peak level 100.0 %
Track quality 100.0 %
Test CRC CD54D4A6
Copy CRC CD54D4A6
Copy OK

Track 11

Filename C:\Rips\Twenty Systems - Benge (FLAC)\11 - 1978 - Roland 100M.wav

Peak level 100.0 %
Track quality 100.0 %
Test CRC C3A36C30
Copy CRC C3A36C30
Copy OK

Track 12

Filename C:\Rips\Twenty Systems - Benge (FLAC)\12 - 1979 - Korg Lambda.wav

Peak level 76.6 %
Track quality 99.8 %
Test CRC 0B2BE1F5
Copy CRC 0B2BE1F5
Copy OK

Track 13

Filename C:\Rips\Twenty Systems - Benge (FLAC)\13 - 1980 - Korg Trident.wav

Peak level 33.7 %
Track quality 99.9 %
Test CRC E4C9CF7D
Copy CRC E4C9CF7D
Copy OK

Track 14

Filename C:\Rips\Twenty Systems - Benge (FLAC)\14 - 1981 - Yamaha CS70M.wav

Peak level 100.0 %
Track quality 100.0 %
Test CRC 87D8B3E5
Copy CRC 87D8B3E5
Copy OK

Track 15

Filename C:\Rips\Twenty Systems - Benge (FLAC)\15 - 1982 - PPG Wave.wav

Peak level 56.2 %
Track quality 100.0 %
Test CRC 622EB8D5
Copy CRC 622EB8D5
Copy OK

Track 16

Filename C:\Rips\Twenty Systems - Benge (FLAC)\16 - 1983 - Fairlight CMI.wav

Peak level 41.9 %
Track quality 100.0 %
Test CRC 2CAC8212
Copy CRC 2CAC8212
Copy OK

Track 17

Filename C:\Rips\Twenty Systems - Benge (FLAC)\17 - 1984 - Oberheim Xpander.wav

Peak level 100.0 %
Track quality 100.0 %
Test CRC B718B88D
Copy CRC B718B88D
Copy OK

Track 18

Filename C:\Rips\Twenty Systems - Benge (FLAC)\18 - 1985 - Yamaha CX5M.wav

Peak level 100.0 %
Track quality 100.0 %
Test CRC 00D52480
Copy CRC 00D52480
Copy OK

Track 19

Filename C:\Rips\Twenty Systems - Benge (FLAC)\19 - 1986 - NED Synclavier.wav

Peak level 86.6 %
Track quality 100.0 %
Test CRC 65A01773
Copy CRC 65A01773
Copy OK

Track 20

Filename C:\Rips\Twenty Systems - Benge (FLAC)\20 - 1987 - Kawai K5M.wav

Peak level 100.0 %
Track quality 100.0 %
Test CRC BE8CE954
Copy CRC BE8CE954
Copy OK

No errors occurred

End of status report


REM GENRE Synthpop
REM DATE 2008
REM DISCID 0A0F1F14
REM COMMENT "ExactAudioCopy v0.99pb3"
PERFORMER "Benge"
TITLE "Twenty Systems"
FILE "01 - 1968 - Moog Modular.wav" WAVE
TRACK 01 AUDIO
TITLE "1968 - Moog Modular"
PERFORMER "Benge"
INDEX 01 00:00:00
FILE "02 - 1969 - EMS VCS3.wav" WAVE
TRACK 02 AUDIO
TITLE "1969 - EMS VCS3"
PERFORMER "Benge"
INDEX 01 00:00:00
FILE "03 - 1970 - ARP 2500.wav" WAVE
TRACK 03 AUDIO
TITLE "1970 - ARP 2500"
PERFORMER "Benge"
INDEX 01 00:00:00
FILE "04 - 1971 - ARP 2600.wav" WAVE
TRACK 04 AUDIO
TITLE "1971 - ARP 2600"
PERFORMER "Benge"
INDEX 01 00:00:00
FILE "05 - 1972 - Serge Modular.wav" WAVE
TRACK 05 AUDIO
TITLE "1972 - Serge Modular"
PERFORMER "Benge"
INDEX 01 00:00:00
FILE "06 - 1973 - Roland Modular.wav" WAVE
TRACK 06 AUDIO
TITLE "1973 - Roland Modular"
PERFORMER "Benge"
INDEX 01 00:00:00
FILE "07 - 1974 - Oberheim SEM.wav" WAVE
TRACK 07 AUDIO
TITLE "1974 - Oberheim SEM"
PERFORMER "Benge"
INDEX 01 00:00:00
FILE "08 - 1975 - Moog Polymoog.wav" WAVE
TRACK 08 AUDIO
TITLE "1975 - Moog Polymoog"
PERFORMER "Benge"
INDEX 01 00:00:00
FILE "09 - 1976 - Yamaha CS80.wav" WAVE
TRACK 09 AUDIO
TITLE "1976 - Yamaha CS80"
PERFORMER "Benge"
INDEX 01 00:00:00
FILE "10 - 1977 - Yamaha CS30.wav" WAVE
TRACK 10 AUDIO
TITLE "1977 - Yamaha CS30"
PERFORMER "Benge"
INDEX 01 00:00:00
FILE "11 - 1978 - Roland 100M.wav" WAVE
TRACK 11 AUDIO
TITLE "1978 - Roland 100M"
PERFORMER "Benge"
INDEX 01 00:00:00
FILE "12 - 1979 - Korg Lambda.wav" WAVE
TRACK 12 AUDIO
TITLE "1979 - Korg Lambda"
PERFORMER "Benge"
INDEX 01 00:00:00
FILE "13 - 1980 - Korg Trident.wav" WAVE
TRACK 13 AUDIO
TITLE "1980 - Korg Trident"
PERFORMER "Benge"
INDEX 01 00:00:00
FILE "14 - 1981 - Yamaha CS70M.wav" WAVE
TRACK 14 AUDIO
TITLE "1981 - Yamaha CS70M"
PERFORMER "Benge"
INDEX 01 00:00:00
FILE "15 - 1982 - PPG Wave.wav" WAVE
TRACK 15 AUDIO
TITLE "1982 - PPG Wave"
PERFORMER "Benge"
INDEX 01 00:00:00
FILE "16 - 1983 - Fairlight CMI.wav" WAVE
TRACK 16 AUDIO
TITLE "1983 - Fairlight CMI"
PERFORMER "Benge"
INDEX 01 00:00:00
FILE "17 - 1984 - Oberheim Xpander.wav" WAVE
TRACK 17 AUDIO
TITLE "1984 - Oberheim Xpander"
PERFORMER "Benge"
INDEX 01 00:00:00
FILE "18 - 1985 - Yamaha CX5M.wav" WAVE
TRACK 18 AUDIO
TITLE "1985 - Yamaha CX5M"
PERFORMER "Benge"
INDEX 01 00:00:00
FILE "19 - 1986 - NED Synclavier.wav" WAVE
TRACK 19 AUDIO
TITLE "1986 - NED Synclavier"
PERFORMER "Benge"
INDEX 01 00:00:00
FILE "20 - 1987 - Kawai K5M.wav" WAVE
TRACK 20 AUDIO
TITLE "1987 - Kawai K5M"
PERFORMER "Benge"
INDEX 01 00:00:00

Год выпуска: 2012
Продолжительность: 00:30:21
Треклист:

01. Alpha (04:55)
02. Beta (04:22)
03. Gamma (05:04)
04. Delta (04:20)
05. Epsilon (05:19)
06. Zeta (Abstraxa) (06:21)

-----------------------

DON'T MODIFY THIS FILE

-----------------------

PERFORMER: auCDtect Task Manager, ver. 1.6.0 RC1 build 1.6.0.1
Copyright (c) 2008-2010 y-soft. All rights reserved
http://y-soft.org

ANALYZER: auCDtect: CD records authenticity detector, version 0.8.2
Copyright (c) 2004 Oleg Berngardt. All rights reserved.
Copyright (c) 2004 Alexander Djourik. All rights reserved.

FILE: 06. Zeta (Abstraxa).flac
Size: 26545241 Hash: C2718D87B359B4411E6F2B18BFF76483 Accuracy: -m0
Conclusion: CDDA 100%
Signature: E1CD47A9E9BFEFB3E897694EE5EAF9FF44A1F18F
FILE: 05. Epsilon.flac
Size: 18758141 Hash: 2CF98B5D1DC0E477625AE4D216AA0B8A Accuracy: -m0
Conclusion: CDDA 99%
Signature: A455CC043AC19969C239F0879BBE6326035A21FE
FILE: 04. Delta.flac
Size: 17020492 Hash: 8B5E54A7DAA334DF5BC8EC81A1F07786 Accuracy: -m0
Conclusion: CDDA 100%
Signature: BF5298F2D1E49BFCABF281DC889670F3F19F064E
FILE: 03. Gamma.flac
Size: 22367849 Hash: 2E22D0AAFE940159F3D79794080BFA08 Accuracy: -m0
Conclusion: CDDA 100%
Signature: C65BFBCC0DD94B60C1C23DDE8F8B4BED693EE079
FILE: 02. Beta.flac
Size: 13930323 Hash: C892CE5E1600D7A785494C7AC522B63A Accuracy: -m0
Conclusion: CDDA 100%
Signature: C12ED3ABBDE4C34A4E0410DF4F3287E3760354ED
FILE: 01. Alpha.flac
Size: 19233749 Hash: 15BC3040F65B522143B48D38CB2F829E Accuracy: -m0
Conclusion: CDDA 100%
Signature: 80A344D1BF4D4017BFDDC27E1CFC534DEDA03162

Год выпуска: 2012
Продолжительность: 00:30:21
Треклист:

01. Pathway (04:59)
02. Gyrus (06:20)
03. Cortex (07:07)
04. Globus (05:07)
05. Nuclei (06:48)

-----------------------

DON'T MODIFY THIS FILE

-----------------------

PERFORMER: auCDtect Task Manager, ver. 1.6.0 RC1 build 1.6.0.1
Copyright (c) 2008-2010 y-soft. All rights reserved
http://y-soft.org

ANALYZER: auCDtect: CD records authenticity detector, version 0.8.2
Copyright (c) 2004 Oleg Berngardt. All rights reserved.
Copyright (c) 2004 Alexander Djourik. All rights reserved.

FILE: 05. Nuclei.flac
Size: 32520171 Hash: D7834DC01BBAB60CE64F1411286E09BE Accuracy: -m0
Conclusion: CDDA 100%
Signature: 677959B00D03042040048C588D39095874B1E110
FILE: 04. Globus.flac
Size: 18797190 Hash: D3584B0A7F48D9D7B47FC88870374830 Accuracy: -m0
Conclusion: CDDA 100%
Signature: F688C0ED666B7951DFC17524AE5C78138F14EDB6
FILE: 03. Cortex.flac
Size: 31844586 Hash: 33DC80C001C9A40D8D70463895AE37A7 Accuracy: -m0
Conclusion: CDDA 100%
Signature: 8888EAA62EDE47F8106FD1FBDBCC3577BBEBCE95
FILE: 02. Gyrus.flac
Size: 18400138 Hash: 7F48FA1B98E9CEE51CE98B61CCBDC009 Accuracy: -m0
Conclusion: CDDA 100%
Signature: DAC88A77145C9C04E2F5ACACCA31A6E1612FC949
FILE: 01. Pathway.flac
Size: 17359693 Hash: 9B3D53B99B57CE103EB19C71F2710848 Accuracy: -m0
Conclusion: CDDA 100%
Signature: D6F5C0783A71BC956C8CBB46A25D809A79E5B28F

Год выпуска: 2012
Продолжительность: 00:30:35
Треклист:

01. Ento (10:08)
02. Urba (09:04)
03. Osto (03:14)
04. Kapt (08:09)

-----------------------

DON'T MODIFY THIS FILE

-----------------------

PERFORMER: auCDtect Task Manager, ver. 1.6.0 RC1 build 1.6.0.1
Copyright (c) 2008-2010 y-soft. All rights reserved
http://y-soft.org

ANALYZER: auCDtect: CD records authenticity detector, version 0.8.2
Copyright (c) 2004 Oleg Berngardt. All rights reserved.
Copyright (c) 2004 Alexander Djourik. All rights reserved.

FILE: 04. Kapt.flac
Size: 33370953 Hash: C20349AAD09DB6DE59ED52C8119C4926 Accuracy: -m0
Conclusion: CDDA 100%
Signature: 4A47F4AE1F25946D148C385A156C680EF59680D9
FILE: 03. Osto.flac
Size: 15825911 Hash: 12407A6C4999490344C454E3C914062D Accuracy: -m0
Conclusion: ???
Signature: 78684610DAD441B07035959DF1344AB8CDB4040A
FILE: 02. Urba.flac
Size: 33535048 Hash: 77ADF978908B7F51810A3B92FE63838F Accuracy: -m0
Conclusion: CDDA 100%
Signature: 732236D546307913EDE357C401437A51FF6F0E9A
FILE: 01. Ento.flac
Size: 49833570 Hash: 3465A0F568A3E9236BB9E33D31F867F0 Accuracy: -m0
Conclusion: CDDA 100%
Signature: 2F407CCA9BBC3CB97DB541EE422A851008B71967

Год выпуска: 2012
Продолжительность: 00:33:47
Треклист:

01. Fourm One (01:24)
02. Fourm Two (09:01)
03. Fourm Three (10:42)
04. Fourm Four (04:24)
05. Fourm Five (08:16)

-----------------------

DON'T MODIFY THIS FILE

-----------------------

PERFORMER: auCDtect Task Manager, ver. 1.6.0 RC1 build 1.6.0.1
Copyright (c) 2008-2010 y-soft. All rights reserved
http://y-soft.org

ANALYZER: auCDtect: CD records authenticity detector, version 0.8.2
Copyright (c) 2004 Oleg Berngardt. All rights reserved.
Copyright (c) 2004 Alexander Djourik. All rights reserved.

FILE: 05. Fourm Five.flac
Size: 42534051 Hash: 05EB5D62F5017D57484F0849CFAF7EAC Accuracy: -m0
Conclusion: CDDA 100%
Signature: D0C7A7BFF71DAA3832A1E296199572878FF345C5
FILE: 04. Fourm Four.flac
Size: 22568794 Hash: 9EF0E06F890F9D0A92C995A0CD3A4477 Accuracy: -m0
Conclusion: CDDA 100%
Signature: 2A1C329D2AA5CD13F8FFF95C2F0B809E9BF3AFBD
FILE: 03. Fourm Three.flac
Size: 55358039 Hash: 3BBBDA9B1965EA537C88B3AB409C26DE Accuracy: -m0
Conclusion: CDDA 100%
Signature: 9ECF96480D5AD9A9EED5E661ED6F522BAC201A9A
FILE: 02. Fourm Two.flac
Size: 46471329 Hash: 355CA0C203BBB0DBAF59E92547F5F7B2 Accuracy: -m0
Conclusion: CDDA 100%
Signature: F26882B4AA73A7103544AA8846D700CEB61C8631
FILE: 01. Fourm One.flac
Size: 5892916 Hash: C929EADC918198EE2873CD718FBE2032 Accuracy: -m0
Conclusion: CDDA 100%
Signature: E5DDC583F02A4380CD85716BE8F473B67911A897

Год выпуска: 2013
Продолжительность: 00:26:58
Треклист:

01. Chime One (05:06)
02. Chime Two (04:56)
03. Chime Three (03:06)
04. Chime Four (02:26)
05. Chime Five (11:24)

-----------------------

DON'T MODIFY THIS FILE

-----------------------

PERFORMER: auCDtect Task Manager, ver. 1.6.0 RC1 build 1.6.0.1
Copyright (c) 2008-2010 y-soft. All rights reserved
http://y-soft.org

ANALYZER: auCDtect: CD records authenticity detector, version 0.8.2
Copyright (c) 2004 Oleg Berngardt. All rights reserved.
Copyright (c) 2004 Alexander Djourik. All rights reserved.

FILE: 05. Chime Five.flac
Size: 43827926 Hash: 6974845665E255D65F373645799E6FCC Accuracy: -m0
Conclusion: ???
Signature: 2D467C901BFFFCAF0C129ED8279AB9973BFB6876
FILE: 04. Chime Four.flac
Size: 11318857 Hash: 1DF8EFDAAEE47344A44BD4C5212DC2C0 Accuracy: -m0
Conclusion: ???
Signature: 5479129188F699C34CB522771CFB3305E56CA594
FILE: 03. Chime Three.flac
Size: 12550235 Hash: 0542CBF932B72E33577C9475DC9B1F67 Accuracy: -m0
Conclusion: ???
Signature: 59B7E5AAB265EDE569CE2EA037CE43CDF157E656
FILE: 02. Chime Two.flac
Size: 21114758 Hash: 3BD21FE2C2833DB03DC87958B556A298 Accuracy: -m0
Conclusion: ???
Signature: 3349C1E1ABEDC6BC43F44BE45D4281E104C533F0
FILE: 01. Chime One.flac
Size: 19481511 Hash: 38C01EE7566460C40588E042239ACD17 Accuracy: -m0
Conclusion: ???
Signature: 118B1A0F57989751EF595F5FF889F6A4CFF8F661

Год выпуска: 2013
Продолжительность: 00:42:12
Треклист:

01. Milek (03:55)
02. Vilbae (03:34)
03. Leraf (02:42)
04. Budec (02:55)
05. Maher (03:28)
06. Murke (03:36)
07. Groud (04:41)
08. Solfe (03:09)
09. Loar (03:30)
10. Termer (02:47)
11. Gelin (03:23)
12. Coren (04:32)

-----------------------

DON'T MODIFY THIS FILE

-----------------------

PERFORMER: auCDtect Task Manager, ver. 1.6.0 RC1 build 1.6.0.1
Copyright (c) 2008-2010 y-soft. All rights reserved
http://y-soft.org

ANALYZER: auCDtect: CD records authenticity detector, version 0.8.2
Copyright (c) 2004 Oleg Berngardt. All rights reserved.
Copyright (c) 2004 Alexander Djourik. All rights reserved.

FILE: 12. Coren.flac
Size: 20769557 Hash: 066D4AEB9FC49090F8D8551F255208B7 Accuracy: -m0
Conclusion: CDDA 100%
Signature: 6D23606E0547651C7A5A8EFE26AA412E40080E5D
FILE: 11. Gelin.flac
Size: 7621680 Hash: A671BAA90CA1017F957874250E264C89 Accuracy: -m0
Conclusion: CDDA 85%
Signature: 8A7B8B0DD3E660CEF00758F869B39193FCF50841
FILE: 10. Termer.flac
Size: 7777527 Hash: E835698F118DA170BCBC309CDBA84253 Accuracy: -m0
Conclusion: CDDA 100%
Signature: 5E15564B16A22FC80926A33D080CBD1F1A233C0E
FILE: 09. Loar.flac
Size: 14924552 Hash: 600CF66BD26C170E04C293049CFBAD91 Accuracy: -m0
Conclusion: CDDA 100%
Signature: A8A8E8F6CC0B25240D6775B523D0C330339E2C5F
FILE: 08. Solfe.flac
Size: 8272607 Hash: 6E0C5D0440E5338EC0F0C94F28D558CD Accuracy: -m0
Conclusion: CDDA 54%
Signature: 003CBB8503D9F716714FF779C574B4A68FBF1405
FILE: 07. Groud.flac
Size: 15728487 Hash: 931A514630BF8DD97D67F7C76AA66271 Accuracy: -m0
Conclusion: CDDA 100%
Signature: FD0DAE0C487D5BF44F581729F91837D340E518BB
FILE: 06. Murke.flac
Size: 20927706 Hash: 894CC9F58EBE44D4AC474A93A411FD0C Accuracy: -m0
Conclusion: CDDA 100%
Signature: CDCDCDB07AED0C13D6A123E77C0227D3AB977E06
FILE: 05. Maher.flac
Size: 20602391 Hash: 9DCD367FEB0F94C6D25EE051C88D44BB Accuracy: -m0
Conclusion: CDDA 100%
Signature: 82EE9462297AD3C3B2FF9A5063AF343D18746E8A
FILE: 04. Budec.flac
Size: 14094823 Hash: 770697833C0F4BBEBE2342D99D34C57D Accuracy: -m0
Conclusion: CDDA 100%
Signature: 57E18997C943D2803B068F94B30787A46E346894
FILE: 03. Leraf.flac
Size: 15740273 Hash: BD42C753A68091847B0EEB64B8E7D968 Accuracy: -m0
Conclusion: CDDA 100%
Signature: EC870B5AD5FECB6F939D0CA4181793D1CB97E32B
FILE: 02. Vilbae.flac
Size: 14351520 Hash: 6A26855B2A6BFD13C5BDCF3696C51738 Accuracy: -m0
Conclusion: CDDA 100%
Signature: 4E607C1FCDC7DF62D857CF0C539FED76593779D4
FILE: 01. Milek.flac
Size: 19122898 Hash: 9AFD7443E3CCB199229BAAF15AE98657 Accuracy: -m0
Conclusion: CDDA 100%
Signature: AA34D2458AFB9E2A166C614743D367720F7A09D8

Год выпуска: 2013
Продолжительность: 00:34:16
Треклист:

01. Earthmoves (04:07)
02. Elysian Knights (05:45)
03. Enemy Torpor (03:55)
04. Elixir Of Death (02:18)
05. The Cipher (03:44)
06. Ashen Halo (03:12)
07. The Cruciform (04:02)
08. The Gateway (04:16)
09. Ascension (02:57)

-----------------------

DON'T MODIFY THIS FILE

-----------------------

PERFORMER: auCDtect Task Manager, ver. 1.6.0 RC1 build 1.6.0.1
Copyright (c) 2008-2010 y-soft. All rights reserved
http://y-soft.org

ANALYZER: auCDtect: CD records authenticity detector, version 0.8.2
Copyright (c) 2004 Oleg Berngardt. All rights reserved.
Copyright (c) 2004 Alexander Djourik. All rights reserved.

FILE: 09. Ascension.flac
Size: 17733631 Hash: 32020A94A6756858888ACE5AE9215F66 Accuracy: -m0
Conclusion: CDDA 100%
Signature: 87FA09E4F0942344831DBC2996D2C44C99A8880D
FILE: 08. The Gateway.flac
Size: 29643907 Hash: 4ACD38D266EB098B4080B633AE139CCB Accuracy: -m0
Conclusion: CDDA 100%
Signature: DAF9CC92002091D437EA2570CA7DC15A471039A8
FILE: 07. The Cruciform.flac
Size: 26228944 Hash: 8E5F2CDD0434EA34B3E9ADD6C67F6F40 Accuracy: -m0
Conclusion: CDDA 100%
Signature: ECB22E84BE8E059A8336D58B9FA8708AAAFA98A7
FILE: 06. Ashen Halo.flac
Size: 20976335 Hash: 43914C605110C6609E8E6798E24D0FAD Accuracy: -m0
Conclusion: CDDA 100%
Signature: 7A4C62E2DD8710A52AC440D976930637AF14B499
FILE: 05. The Cipher.flac
Size: 21585153 Hash: 040F19CF1C928C1BC2D9D95DC0D39C47 Accuracy: -m0
Conclusion: CDDA 100%
Signature: 8B42B660CC8B6B3758257004ECE6E542F7AC867D
FILE: 04. Elixir Of Death.flac
Size: 15462748 Hash: 3DB185AD2FF8DF107BAD0A3045FB3314 Accuracy: -m0
Conclusion: CDDA 100%
Signature: ED04057BD31CDF14F6F15AD84686CA09BF4C3A3B
FILE: 03. Enemy Torpor.flac
Size: 28870711 Hash: D4E2AF765DCB07EDD05A1714D1CDCD9B Accuracy: -m0
Conclusion: CDDA 100%
Signature: DF6BB4F374F3234D90359C6CBD078AEB28B82AB5
FILE: 02. Elysian Knights.flac
Size: 38679237 Hash: 40E53E2E9D03DD0DFD29B315886468FB Accuracy: -m0
Conclusion: CDDA 100%
Signature: B91306D65E25FC80E7EEDF2087315366CE352EB8
FILE: 01. Earthmoves.flac
Size: 27886033 Hash: B38DC6E32326D4193BE988A7ABE7439E Accuracy: -m0
Conclusion: CDDA 100%
Signature: 437A9C31E2EEF419AD594945E66012C65C300A65

Год выпуска: 2013
Продолжительность: 00:35:39
Треклист:

01. Zero One (02:09)
02. Zero Two (02:00)
03. Zero Three (02:06)
04. Zero Four (02:24)
05. Zero Five (02:09)
06. Zero Six (02:16)
07. Zero Seven (01:58)
08. Zero Eight (01:38)
09. Zero Nine (02:22)
10. One Zero (02:25)
11. One One (02:50)
12. One Two (02:21)
13. One Three (01:35)
14. One Four (02:17)
15. One Five (01:38)
16. One Six (02:13)
17. One Seven (01:18)

-----------------------

DON'T MODIFY THIS FILE

-----------------------

PERFORMER: auCDtect Task Manager, ver. 1.6.0 RC1 build 1.6.0.1
Copyright (c) 2008-2010 y-soft. All rights reserved
http://y-soft.org

ANALYZER: auCDtect: CD records authenticity detector, version 0.8.2
Copyright (c) 2004 Oleg Berngardt. All rights reserved.
Copyright (c) 2004 Alexander Djourik. All rights reserved.

FILE: 17. One Seven.flac
Size: 6612450 Hash: A2C7609DC8FEE31D75725CABFAD20670 Accuracy: -m0
Conclusion: CDDA 100%
Signature: E092DA009CD1F12B76817D5EF0A01B5FC89455F1
FILE: 16. One Six.flac
Size: 9124926 Hash: DC570D9E955A6631FC14B2006908E272 Accuracy: -m0
Conclusion: CDDA 100%
Signature: 61AAF5FB45519837853CE8CFD95CE88CDE5EC788
FILE: 15. One Five.flac
Size: 7351450 Hash: 3A17C62EF53BD5EF4FB2CD6A7FE2A809 Accuracy: -m0
Conclusion: CDDA 100%
Signature: 78CD3EC028CBE9BA056EE5DB6E0FBF319B745DD7
FILE: 14. One Four.flac
Size: 11964650 Hash: 623CB11E96702C3E1CD51E63CCDAC762 Accuracy: -m0
Conclusion: CDDA 99%
Signature: F4E6253C291A2228FAC6CC3F2EDDD22BA8301B3D
FILE: 13. One Three.flac
Size: 10203828 Hash: BFD552D211D1AD67CC50208479B0D971 Accuracy: -m0
Conclusion: CDDA 100%
Signature: 0BB0C9A3C219054556FF896C8393CD9B9780740D
FILE: 12. One Two.flac
Size: 9952922 Hash: 1A9FC7312AAD40C363D6AF3B502CC554 Accuracy: -m0
Conclusion: CDDA 100%
Signature: 4DC3C6EC363AA32930EA47B959795D42364B4F44
FILE: 11. One One.flac
Size: 15155729 Hash: 8956B0E7E665C47F4D41AB894C631C25 Accuracy: -m0
Conclusion: CDDA 100%
Signature: 6D717E0F16109A6C09284EE456F8EE731A4B27DD
FILE: 10. One Zero.flac
Size: 12200435 Hash: AE4BEFE27649A8E52ABEEC063281D88F Accuracy: -m0
Conclusion: CDDA 100%
Signature: BBCD7015B0D8316A5297009F8ACCCC0DB8B2443C
FILE: 09. Zero Nine.flac
Size: 10712918 Hash: 80C0558C95EB3640A23F77819B7EFDFF Accuracy: -m0
Conclusion: CDDA 100%
Signature: 751320EE05F71383F051C3B26533F5BBF7EC6C69
FILE: 08. Zero Eight.flac
Size: 7860785 Hash: 8E945FACF2C752364ED70AC653879928 Accuracy: -m0
Conclusion: CDDA 100%
Signature: 5E485E1300EFCF645EA9F9A55ACF6B737715863E
FILE: 07. Zero Seven.flac
Size: 11184220 Hash: 87F5B7FEDF4258FB361F477AAF985059 Accuracy: -m0
Conclusion: CDDA 99%
Signature: 06F49B8FFC621A59F889263A18BB8B00C2B74245
FILE: 06. Zero Six.flac
Size: 11829045 Hash: 5BDC00223AAE8E32C1BD7A979A3E464B Accuracy: -m0
Conclusion: CDDA 99%
Signature: DA2BA6E53DBBC015E9BD41F9F82CF99683288AB7
FILE: 05. Zero Five.flac
Size: 10060697 Hash: 4B6D1AE1D98D050E890207B2D210FF1C Accuracy: -m0
Conclusion: CDDA 100%
Signature: C91D24519F2AE72ABC58DC0250BE6C916E72DD80
FILE: 04. Zero Four.flac
Size: 11793821 Hash: F589A8974420974D4152D58070F6791E Accuracy: -m0
Conclusion: CDDA 100%
Signature: D7DCEF3D3AF7885F21422E70CFEDF2B540BAFCE1
FILE: 03. Zero Three.flac
Size: 9385356 Hash: A45107148074663A5E82B0148FB51C4A Accuracy: -m0
Conclusion: CDDA 100%
Signature: 3B657BB91C2C5F224585FADD3D72CC707C70D702
FILE: 02. Zero Two.flac
Size: 7173265 Hash: 2852631BB82EFADE5E1DDF61258D350A Accuracy: -m0
Conclusion: CDDA 100%
Signature: 079690C56D5FA8E1D8246189A0EFF55BD906F1D3
FILE: 01. Zero One.flac
Size: 10477012 Hash: 757FDD93222D016B7E49100E91452060 Accuracy: -m0
Conclusion: CDDA 100%
Signature: 2DCD47DFFF172142F3A91AD406B57E2B318507FF

Год выпуска: 2014
Продолжительность: 00:39:26
Треклист:

01. Droneform (04:48)
02. Toneform (06:02)
03. Lifeform (03:21)
04. Dotform (04:07)
05. Noteform (04:36)
06. Noiseform (06:10)
07. Dirtform (05:13)
08. Lineform (05:09)

-----------------------

DON'T MODIFY THIS FILE

-----------------------

PERFORMER: auCDtect Task Manager, ver. 1.6.0 RC1 build 1.6.0.1
Copyright (c) 2008-2010 y-soft. All rights reserved
http://y-soft.org

ANALYZER: auCDtect: CD records authenticity detector, version 0.8.2
Copyright (c) 2004 Oleg Berngardt. All rights reserved.
Copyright (c) 2004 Alexander Djourik. All rights reserved.

FILE: 08. Lineform.flac
Size: 22497494 Hash: 2EAA82DABFBEB76706A8942ABA26CEFA Accuracy: -m0
Conclusion: CDDA 100%
Signature: 2F7BE7071BC4C4A458DDF4998B14AF4797EFF363
FILE: 07. Dirtform.flac
Size: 16935964 Hash: 8FED423035F96C3B162A173A68733A01 Accuracy: -m0
Conclusion: CDDA 99%
Signature: AC0292BCE570A8CCD4222C40CFF379AFEFF3D4E9
FILE: 06. Noiseform.flac
Size: 23967532 Hash: 44FF0A7A74D0260B7587D548CBAC0AD0 Accuracy: -m0
Conclusion: CDDA 100%
Signature: 3F785AF70994780326BC4AF3E1BBDADC3B922400
FILE: 05. Noteform.flac
Size: 16405701 Hash: 24DD44CA4A66C178B15CF06DB60A8579 Accuracy: -m0
Conclusion: CDDA 100%
Signature: C9C5D6ADCED0404F1E5F5531AF641C907C5C9845
FILE: 04. Dotform.flac
Size: 17694205 Hash: BD77A1162A1D1D596866A1A690402AB1 Accuracy: -m0
Conclusion: CDDA 100%
Signature: CB4989C479C702630B3AB44DC40018DFAA846BA4
FILE: 03. Lifeform.flac
Size: 12520116 Hash: 664184470257934CF52FC314E8505D65 Accuracy: -m0
Conclusion: CDDA 100%
Signature: 3F0DC15762E22E7218114CFAA68DC82502CEF40F
FILE: 02. Toneform.flac
Size: 24990569 Hash: 16444D780C6B7147D23C82D91F0798B7 Accuracy: -m0
Conclusion: CDDA 100%
Signature: B2B065212EA513FB74D67127DA2495DB3D4C96BA
FILE: 01. Droneform.flac
Size: 20469634 Hash: A8BF49DE87141900D05AE8861DF6175A Accuracy: -m0
Conclusion: CDDA 100%
Signature: FD77FD473BD8302F0A6B470505B7A1BFA8C48A37

Год выпуска: 2014
Продолжительность: 00:40:53
Треклист:

01. Superlattice (10:39)
02. Wires And Dots (04:17)
03. Edge State (05:35)
04. Programmable Matter (04:34)
05. Crystal Growth (10:29)
06. Anti-dot Array (05:19)

-----------------------

DON'T MODIFY THIS FILE

-----------------------

PERFORMER: auCDtect Task Manager, ver. 1.6.0 RC1 build 1.6.0.1
Copyright (c) 2008-2010 y-soft. All rights reserved
http://y-soft.org

ANALYZER: auCDtect: CD records authenticity detector, version 0.8.2
Copyright (c) 2004 Oleg Berngardt. All rights reserved.
Copyright (c) 2004 Alexander Djourik. All rights reserved.

FILE: 06. Anti-dot Array.flac
Size: 25370223 Hash: 987865CAD65B9B376F634620AEC5CFEB Accuracy: -m0
Conclusion: CDDA 100%
Signature: 2741EE632AEA088A7DDA7C3BD2FDFBBE3DF63B45
FILE: 05. Crystal Growth.flac
Size: 42039019 Hash: 65296A5879326EDFE8F198134FAF3F7F Accuracy: -m0
Conclusion: CDDA 100%
Signature: 4C0D57356B9EE0FEBCB584E3205A4ABD9841F5B2
FILE: 04. Programmable Matter.flac
Size: 14740017 Hash: E84FEE0D45C797A248F3ADB9F5AC391E Accuracy: -m0
Conclusion: MPEG 90%
Signature: E3A43B8FCBDE8D8CD099ABA89BB0C4F7347D781E
FILE: 03. Edge State.flac
Size: 24332179 Hash: 347FB5D795398B4B5DE1C8E2E2D431EE Accuracy: -m0
Conclusion: CDDA 100%
Signature: 58BF38793E7BB538712A834A59277ABA91415DEB
FILE: 02. Wires And Dots.flac
Size: 14697208 Hash: CB06A63F5BC13BB9B993CAB55F712EAF Accuracy: -m0
Conclusion: CDDA 100%
Signature: 7FDB98F822F9EB1E75524610159480C6685BC132
FILE: 01. Superlattice.flac
Size: 44361973 Hash: D7653210732B99FD26B9DFD8B11C1813 Accuracy: -m0
Conclusion: CDDA 100%
Signature: 4E1AEEB31FD649B516D169DD5DED7E0012DBA3EB

Год выпуска: 2014
Продолжительность: 00:38:54
Треклист:

01. Limen I (08:22)
02. Limen II (04:37)
03. Limen III (05:20)
04. Limen IV (05:32)
05. Limen V (04:56)
06. Limen VI (03:59)
07. Limen VII (06:08)

-----------------------

DON'T MODIFY THIS FILE

-----------------------

PERFORMER: auCDtect Task Manager, ver. 1.6.0 RC1 build 1.6.0.1
Copyright (c) 2008-2010 y-soft. All rights reserved
http://y-soft.org

ANALYZER: auCDtect: CD records authenticity detector, version 0.8.2
Copyright (c) 2004 Oleg Berngardt. All rights reserved.
Copyright (c) 2004 Alexander Djourik. All rights reserved.

FILE: 07. Limen VII.flac
Size: 19904095 Hash: CE2BC6D7CF1A5934AF6587AE59410173 Accuracy: -m0
Conclusion: MPEG 100%
Signature: BC1AEBA4F69550EDEC20A848B04E204BAE69A33D
FILE: 06. Limen VI.flac
Size: 21835616 Hash: 51A9B480731F22284553ED97039CAD24 Accuracy: -m0
Conclusion: CDDA 100%
Signature: 4B5AC5075A1AB5907A8F18D7D8A69EA49376980F
FILE: 05. Limen V.flac
Size: 30852802 Hash: 51DDB8C34780AAD58A747F77FCD90315 Accuracy: -m0
Conclusion: CDDA 92%
Signature: 0EFAEA16AA80F5E47140143CDDDA7CB6B92FF2F2
FILE: 04. Limen IV.flac
Size: 31446729 Hash: AC6C03EF7152F93B79803B2B67154131 Accuracy: -m0
Conclusion: CDDA 100%
Signature: 3BDFA1C02CFCA9AAAA50C3D6D23B2F57146341F5
FILE: 03. Limen III.flac
Size: 25218939 Hash: C089C3F48B1A9C6FACEE28973676C9FA Accuracy: -m0
Conclusion: CDDA 100%
Signature: F8A5D4BA14070A53060EE88FB0B18E8AA8AE9D26
FILE: 02. Limen II.flac
Size: 31377966 Hash: 0C8D1F06F110F7323F57D14727E4B633 Accuracy: -m0
Conclusion: CDDA 100%
Signature: A362CF735C7B4301B9A8DE0350E6628E4107E38E
FILE: 01. Limen I.flac
Size: 31750619 Hash: E0C959159DA710302CA60C87D87B3F16 Accuracy: -m0
Conclusion: CDDA 99%
Signature: BE4DAC68A246A24AA899C61BEF2EEA0C458438FC

Год выпуска: 2014
Продолжительность: 00:38:59
Треклист:

01. Thro (03:09)
02. Biets (08:28)
03. Nute (02:52)
04. Stass (04:21)
05. Thub (02:54)
06. Glasz (05:31)
07. Drune (04:48)
08. Clocs (06:56)

-----------------------

DON'T MODIFY THIS FILE

-----------------------

PERFORMER: auCDtect Task Manager, ver. 1.6.0 RC1 build 1.6.0.1
Copyright (c) 2008-2010 y-soft. All rights reserved
http://y-soft.org

ANALYZER: auCDtect: CD records authenticity detector, version 0.8.2
Copyright (c) 2004 Oleg Berngardt. All rights reserved.
Copyright (c) 2004 Alexander Djourik. All rights reserved.

FILE: 08. Clocs.flac
Size: 25567346 Hash: 7F40C5D6B223BCFFED48448D9528ADB0 Accuracy: -m0
Conclusion: CDDA 100%
Signature: 4A3142F9EC43348C10955172B2DD4A19416F2201
FILE: 07. Drune.flac
Size: 25795253 Hash: ABEEF98B3CB515B1CB557820E14598AB Accuracy: -m0
Conclusion: CDDA 100%
Signature: 21A11D51CF12324372B4C1C272E46595B568D0A7
FILE: 06. Glasz.flac
Size: 29845456 Hash: 29B1562E1CB581BAE58263168A61A481 Accuracy: -m0
Conclusion: ???
Signature: 2C96B5408224E6A16EC25C28D8CC76B135DF9E2A
FILE: 05. Thub.flac
Size: 10450713 Hash: 0FCC45F8E4B626DD5DF81756571467F2 Accuracy: -m0
Conclusion: CDDA 100%
Signature: A1AE90361FBF192668D6B1F40AFB05462E847E9A
FILE: 04. Stass.flac
Size: 17188930 Hash: 2D1D62DB364C80BB84821FF4E8DB5FA0 Accuracy: -m0
Conclusion: CDDA 43%
Signature: 67B48A0C65CBB453208D97E36806890CA36C8C91
FILE: 03. Nute.flac
Size: 12681537 Hash: CA452FB067C28855E1E51CBB00563E0E Accuracy: -m0
Conclusion: CDDA 86%
Signature: 3EFF4B225A260BD14C92E775B457CAE46500FE70
FILE: 02. Biets.flac
Size: 42288099 Hash: 87FD62D8E18258B014234E998D75B97E Accuracy: -m0
Conclusion: CDDA 100%
Signature: 5393B2E83C901371EECC89769F3E87F80EC78A1D
FILE: 01. Thro.flac
Size: 16903134 Hash: F8DF2B2375E1A6A9A1A24233751DB2A9 Accuracy: -m0
Conclusion: CDDA 99%
Signature: 37AB61166B7432C21EC84697B34EAB5A816F9888

Год выпуска: 2015
Продолжительность: 00:34:52
Треклист:

01. Moor Music (04:32)
02. Ten Million Years (04:53)
03. Stones In Time (07:21)
04. Academy Of Light (06:21)
05. An Ancient Aerodrome (07:55)
06. Open Circle (03:50)

-----------------------

DON'T MODIFY THIS FILE

-----------------------

PERFORMER: auCDtect Task Manager, ver. 1.6.0 RC1 build 1.6.0.1
Copyright (c) 2008-2010 y-soft. All rights reserved
http://y-soft.org

ANALYZER: auCDtect: CD records authenticity detector, version 0.8.2
Copyright (c) 2004 Oleg Berngardt. All rights reserved.
Copyright (c) 2004 Alexander Djourik. All rights reserved.

FILE: 06. Open Circle.flac
Size: 13913577 Hash: E108B8CBCFA42E0D5812BDB447454CE2 Accuracy: -m0
Conclusion: CDDA 100%
Signature: C05975043EB1C6EF03C3AC370A6E5B0FD74A729D
FILE: 05. An Ancient Aerodrome.flac
Size: 23963908 Hash: B1C23196CA6AB1FBE4EF0E9C0E607C6C Accuracy: -m0
Conclusion: CDDA 49%
Signature: 1936C3BF4C4340FE08B804E5950A22DB8EE48D91
FILE: 04. Academy Of Light.flac
Size: 24760784 Hash: FA330E69D415FD80B9901212CBEF5C4F Accuracy: -m0
Conclusion: CDDA 42%
Signature: D42B799D04F81BA728105BBEA2BE88848D8895D1
FILE: 03. Stones In Time.flac
Size: 32439053 Hash: D89AABE4CA8BB002F7F0A0F0045DDFB7 Accuracy: -m0
Conclusion: CDDA 100%
Signature: B6F2389D94045106D20852C3EA0E16F0ED6A030B
FILE: 02. Ten Million Years.flac
Size: 22870901 Hash: 65A5D2A83362BB460C269C2EAE64CB19 Accuracy: -m0
Conclusion: CDDA 100%
Signature: A82CCADB3009B7B40EFF5FDFD97A52969F83201E
FILE: 01. Moor Music.flac
Size: 19223050 Hash: A096ED5AE5D16F0047B1C51E7F1486D8 Accuracy: -m0
Conclusion: CDDA 99%
Signature: 2B1707E6D462C30988A44EFD080011CBEEEFF39A

Год выпуска: 2016
Продолжительность: 00:34:52
Треклист:

01. Bifrustum (10:56)
02. Nonagon (08:37)
03. Anitiprism (15:19)

-----------------------

DON'T MODIFY THIS FILE

-----------------------

PERFORMER: auCDtect Task Manager, ver. 1.6.0 RC1 build 1.6.0.1
Copyright (c) 2008-2010 y-soft. All rights reserved
http://y-soft.org

ANALYZER: auCDtect: CD records authenticity detector, version 0.8.2
Copyright (c) 2004 Oleg Berngardt. All rights reserved.
Copyright (c) 2004 Alexander Djourik. All rights reserved.

FILE: 03. Anitiprism.flac
Size: 78211813 Hash: 42606F2B65F9885CBBC8BEC1D6876EC0 Accuracy: -m0
Conclusion: CDDA 100%
Signature: 0B9451D002DB7261809D0109F96933FF218E272A
FILE: 02. Nonagon.flac
Size: 36986863 Hash: F4A069BB6052EBADB3BF7EF557710A53 Accuracy: -m0
Conclusion: CDDA 100%
Signature: F9B4DFDCDF30A83E2988A6EB96CAA6992CC62043
FILE: 01. Bifrustum.flac
Size: 53117728 Hash: 2D95FC06B2CFF70C85609DF621481CCA Accuracy: -m0
Conclusion: CDDA 100%
Signature: C79D140A7086D93CE477F99D8EBD0B0CC3B7BAD2

Время раздачи: 12/7
[NNMClub.to]_Benge FLAC.torrent
 Торрент: Золотая раздача  Зарегистрирован
 
Примагнититься
Free Leech
Зарегистрируйтесь и скачайте торрент!
35,6 KB
 Зарегистрирован:   26 Янв 2017 18:08:28
 Размер:   3,37 GB  (
 Рейтинг:    (Голосов: 7)
 Поблагодарили:   26
 Проверка:   Оформление проверено модератором 26 Янв 2017 18:11:44
Как cкачать  ·  Как раздать  ·  Правильно оформить  ·  Поднять ратио!  
Показать сообщения:   
Начать новую тему   Ответить на тему    Торрент-трекер NNM-Club -> Electronic -> IDM (Lossless) Часовой пояс: GMT + 3
Страница 1 из 1