Интеллигентный торрент-трекер
canvas not supported
Нас вместе: 4 265 772

Jean-Michel Jarre - Oxygene Trilogy - The 40th Anniversary Edition (2016) [WavPack 2.0|32/192|image + .cue|Vinyl-Rip] <Electronic, Ambient>


 
 
RSS
Начать новую тему   Ответить на тему    Торрент-трекер NNM-Club -> HD Audio и Многоканальная Музыка -> Vinyl-Rip и Hand-Made
Автор Сообщение
Lazyra ®
Модератор Electronic
RG Музыки
 
Стаж: 6 лет
Сообщений: 4549
Ratio: 1617,643
Раздал: 53,95 TB
Поблагодарили: 93994
100%
Откуда: Владимир
russia.gif
Jean-Michel Jarre - Oxygene Trilogy - The 40th Anniversary Edition (2016)



Год: 2016
Жанр: Electronic, Ambient
Продолжительность: 02:01:08
Лейбл: Sony Music
Каталог №: 88985361872
Тип рипа: image+.cue
Формат записи: 32/192
Формат раздачи: 32/192
Кодек: WavPack 2.0
Треклист:
Jean Michel Jarre - Oxygene 1-6
01. Oxygene (Part I) 7:40
02. Oxygene (Part II) 8:12
03. Oxygene (Part III) 2:58
04. Oxygene (Part IV) 4:00
05. Oxygene (Part V) 11:06
06. Oxygene (Part VI) 5:54
Jean Michel Jarre - Oxygene 7-13
07. Oxygene (Part VII) 11:42
08. Oxygene (Part VIII) 3:54
09. Oxygene (Part IX) 6:14
10. Oxygene (Part X) 4:16
11. Oxygene (Part XI) 4:58
12. Oxygene (Part XII) 5:36
13. Oxygene (Part XIII) 4:32
Jean Michel Jarre - Oxygene 14-20
14. Oxygene (Part XIV) 5:31
15. Oxygene (Part XV) 6:41
16. Oxygene (Part XVI) 6:58
17. Oxygene (Part XVII) 4:22
18. Oxygene (Part XVIII) 2:48
19. Oxygene (Part XIX) 5:45
20. Oxygene (Part XX) 8:01
Оцифровано: BazarTeaM
Состояние винила: Mint
Устройство воспроизведения: Полностью модифицированный Technics SL1200MK5
Система питания: PS Audio Регенератор сетевого напряжения + Сетевые кабеля PS Audio PerfectWave
Головка звукоснимателя: Lyra Skala
Предварительный усилитель: Whest 40RDT SE
АЦП: Lynx Hilo
Межблочные кабеля: Cardas/ Cardas Clear
Программа-оцифровщик: Izotope
Код: выделить все
Общее
Полное имя                               : D:\Jean Michel Jarre - Oxygene Trilogy The 40th Anniversary Edition\avator.jpg
Формат                                   : JPEG
Размер файла                             : 98,8 Кбайт

Изображения
Формат                                   : JPEG
Ширина                                   : 599 пикселей
Высота                                   : 607 пикселей
Цветовое пространство                    : YUV
Субдискретизация насыщенности            : 4:4:4
Битовая глубина                          : 8 бит
Метод сжатия                             : С потерями
Размер потока                            : 98,8 Кбайт (100%)

Общее
Полное имя                               : D:\Jean Michel Jarre - Oxygene Trilogy The 40th Anniversary Edition\Jean Michel Jarre - Oxygene 1-6 [40th Anniversary Edition].cue
Размер файла                             : 890 байт

Общее
Полное имя                               : D:\Jean Michel Jarre - Oxygene Trilogy The 40th Anniversary Edition\Jean Michel Jarre - Oxygene 1-6 [40th Anniversary Edition].wv
Формат                                   : WavPack
Размер файла                             : 2,18 Гбайт
Продолжительность                        : 39 м.
Режим общего битрейта                    : Переменный
Общий поток                              : 7839 Кбит/сек

Аудио
Формат                                   : WavPack
Профиль формата                          : 4.07
Продолжительность                        : 39 м.
Вид битрейта                             : Переменный
Битрейт                                  : 7839 Кбит/сек
Каналы                                   : 2 канала
Частота                                  : 192 КГц
Битовая глубина                          : 32 бит
Степень сжатия                           : 1.568
Размер потока                            : 2,18 Гбайт (100%)
Настройки программы                      : -f -m

Общее
Полное имя                               : D:\Jean Michel Jarre - Oxygene Trilogy The 40th Anniversary Edition\Jean Michel Jarre - Oxygene 14-20 [40th Anniversary Edition].cue
Размер файла                             : 1004 байт

Общее
Полное имя                               : D:\Jean Michel Jarre - Oxygene Trilogy The 40th Anniversary Edition\Jean Michel Jarre - Oxygene 14-20 [40th Anniversary Edition].wv
Формат                                   : WavPack
Размер файла                             : 2,10 Гбайт
Продолжительность                        : 40 м.
Режим общего битрейта                    : Переменный
Общий поток                              : 7491 Кбит/сек

Аудио
Формат                                   : WavPack
Профиль формата                          : 4.07
Продолжительность                        : 40 м.
Вид битрейта                             : Переменный
Битрейт                                  : 7491 Кбит/сек
Каналы                                   : 2 канала
Частота                                  : 192 КГц
Битовая глубина                          : 32 бит
Степень сжатия                           : 1.640
Размер потока                            : 2,10 Гбайт (100%)
Настройки программы                      : -f -m

Общее
Полное имя                               : D:\Jean Michel Jarre - Oxygene Trilogy The 40th Anniversary Edition\Jean Michel Jarre - Oxygene 7-13 [40th Anniversary Edition].cue
Размер файла                             : 999 байт

Общее
Полное имя                               : D:\Jean Michel Jarre - Oxygene Trilogy The 40th Anniversary Edition\Jean Michel Jarre - Oxygene 7-13 [40th Anniversary Edition].wv
Формат                                   : WavPack
Размер файла                             : 2,22 Гбайт
Продолжительность                        : 41 м.
Режим общего битрейта                    : Переменный
Общий поток                              : 7720 Кбит/сек

Аудио
Формат                                   : WavPack
Профиль формата                          : 4.07
Продолжительность                        : 41 м.
Вид битрейта                             : Переменный
Битрейт                                  : 7720 Кбит/сек
Каналы                                   : 2 канала
Частота                                  : 192 КГц
Битовая глубина                          : 32 бит
Степень сжатия                           : 1.592
Размер потока                            : 2,22 Гбайт (100%)
Настройки программы                      : -f -m


Время раздачи: 24/7
[NNMClub.to]_Jean Michel Jarre - Oxygene Trilogy The 40th Anniversary Edition.torrent
 Торрент:   Зарегистрирован
 
Примагнититься
Free Leech
Зарегистрируйтесь и скачайте торрент!
33,3 KB
 Зарегистрирован:   29 Янв 2017 10:15:01
 Размер:   6,5 GB  (
 Рейтинг:   4,9 (Голосов: 35)
 Поблагодарили:   116
 Проверка:   Оформление проверено модератором 29 Янв 2017 11:49:18
Как cкачать  ·  Как раздать  ·  Правильно оформить  ·  Поднять ратио!  
Показать сообщения:   
Начать новую тему   Ответить на тему    Торрент-трекер NNM-Club -> HD Audio и Многоканальная Музыка -> Vinyl-Rip и Hand-Made Часовой пояс: GMT + 3
Страница 1 из 1