Интеллигентный торрент-трекер
canvas not supported
Нас вместе: 4 330 222

DJ Tiёsto - In My Memory (Limited Vinyl Edition) (2001) [FLAC 2.0|24/96|tracks|Vinyl-Rip] <Trance>


 
 
RSS
Начать новую тему   Ответить на тему    Торрент-трекер NNM-Club -> HD Audio и Многоканальная Музыка -> Vinyl-Rip и Hand-Made
Автор Сообщение
Lazyra ®
Модератор Electronic
RG Music
 
Стаж: 6 лет 4 мес.
Сообщений: 4724
Ratio: 1780,806
Раздал: 60,7 TB
Поблагодарили: 99923
100%
Откуда: Владимир
russia.gif
DJ Tiёsto - In My Memory (Limited Vinyl Edition) (2001)



Год: 2001
Жанр: Trance
Продолжительность: 01:09:33
Лейбл: Magik Muzik
Каталог №: Magik Muzik 800-4
Тип рипа: tracks
Формат записи: 24 bit / 96 kHz
Формат раздачи: 24 bit / 96 kHz
Кодек: FLAC 2.0


Треклист:
A1. DJ Tiesto - Magik Journey (Album) 11:07
B1. DJ Tiesto - Magik Journey (Alternative) 10:01
C1. DJ Tiesto - Dallas 4 PM 6:46
D1. DJ Tiesto feat. Nicola Hitchcock - In My Memory 6:08
E1. DJ Tiesto - Obsession 9:08
F1. DJ Tiesto - Flight 643 9:04
G1. DJ Tiesto - Lethal Industry 6:48
H1. DJ Tiesto - Suburban Train 10:35
Источник оцифровки: what
Состояние винила: Near Mint
Устройство воспроизведения: Vestax PDT-5000
Головка звукоснимателя: Stanton Trackmaster
Предварительный усилитель: Alesis RA100 Reference Amp
АЦП: Forte Focusrite
Программа-оцифровщик: Audacity
Обработка: Normalizing and Declick (Izotope Advanced RX).
Код: выделить все
Общее
Полное имя                               : D:\Tiesto - 4 Albums (Limited Vinyl Edition)\[Magik Muzik 800-4] In My Memory (2001)\A1. DJ Tiesto - Magik Journey (Album).flac
Формат                                   : FLAC
Формат/Информация                        : Free Lossless Audio Codec
Размер файла                             : 211 Мбайт
Продолжительность                        : 11 м.
Режим общего битрейта                    : Переменный
Общий поток                              : 2649 Кбит/сек
Альбом                                   : In My Memory (Limited Vinyl Edition)
Трек                                     : Magik Journey (Album)
Трек/Положение                           : A1
Исполнитель                              : DJ Tiesto
Жанр                                     : Trance
Дата записи                              : 2001

Аудио
Формат                                   : FLAC
Формат/Информация                        : Free Lossless Audio Codec
Продолжительность                        : 11 м.
Вид битрейта                             : Переменный
Битрейт                                  : 2649 Кбит/сек
Каналы                                   : 2 канала
Частота                                  : 96,0 КГц
Битовая глубина                          : 24 бит
Размер потока                            : 211 Мбайт (100%)
Библиотека кодирования                   : libFLAC 1.3.1 (UTC 2014-11-25)

Общее
Полное имя                               : D:\Tiesto - 4 Albums (Limited Vinyl Edition)\[Magik Muzik 800-4] In My Memory (2001)\B1. DJ Tiesto - Magik Journey (Alternative).flac
Формат                                   : FLAC
Формат/Информация                        : Free Lossless Audio Codec
Размер файла                             : 189 Мбайт
Продолжительность                        : 10 м.
Режим общего битрейта                    : Переменный
Общий поток                              : 2642 Кбит/сек
Альбом                                   : In My Memory (Limited Vinyl Edition)
Трек                                     : Magik Journey (Alternative)
Трек/Положение                           : B1
Исполнитель                              : DJ Tiesto
Жанр                                     : Trance
Дата записи                              : 2001

Аудио
Формат                                   : FLAC
Формат/Информация                        : Free Lossless Audio Codec
Продолжительность                        : 10 м.
Вид битрейта                             : Переменный
Битрейт                                  : 2642 Кбит/сек
Каналы                                   : 2 канала
Частота                                  : 96,0 КГц
Битовая глубина                          : 24 бит
Размер потока                            : 189 Мбайт (100%)
Библиотека кодирования                   : libFLAC 1.3.1 (UTC 2014-11-25)

Общее
Полное имя                               : D:\Tiesto - 4 Albums (Limited Vinyl Edition)\[Magik Muzik 800-4] In My Memory (2001)\C1. DJ Tiesto - Dallas 4 PM.flac
Формат                                   : FLAC
Формат/Информация                        : Free Lossless Audio Codec
Размер файла                             : 131 Мбайт
Продолжительность                        : 6 м. 46 с.
Режим общего битрейта                    : Переменный
Общий поток                              : 2712 Кбит/сек
Альбом                                   : In My Memory (Limited Vinyl Edition)
Трек                                     : Dallas 4 PM
Трек/Положение                           : C1
Исполнитель                              : DJ Tiesto
Жанр                                     : Trance
Дата записи                              : 2001

Аудио
Формат                                   : FLAC
Формат/Информация                        : Free Lossless Audio Codec
Продолжительность                        : 6 м. 46 с.
Вид битрейта                             : Переменный
Битрейт                                  : 2712 Кбит/сек
Каналы                                   : 2 канала
Частота                                  : 96,0 КГц
Битовая глубина                          : 24 бит
Размер потока                            : 131 Мбайт (100%)
Библиотека кодирования                   : libFLAC 1.3.1 (UTC 2014-11-25)

Общее
Полное имя                               : D:\Tiesto - 4 Albums (Limited Vinyl Edition)\[Magik Muzik 800-4] In My Memory (2001)\D1. DJ Tiesto feat. Nicola Hitchcock - In My Memory.flac
Формат                                   : FLAC
Формат/Информация                        : Free Lossless Audio Codec
Размер файла                             : 124 Мбайт
Продолжительность                        : 6 м. 8 с.
Режим общего битрейта                    : Переменный
Общий поток                              : 2834 Кбит/сек
Альбом                                   : In My Memory (Limited Vinyl Edition)
Трек                                     : In My Memory
Трек/Положение                           : D1
Исполнитель                              : DJ Tiesto feat. Nicola Hitchcock
Жанр                                     : Trance
Дата записи                              : 2001

Аудио
Формат                                   : FLAC
Формат/Информация                        : Free Lossless Audio Codec
Продолжительность                        : 6 м. 8 с.
Вид битрейта                             : Переменный
Битрейт                                  : 2834 Кбит/сек
Каналы                                   : 2 канала
Частота                                  : 96,0 КГц
Битовая глубина                          : 24 бит
Размер потока                            : 124 Мбайт (100%)
Библиотека кодирования                   : libFLAC 1.3.1 (UTC 2014-11-25)

Общее
Полное имя                               : D:\Tiesto - 4 Albums (Limited Vinyl Edition)\[Magik Muzik 800-4] In My Memory (2001)\E1. DJ Tiesto - Obsession.flac
Формат                                   : FLAC
Формат/Информация                        : Free Lossless Audio Codec
Размер файла                             : 183 Мбайт
Продолжительность                        : 9 м. 7 с.
Режим общего битрейта                    : Переменный
Общий поток                              : 2799 Кбит/сек
Альбом                                   : In My Memory (Limited Vinyl Edition)
Трек                                     : Obsession
Трек/Положение                           : E1
Исполнитель                              : DJ Tiesto
Жанр                                     : Trance
Дата записи                              : 2001

Аудио
Формат                                   : FLAC
Формат/Информация                        : Free Lossless Audio Codec
Продолжительность                        : 9 м. 7 с.
Вид битрейта                             : Переменный
Битрейт                                  : 2799 Кбит/сек
Каналы                                   : 2 канала
Частота                                  : 96,0 КГц
Битовая глубина                          : 24 бит
Размер потока                            : 183 Мбайт (100%)
Библиотека кодирования                   : libFLAC 1.3.1 (UTC 2014-11-25)

Общее
Полное имя                               : D:\Tiesto - 4 Albums (Limited Vinyl Edition)\[Magik Muzik 800-4] In My Memory (2001)\F1. DJ Tiesto - Flight 643.flac
Формат                                   : FLAC
Формат/Информация                        : Free Lossless Audio Codec
Размер файла                             : 188 Мбайт
Продолжительность                        : 9 м. 3 с.
Режим общего битрейта                    : Переменный
Общий поток                              : 2908 Кбит/сек
Альбом                                   : In My Memory (Limited Vinyl Edition)
Трек                                     : Flight 643
Трек/Положение                           : F1
Исполнитель                              : DJ Tiesto
Жанр                                     : Trance
Дата записи                              : 2001

Аудио
Формат                                   : FLAC
Формат/Информация                        : Free Lossless Audio Codec
Продолжительность                        : 9 м. 3 с.
Вид битрейта                             : Переменный
Битрейт                                  : 2908 Кбит/сек
Каналы                                   : 2 канала
Частота                                  : 96,0 КГц
Битовая глубина                          : 24 бит
Размер потока                            : 188 Мбайт (100%)
Библиотека кодирования                   : libFLAC 1.3.1 (UTC 2014-11-25)

Общее
Полное имя                               : D:\Tiesto - 4 Albums (Limited Vinyl Edition)\[Magik Muzik 800-4] In My Memory (2001)\G1. DJ Tiesto - Lethal Industry.flac
Формат                                   : FLAC
Формат/Информация                        : Free Lossless Audio Codec
Размер файла                             : 140 Мбайт
Продолжительность                        : 6 м. 47 с.
Режим общего битрейта                    : Переменный
Общий поток                              : 2886 Кбит/сек
Альбом                                   : In My Memory (Limited Vinyl Edition)
Трек                                     : Lethal Industry
Трек/Положение                           : G1
Исполнитель                              : DJ Tiesto
Жанр                                     : Trance
Дата записи                              : 2001

Аудио
Формат                                   : FLAC
Формат/Информация                        : Free Lossless Audio Codec
Продолжительность                        : 6 м. 47 с.
Вид битрейта                             : Переменный
Битрейт                                  : 2886 Кбит/сек
Каналы                                   : 2 канала
Частота                                  : 96,0 КГц
Битовая глубина                          : 24 бит
Размер потока                            : 140 Мбайт (100%)
Библиотека кодирования                   : libFLAC 1.3.1 (UTC 2014-11-25)

Общее
Полное имя                               : D:\Tiesto - 4 Albums (Limited Vinyl Edition)\[Magik Muzik 800-4] In My Memory (2001)\H1. DJ Tiesto - Suburban Train.flac
Формат                                   : FLAC
Формат/Информация                        : Free Lossless Audio Codec
Размер файла                             : 216 Мбайт
Продолжительность                        : 10 м.
Режим общего битрейта                    : Переменный
Общий поток                              : 2851 Кбит/сек
Альбом                                   : In My Memory (Limited Vinyl Edition)
Трек                                     : Suburban Train
Трек/Положение                           : H1
Исполнитель                              : DJ Tiesto
Жанр                                     : Trance
Дата записи                              : 2001

Аудио
Формат                                   : FLAC
Формат/Информация                        : Free Lossless Audio Codec
Продолжительность                        : 10 м.
Вид битрейта                             : Переменный
Битрейт                                  : 2851 Кбит/сек
Каналы                                   : 2 канала
Частота                                  : 96,0 КГц
Битовая глубина                          : 24 бит
Размер потока                            : 216 Мбайт (100%)
Библиотека кодирования                   : libFLAC 1.3.1 (UTC 2014-11-25)


Время раздачи: 24/7
[NNMClub.to]_[Magik Muzik 800-4] In My Memory (2001).torrent
 Торрент: Платиновая раздача  Зарегистрирован
 
Примагнититься

Скачать
 Зарегистрирован:   29 Янв 2017 13:56:19
 Размер:   1,35 GB  (
 Рейтинг:   5 (Голосов: 11)
 Поблагодарили:   58
 Проверка:   Оформление проверено модератором 30 Янв 2017 07:24:16
Как cкачать  ·  Как раздать  ·  Правильно оформить  ·  Поднять ратио!  
cerik333
Стаж: 5 лет 3 мес.
Сообщений: 4
Ratio: 6,302
0.3%
Это просто праздник какой-то!
scout313
Стаж: 7 лет 5 мес.
Сообщений: 4
Ratio: 2,432
5.42%
ukraine.gif
добавте скорость please
Показать сообщения:   
Начать новую тему   Ответить на тему    Торрент-трекер NNM-Club -> HD Audio и Многоканальная Музыка -> Vinyl-Rip и Hand-Made Часовой пояс: GMT + 3
Страница 1 из 1