Интеллигентный торрент-трекер
canvas not supported
Нас вместе: 4 345 447

Tiёsto - Parade Of The Athletes (Limited Vinyl Edition) (2004) [FLAC 2.0|24/96|tracks|Vinyl-Rip] <Trance>


 
 
RSS
Начать новую тему   Ответить на тему    Торрент-трекер NNM-Club -> HD Audio и Многоканальная Музыка -> Vinyl-Rip и Hand-Made
Автор Сообщение
Lazyra ®
Модератор Electronic
RG Music
 
Стаж: 6 лет 3 мес.
Сообщений: 4699
Ratio: 1754,336
Раздал: 59,81 TB
Поблагодарили: 99404
100%
Откуда: Владимир
russia.gif
Tiёsto - Parade Of The Athletes (Limited Vinyl Edition) (2004)



Год: 2004
Жанр: Trance
Продолжительность: 01:06:15
Лейбл: Magik Muzik
Каталог №: Magik Muzik LP 04
Тип рипа: tracks
Формат записи: 24 bit / 96 kHz
Формат раздачи: 24 bit / 96 kHz
Кодек: FLAC 2.0


Треклист:
A1. Tiesto - Heroes (9:24)
B1. Tiesto - Breda 8pm (DJ Montana Edit) (8:44)
C1. Tiesto - Ancient History (8:39)
D1. Tiesto - Euphoria (7:34)
E1. Tiesto - Athena (8:00)
F1. Tiesto - Olympic Flame (7:24)
G1. Tiesto - Coming Home (9:37)
H1. Tiesto - Victorious (6:55)
Источник оцифровки: Zoli329
Состояние винила: Near Mint
Устройство воспроизведения: Pro-Ject Debut Carbon
Головка звукоснимателя: Ortofon 2M Red
Предварительный усилитель: Handmade
АЦП: Asus Xonar U7
Программа-оцифровщик: Adobe Audition 5 (ASIO mode)
Обработка: Clicks & pops removed individually
Код: выделить все
Общее
Полное имя                               : D:\Tiesto - 4 Albums (Limited Vinyl Edition)\[Magik Muzik LP 04] Parade Of The Athletes (2004)\A1. Tiesto - Heroes.flac
Формат                                   : FLAC
Формат/Информация                        : Free Lossless Audio Codec
Размер файла                             : 198 Мбайт
Продолжительность                        : 9 м. 24 с.
Режим общего битрейта                    : Переменный
Общий поток                              : 2948 Кбит/сек
Альбом                                   : Parade Of The Athletes (Limited Vinyl Edition)
Трек                                     : Heroes
Трек/Положение                           : A1
Исполнитель                              : Tiesto
Жанр                                     : Trance
Дата записи                              : 2004

Аудио
Формат                                   : FLAC
Формат/Информация                        : Free Lossless Audio Codec
Продолжительность                        : 9 м. 24 с.
Вид битрейта                             : Переменный
Битрейт                                  : 2947 Кбит/сек
Каналы                                   : 2 канала
Частота                                  : 96,0 КГц
Битовая глубина                          : 24 бит
Размер потока                            : 198 Мбайт (100%)
Библиотека кодирования                   : libFLAC 1.2.1 (UTC 2007-09-17)

Общее
Полное имя                               : D:\Tiesto - 4 Albums (Limited Vinyl Edition)\[Magik Muzik LP 04] Parade Of The Athletes (2004)\B1. Tiesto - Breda 8pm (DJ Montana Edit).flac
Формат                                   : FLAC
Формат/Информация                        : Free Lossless Audio Codec
Размер файла                             : 184 Мбайт
Продолжительность                        : 8 м. 44 с.
Режим общего битрейта                    : Переменный
Общий поток                              : 2946 Кбит/сек
Альбом                                   : Parade Of The Athletes (Limited Vinyl Edition)
Трек                                     : Breda 8pm (DJ Montana Edit)
Трек/Положение                           : B1
Исполнитель                              : Tiesto
Жанр                                     : Trance
Дата записи                              : 2004

Аудио
Формат                                   : FLAC
Формат/Информация                        : Free Lossless Audio Codec
Продолжительность                        : 8 м. 44 с.
Вид битрейта                             : Переменный
Битрейт                                  : 2944 Кбит/сек
Каналы                                   : 2 канала
Частота                                  : 96,0 КГц
Битовая глубина                          : 24 бит
Размер потока                            : 184 Мбайт (100%)
Библиотека кодирования                   : libFLAC 1.2.1 (UTC 2007-09-17)

Общее
Полное имя                               : D:\Tiesto - 4 Albums (Limited Vinyl Edition)\[Magik Muzik LP 04] Parade Of The Athletes (2004)\C1. Tiesto - Ancient History.flac
Формат                                   : FLAC
Формат/Информация                        : Free Lossless Audio Codec
Размер файла                             : 179 Мбайт
Продолжительность                        : 8 м. 38 с.
Режим общего битрейта                    : Переменный
Общий поток                              : 2890 Кбит/сек
Альбом                                   : Parade Of The Athletes (Limited Vinyl Edition)
Трек                                     : Ancient History
Трек/Положение                           : C1
Исполнитель                              : Tiesto
Жанр                                     : Trance
Дата записи                              : 2004

Аудио
Формат                                   : FLAC
Формат/Информация                        : Free Lossless Audio Codec
Продолжительность                        : 8 м. 38 с.
Вид битрейта                             : Переменный
Битрейт                                  : 2888 Кбит/сек
Каналы                                   : 2 канала
Частота                                  : 96,0 КГц
Битовая глубина                          : 24 бит
Размер потока                            : 179 Мбайт (100%)
Библиотека кодирования                   : libFLAC 1.2.1 (UTC 2007-09-17)

Общее
Полное имя                               : D:\Tiesto - 4 Albums (Limited Vinyl Edition)\[Magik Muzik LP 04] Parade Of The Athletes (2004)\D1. Tiesto - Euphoria.flac
Формат                                   : FLAC
Формат/Информация                        : Free Lossless Audio Codec
Размер файла                             : 161 Мбайт
Продолжительность                        : 7 м. 33 с.
Режим общего битрейта                    : Переменный
Общий поток                              : 2983 Кбит/сек
Альбом                                   : Parade Of The Athletes (Limited Vinyl Edition)
Трек                                     : Euphoria
Трек/Положение                           : D1
Исполнитель                              : Tiesto
Жанр                                     : Trance
Дата записи                              : 2004

Аудио
Формат                                   : FLAC
Формат/Информация                        : Free Lossless Audio Codec
Продолжительность                        : 7 м. 33 с.
Вид битрейта                             : Переменный
Битрейт                                  : 2981 Кбит/сек
Каналы                                   : 2 канала
Частота                                  : 96,0 КГц
Битовая глубина                          : 24 бит
Размер потока                            : 161 Мбайт (100%)
Библиотека кодирования                   : libFLAC 1.2.1 (UTC 2007-09-17)

Общее
Полное имя                               : D:\Tiesto - 4 Albums (Limited Vinyl Edition)\[Magik Muzik LP 04] Parade Of The Athletes (2004)\E1. Tiesto - Athena.flac
Формат                                   : FLAC
Формат/Информация                        : Free Lossless Audio Codec
Размер файла                             : 171 Мбайт
Продолжительность                        : 8 м. 0 с.
Режим общего битрейта                    : Переменный
Общий поток                              : 2987 Кбит/сек
Альбом                                   : Parade Of The Athletes (Limited Vinyl Edition)
Трек                                     : Athena
Трек/Положение                           : E1
Исполнитель                              : Tiesto
Жанр                                     : Trance
Дата записи                              : 2004

Аудио
Формат                                   : FLAC
Формат/Информация                        : Free Lossless Audio Codec
Продолжительность                        : 8 м. 0 с.
Вид битрейта                             : Переменный
Битрейт                                  : 2986 Кбит/сек
Каналы                                   : 2 канала
Частота                                  : 96,0 КГц
Битовая глубина                          : 24 бит
Размер потока                            : 171 Мбайт (100%)
Библиотека кодирования                   : libFLAC 1.2.1 (UTC 2007-09-17)

Общее
Полное имя                               : D:\Tiesto - 4 Albums (Limited Vinyl Edition)\[Magik Muzik LP 04] Parade Of The Athletes (2004)\F1. Tiesto - Olympic Flame.flac
Формат                                   : FLAC
Формат/Информация                        : Free Lossless Audio Codec
Размер файла                             : 157 Мбайт
Продолжительность                        : 7 м. 23 с.
Режим общего битрейта                    : Переменный
Общий поток                              : 2962 Кбит/сек
Альбом                                   : Parade Of The Athletes (Limited Vinyl Edition)
Трек                                     : Olympic Flame
Трек/Положение                           : F1
Исполнитель                              : Tiesto
Жанр                                     : Trance
Дата записи                              : 2004

Аудио
Формат                                   : FLAC
Формат/Информация                        : Free Lossless Audio Codec
Продолжительность                        : 7 м. 23 с.
Вид битрейта                             : Переменный
Битрейт                                  : 2960 Кбит/сек
Каналы                                   : 2 канала
Частота                                  : 96,0 КГц
Битовая глубина                          : 24 бит
Размер потока                            : 157 Мбайт (100%)
Библиотека кодирования                   : libFLAC 1.2.1 (UTC 2007-09-17)

Общее
Полное имя                               : D:\Tiesto - 4 Albums (Limited Vinyl Edition)\[Magik Muzik LP 04] Parade Of The Athletes (2004)\G1. Tiesto - Coming Home.flac
Формат                                   : FLAC
Формат/Информация                        : Free Lossless Audio Codec
Размер файла                             : 210 Мбайт
Продолжительность                        : 9 м. 37 с.
Режим общего битрейта                    : Переменный
Общий поток                              : 3046 Кбит/сек
Альбом                                   : Parade Of The Athletes (Limited Vinyl Edition)
Трек                                     : Coming Home
Трек/Положение                           : G1
Исполнитель                              : Tiesto
Жанр                                     : Trance
Дата записи                              : 2004

Аудио
Формат                                   : FLAC
Формат/Информация                        : Free Lossless Audio Codec
Продолжительность                        : 9 м. 37 с.
Вид битрейта                             : Переменный
Битрейт                                  : 3044 Кбит/сек
Каналы                                   : 2 канала
Частота                                  : 96,0 КГц
Битовая глубина                          : 24 бит
Размер потока                            : 209 Мбайт (100%)
Библиотека кодирования                   : libFLAC 1.2.1 (UTC 2007-09-17)

Общее
Полное имя                               : D:\Tiesto - 4 Albums (Limited Vinyl Edition)\[Magik Muzik LP 04] Parade Of The Athletes (2004)\H1. Tiesto - Victorious.flac
Формат                                   : FLAC
Формат/Информация                        : Free Lossless Audio Codec
Размер файла                             : 145 Мбайт
Продолжительность                        : 6 м. 55 с.
Режим общего битрейта                    : Переменный
Общий поток                              : 2933 Кбит/сек
Альбом                                   : Parade Of The Athletes (Limited Vinyl Edition)
Трек                                     : Victorious
Трек/Положение                           : H1
Исполнитель                              : Tiesto
Жанр                                     : Trance
Дата записи                              : 2004

Аудио
Формат                                   : FLAC
Формат/Информация                        : Free Lossless Audio Codec
Продолжительность                        : 6 м. 55 с.
Вид битрейта                             : Переменный
Битрейт                                  : 2931 Кбит/сек
Каналы                                   : 2 канала
Частота                                  : 96,0 КГц
Битовая глубина                          : 24 бит
Размер потока                            : 145 Мбайт (100%)
Библиотека кодирования                   : libFLAC 1.2.1 (UTC 2007-09-17)


Время раздачи: 24/7
[NNMClub.to]_[Magik Muzik LP 04] Parade Of The Athletes (2004).torrent
 Торрент: Платиновая раздача  Зарегистрирован
 
Примагнититься

Скачать
 Зарегистрирован:   30 Янв 2017 06:39:17
 Размер:   1,37 GB  (
 Рейтинг:   5 (Голосов: 10)
 Поблагодарили:   52
 Проверка:   Оформление проверено модератором 30 Янв 2017 07:25:38
Как cкачать  ·  Как раздать  ·  Правильно оформить  ·  Поднять ратио!  
Загрузка...
Показать сообщения:   
Начать новую тему   Ответить на тему    Торрент-трекер NNM-Club -> HD Audio и Многоканальная Музыка -> Vinyl-Rip и Hand-Made Часовой пояс: GMT + 3
Страница 1 из 1