Интеллигентный торрент-трекер
canvas not supported
Нас вместе: 4 249 919

VA - Tiёsto - Nyana (Limited Edition Sampler) (2003) [FLAC 2.0|24/96|tracks|Vinyl-Rip] <Trance>


 
 
RSS
Начать новую тему   Ответить на тему    Торрент-трекер NNM-Club -> HD Audio и Многоканальная Музыка -> Vinyl-Rip и Hand-Made
Автор Сообщение
Lazyra ®
Модератор Electronic
RG Музыки
 
Стаж: 5 лет 11 мес.
Сообщений: 4537
Ratio: 1600,024
Раздал: 53,37 TB
Поблагодарили: 93505
100%
Откуда: Владимир
russia.gif
VA - Tiёsto - Nyana (Limited Edition Sampler) (2003)



Год: 2003
Жанр: Trance
Продолжительность: 01:09:20
Лейбл: Black Hole Recordings
Каталог №: Black Hole LP 30
Тип рипа: tracks
Формат записи: 24 bit / 96 kHz
Формат раздачи: 24 bit / 96 kHz
Кодек: FLAC 2.0


Треклист:
A1. Reinhard Voigt - Supertiel (7:30)
A2. Conjure One feat. Sinead O'Connor - Tears From The Moon (Tiesto In Search Of Sunrise Remix) (8:10)
B1. Solar Factor - Urban Shakedown (6:54)
B2. GTR - Mistral (9:18)
C1. Catcher - Destiny Sunrise (9:30)
C2. Young Parisians - U Write The Rules (Solarstone Remix) (9:02)
D1. Solarstone vs. Sirocco - Destination (11:06)
D2. The Roc Project feat. Tina Arena - Never (DJ Tiesto Remix) (7:50)
Оцифровано: третьим лицом / what
Состояние винила: Very Good / Good
Пре-обработка: Двукратная очистка винила. (Cleaned and re-cleaned with Record Doctor vacuum cleaning machine.)
Устройство воспроизведения: Linn Sondek LP12
Головка звукоснимателя: Shure V-15 Type III MM
Предварительный усилитель: EAR 834P
АЦП: E-MU 0404 USB
Программа-оцифровщик: Cakewalk Sonar Platinum
Пост-обработка: Без обработки. (Sides left as-is. No cakewalk plugins used, no eq, no de-pop filter.)
Код: выделить все
Общее
Полное имя                               : D:\Tiesto - 2 Compilations (Limited Edition Sampler)\2003 - Nyana (Limited Edition Sampler) [Black Hole LP 30] Vinyl\A1. Reinhard Voigt - Supertiel.flac
Формат                                   : FLAC
Формат/Информация                        : Free Lossless Audio Codec
Размер файла                             : 159 Мбайт
Продолжительность                        : 7 м. 30 с.
Режим общего битрейта                    : Переменный
Общий поток                              : 2973 Кбит/сек
Альбом                                   : Nyana (Limited Edition Sampler)
Трек                                     : Supertiel
Трек/Положение                           : A1
Исполнитель                              : Reinhard Voigt
Жанр                                     : Trance
Дата записи                              : 2003

Аудио
Формат                                   : FLAC
Формат/Информация                        : Free Lossless Audio Codec
Продолжительность                        : 7 м. 30 с.
Вид битрейта                             : Переменный
Битрейт                                  : 2973 Кбит/сек
Каналы                                   : 2 канала
Частота                                  : 96,0 КГц
Битовая глубина                          : 24 бит
Размер потока                            : 159 Мбайт (100%)
Библиотека кодирования                   : libFLAC 1.3.1 (UTC 2014-11-25)

Общее
Полное имя                               : D:\Tiesto - 2 Compilations (Limited Edition Sampler)\2003 - Nyana (Limited Edition Sampler) [Black Hole LP 30] Vinyl\A2. Conjure One feat. Sinead O'Connor - Tears From The Moon (Tiesto In Search Of Sunrise Remix).flac
Формат                                   : FLAC
Формат/Информация                        : Free Lossless Audio Codec
Размер файла                             : 172 Мбайт
Продолжительность                        : 8 м. 10 с.
Режим общего битрейта                    : Переменный
Общий поток                              : 2949 Кбит/сек
Альбом                                   : Nyana (Limited Edition Sampler)
Трек                                     : Tears From The Moon (Tiesto In Search Of Sunrise Remix)
Трек/Положение                           : A2
Исполнитель                              : Conjure One feat. Sinead O'Connor
Жанр                                     : Trance
Дата записи                              : 2003

Аудио
Формат                                   : FLAC
Формат/Информация                        : Free Lossless Audio Codec
Продолжительность                        : 8 м. 10 с.
Вид битрейта                             : Переменный
Битрейт                                  : 2949 Кбит/сек
Каналы                                   : 2 канала
Частота                                  : 96,0 КГц
Битовая глубина                          : 24 бит
Размер потока                            : 172 Мбайт (100%)
Библиотека кодирования                   : libFLAC 1.3.1 (UTC 2014-11-25)

Общее
Полное имя                               : D:\Tiesto - 2 Compilations (Limited Edition Sampler)\2003 - Nyana (Limited Edition Sampler) [Black Hole LP 30] Vinyl\B1. Solar Factor - Urban Shakedown.flac
Формат                                   : FLAC
Формат/Информация                        : Free Lossless Audio Codec
Размер файла                             : 150 Мбайт
Продолжительность                        : 6 м. 54 с.
Режим общего битрейта                    : Переменный
Общий поток                              : 3034 Кбит/сек
Альбом                                   : Nyana (Limited Edition Sampler)
Трек                                     : Urban Shakedown
Трек/Положение                           : B1
Исполнитель                              : Solar Factor
Жанр                                     : Trance
Дата записи                              : 2003

Аудио
Формат                                   : FLAC
Формат/Информация                        : Free Lossless Audio Codec
Продолжительность                        : 6 м. 54 с.
Вид битрейта                             : Переменный
Битрейт                                  : 3034 Кбит/сек
Каналы                                   : 2 канала
Частота                                  : 96,0 КГц
Битовая глубина                          : 24 бит
Размер потока                            : 150 Мбайт (100%)
Библиотека кодирования                   : libFLAC 1.3.1 (UTC 2014-11-25)

Общее
Полное имя                               : D:\Tiesto - 2 Compilations (Limited Edition Sampler)\2003 - Nyana (Limited Edition Sampler) [Black Hole LP 30] Vinyl\B2. GTR - Mistral.flac
Формат                                   : FLAC
Формат/Информация                        : Free Lossless Audio Codec
Размер файла                             : 190 Мбайт
Продолжительность                        : 9 м. 18 с.
Режим общего битрейта                    : Переменный
Общий поток                              : 2863 Кбит/сек
Альбом                                   : Nyana (Limited Edition Sampler)
Трек                                     : Mistral
Трек/Положение                           : B2
Исполнитель                              : GTR
Жанр                                     : Trance
Дата записи                              : 2003

Аудио
Формат                                   : FLAC
Формат/Информация                        : Free Lossless Audio Codec
Продолжительность                        : 9 м. 18 с.
Вид битрейта                             : Переменный
Битрейт                                  : 2862 Кбит/сек
Каналы                                   : 2 канала
Частота                                  : 96,0 КГц
Битовая глубина                          : 24 бит
Размер потока                            : 190 Мбайт (100%)
Библиотека кодирования                   : libFLAC 1.3.1 (UTC 2014-11-25)

Общее
Полное имя                               : D:\Tiesto - 2 Compilations (Limited Edition Sampler)\2003 - Nyana (Limited Edition Sampler) [Black Hole LP 30] Vinyl\C1. Catcher - Destiny Sunrise.flac
Формат                                   : FLAC
Формат/Информация                        : Free Lossless Audio Codec
Размер файла                             : 195 Мбайт
Продолжительность                        : 9 м. 30 с.
Режим общего битрейта                    : Переменный
Общий поток                              : 2864 Кбит/сек
Альбом                                   : Nyana (Limited Edition Sampler)
Трек                                     : Destiny Sunrise
Трек/Положение                           : C1
Исполнитель                              : Catcher
Жанр                                     : Trance
Дата записи                              : 2003

Аудио
Формат                                   : FLAC
Формат/Информация                        : Free Lossless Audio Codec
Продолжительность                        : 9 м. 30 с.
Вид битрейта                             : Переменный
Битрейт                                  : 2864 Кбит/сек
Каналы                                   : 2 канала
Частота                                  : 96,0 КГц
Битовая глубина                          : 24 бит
Размер потока                            : 195 Мбайт (100%)
Библиотека кодирования                   : libFLAC 1.3.1 (UTC 2014-11-25)

Общее
Полное имя                               : D:\Tiesto - 2 Compilations (Limited Edition Sampler)\2003 - Nyana (Limited Edition Sampler) [Black Hole LP 30] Vinyl\C2. Young Parisians - U Write The Rules (Solarstone Remix).flac
Формат                                   : FLAC
Формат/Информация                        : Free Lossless Audio Codec
Размер файла                             : 189 Мбайт
Продолжительность                        : 9 м. 2 с.
Режим общего битрейта                    : Переменный
Общий поток                              : 2925 Кбит/сек
Альбом                                   : Nyana (Limited Edition Sampler)
Трек                                     : U Write The Rules (Solarstone Remix)
Трек/Положение                           : C2
Исполнитель                              : Young Parisians
Жанр                                     : Trance
Дата записи                              : 2003

Аудио
Формат                                   : FLAC
Формат/Информация                        : Free Lossless Audio Codec
Продолжительность                        : 9 м. 2 с.
Вид битрейта                             : Переменный
Битрейт                                  : 2925 Кбит/сек
Каналы                                   : 2 канала
Частота                                  : 96,0 КГц
Битовая глубина                          : 24 бит
Размер потока                            : 189 Мбайт (100%)
Библиотека кодирования                   : libFLAC 1.3.1 (UTC 2014-11-25)

Общее
Полное имя                               : D:\Tiesto - 2 Compilations (Limited Edition Sampler)\2003 - Nyana (Limited Edition Sampler) [Black Hole LP 30] Vinyl\D1. Solarstone vs. Sirocco - Destination.flac
Формат                                   : FLAC
Формат/Информация                        : Free Lossless Audio Codec
Размер файла                             : 232 Мбайт
Продолжительность                        : 11 м.
Режим общего битрейта                    : Переменный
Общий поток                              : 2918 Кбит/сек
Альбом                                   : Nyana (Limited Edition Sampler)
Трек                                     : Destination
Трек/Положение                           : D1
Исполнитель                              : Solarstone vs. Sirocco
Жанр                                     : Trance
Дата записи                              : 2003

Аудио
Формат                                   : FLAC
Формат/Информация                        : Free Lossless Audio Codec
Продолжительность                        : 11 м.
Вид битрейта                             : Переменный
Битрейт                                  : 2918 Кбит/сек
Каналы                                   : 2 канала
Частота                                  : 96,0 КГц
Битовая глубина                          : 24 бит
Размер потока                            : 232 Мбайт (100%)
Библиотека кодирования                   : libFLAC 1.3.1 (UTC 2014-11-25)

Общее
Полное имя                               : D:\Tiesto - 2 Compilations (Limited Edition Sampler)\2003 - Nyana (Limited Edition Sampler) [Black Hole LP 30] Vinyl\D2. The Roc Project feat. Tina Arena - Never (DJ Tiesto Remix).flac
Формат                                   : FLAC
Формат/Информация                        : Free Lossless Audio Codec
Размер файла                             : 156 Мбайт
Продолжительность                        : 7 м. 50 с.
Режим общего битрейта                    : Переменный
Общий поток                              : 2776 Кбит/сек
Альбом                                   : Nyana (Limited Edition Sampler)
Трек                                     : Never (DJ Tiesto Remix)
Трек/Положение                           : D2
Исполнитель                              : The Roc Project feat. Tina Arena
Жанр                                     : Trance
Дата записи                              : 2003

Аудио
Формат                                   : FLAC
Формат/Информация                        : Free Lossless Audio Codec
Продолжительность                        : 7 м. 50 с.
Вид битрейта                             : Переменный
Битрейт                                  : 2776 Кбит/сек
Каналы                                   : 2 канала
Частота                                  : 96,0 КГц
Битовая глубина                          : 24 бит
Размер потока                            : 156 Мбайт (100%)
Библиотека кодирования                   : libFLAC 1.3.1 (UTC 2014-11-25)

Общее
Полное имя                               : D:\Tiesto - 2 Compilations (Limited Edition Sampler)\2003 - Nyana (Limited Edition Sampler) [Black Hole LP 30] Vinyl\Folder.jpg
Формат                                   : JPEG
Размер файла                             : 55,6 Кбайт

Изображения
Формат                                   : JPEG
Ширина                                   : 298 пикселей
Высота                                   : 298 пикселей
Цветовое пространство                    : YUV
Субдискретизация насыщенности            : 4:2:0
Битовая глубина                          : 8 бит
Метод сжатия                             : С потерями
Размер потока                            : 55,6 Кбайт (100%)


Время раздачи: 24/7
[NNMClub.to]_2003 - Nyana (Limited Edition Sampler) [Black Hole LP 30] Vinyl.torrent
 Торрент:   Зарегистрирован
 
Примагнититься
Free Leech
Зарегистрируйтесь и скачайте торрент!
15 KB
 Зарегистрирован:   30 Янв 2017 08:21:52
 Размер:   1,41 GB  (
 Рейтинг:    (Голосов: 9)
 Поблагодарили:   50
 Проверка:   Оформление проверено модератором 30 Янв 2017 12:05:43
Как cкачать  ·  Как раздать  ·  Правильно оформить  ·  Поднять ратио!  
Показать сообщения:   
Начать новую тему   Ответить на тему    Торрент-трекер NNM-Club -> HD Audio и Многоканальная Музыка -> Vinyl-Rip и Hand-Made Часовой пояс: GMT + 3
Страница 1 из 1