Интеллигентный торрент-трекер
canvas not supported
Нас вместе: 4 339 019

Юрий Петухов |Ангел возмездия (2015) [M4B|AAC]


 
 
RSS
Начать новую тему   Ответить на тему    Торрент-трекер NNM-Club -> Аудио и Видео -> Аудиокниги (AAC)
Автор Сообщение
trybag ®
Стаж: 4 года 1 мес.
Сообщений: 76
Ratio: 18,077
Поблагодарили: 1681
100%
Юрий Петухов |Ангел возмездия
Автор: Юрий Петухов
Год: 2015
Жанр: Фантастика
Продолжительность: 12:45:40
Читает: BIGBAG
Издательство: Аудиокнига своими руками

Описание: Сверхкрутой сюжет, нетрадиционные повороты событий, десятки измерений, сотни пространств, три Вселенные, всепланетные и всепространственные войны. Герой романа, космодесантник, прошедший через все круги ада, после мучительных размышлений приходит к выводу – для спасения цивилизации необходимо свержение правящего на Земле режима. Он свергает его, захватывает власть во всей Звездной Федерации. А когда приходит победа, в нашу Вселенную вторгаются полчища из иных миров...

Формат: M4B
Аудиокодек: AAC
Битрейт: 192 kbps
Частота: 48,0 KHz
Разбивка на главы: есть
Разбивка на части: есть
Вшитая обложка: есть
Музыкальное сопровождение: нет

1. Ангел Возмездия
2. Бунт вурдалаков
3. Погружение во Мрак
4. Вторжение из Ада
5. Меч Вседержителя

Код: выделить все
Общее
Полное имя                               : Ангел возмездия 1.m4b
Формат                                   : MPEG-4
Профиль формата                          : Apple audio with iTunes position
Идентификатор кодека                     : M4B  (M4B /mp42)
Размер файла                             : 469 Мбайт
Продолжительность                        : 5 ч. 38 м.
Режим общего битрейта                    : Переменный
Общий поток                              : 194 Кбит/сек
Альбом                                   : Звёздная месть
Альбом/Исполнитель                       : Юрий Петухов
Часть/Положение                          : 1
Часть/Всего                              : 5
Трек                                     : Ангел возмездия 1
Трек/Положение                           : 1
Трек/Всего                               : 2
Исполнитель                              : Юрий Петухов
Композитор                               : BIGBAG
Издатель                                 : Аудиокнига своими руками
Жанр                                     : Фантастика
Дата записи                              : 2015
Дата кодирования                         : UTC 2017-01-29 19:11:08
Дата пометки                             : UTC 2017-01-29 22:30:01
Обложка                                  : Yes
©art                                     : Юрий Петухов

Аудио
Идентификатор                            : 1
Формат                                   : AAC
Формат/Информация                        : Advanced Audio Codec
Профиль формата                          : LC
Идентификатор кодека                     : 40
Продолжительность                        : 5 ч. 38 м.
Вид битрейта                             : Переменный
Битрейт                                  : 192 Кбит/сек
Максимальный битрейт                     : 196 Кбит/сек
Каналы                                   : 2 канала
Расположение каналов                     : Front: L R
Частота                                  : 48,0 КГц
Частота кадров                           : 46,875 кадров/сек (1024 spf)
Метод сжатия                             : С потерями
Размер потока                            : 465 Мбайт (99%)
Дата кодирования                         : UTC 2017-01-29 19:11:08
Дата пометки                             : UTC 2017-01-29 22:30:01
Menus                                    : 2

Меню
Идентификатор                            : 2
Идентификатор кодека                     : text
Продолжительность                        : 5 ч. 38 м.
Язык                                     : English
Дата кодирования                         : UTC 2017-01-29 22:26:51
Дата пометки                             : UTC 2017-01-29 22:26:51
Menu For                                 : 1
Duration_FirstFrame                      : -14626517
00:00:00.000                             : Пролог. КАЗНЬ
00:47:22.432                             : Часть первая. АНГЕЛ ВОЗМЕЗДИЯ
Вид битрейта                             : VBR

Полное имя                               : Ангел возмездия 2.m4b
Формат                                   : MPEG-4
Профиль формата                          : Apple audio with iTunes position
Идентификатор кодека                     : M4B  (M4B /mp42)
Размер файла                             : 592 Мбайт
Продолжительность                        : 7 ч. 7 м.
Режим общего битрейта                    : Переменный
Общий поток                              : 194 Кбит/сек
Альбом                                   : Звёздная месть
Альбом/Исполнитель                       : Юрий Петухов
Часть/Положение                          : 1
Часть/Всего                              : 5
Трек                                     : Ангел возмездия 2
Трек/Положение                           : 2
Трек/Всего                               : 2
Исполнитель                              : Юрий Петухов
Композитор                               : BIGBAG
Издатель                                 : Аудиокнига своими руками
Жанр                                     : Фантастика
Дата записи                              : 2015
Дата кодирования                         : UTC 2017-01-29 18:48:36
Дата пометки                             : UTC 2017-01-29 22:30:20
Обложка                                  : Yes
©art                                     : Юрий Петухов

Аудио
Идентификатор                            : 1
Формат                                   : AAC
Формат/Информация                        : Advanced Audio Codec
Профиль формата                          : LC
Идентификатор кодека                     : 40
Продолжительность                        : 7 ч. 7 м.
Вид битрейта                             : Переменный
Битрейт                                  : 192 Кбит/сек
Максимальный битрейт                     : 196 Кбит/сек
Каналы                                   : 2 канала
Расположение каналов                     : Front: L R
Частота                                  : 48,0 КГц
Частота кадров                           : 46,875 кадров/сек (1024 spf)
Метод сжатия                             : С потерями
Размер потока                            : 587 Мбайт (99%)
Дата кодирования                         : UTC 2017-01-29 18:48:36
Дата пометки                             : UTC 2017-01-29 22:30:20
Menus                                    : 2

Меню
Идентификатор                            : 2
Идентификатор кодека                     : text
Продолжительность                        : 7 ч. 7 м.
Язык                                     : English
Дата кодирования                         : UTC 2017-01-29 22:27:55
Дата пометки                             : UTC 2017-01-29 22:27:55
Menu For                                 : 1
Duration_FirstFrame                      : 1679104
Duration_LastFrame                       : -10069973
00:00:00.000                             : Часть вторая. ПОД КОЛПАКОМ
03:36:59.221                             : Часть третья. ИГРУШКА
06:45:59.338                             : Эпилог. ВОЗВРАЩЕНИЕ
Вид битрейта                             : VBR

[NNMClub.to]_Angel vozmezdiya.torrent
 Торрент:   Зарегистрирован
 
Примагнититься
Free Leech
Зарегистрируйтесь и скачайте торрент!
10,7 KB
 Зарегистрирован:   30 Янв 2017 10:19:44
 Размер:   1,04 GB  (
 Рейтинг:   4,2 (Голосов: 13)
 Поблагодарили:   49
 Проверка:   Оформление проверено модератором 30 Янв 2017 23:39:28
Как cкачать  ·  Как раздать  ·  Правильно оформить  ·  Поднять ратио!  
Загрузка...
Bagua
Стаж: 6 лет 4 мес.
Сообщений: 105
Ratio: 1,843
10.55%
От был популярный в 90-х. "Голос вселенной". Дома даже книга его есть "Воскресший, или Полтора года в аду" и про Микроцефалов ложнозрячих! :)
DeMoons
Стаж: 6 лет 4 мес.
Сообщений: 16
Ratio: 4,174
0.19%
неужели кто-то добрался и до этого автора! Спасибо, забираю!
DAO5
Стаж: 1 год 1 мес.
Сообщений: 385
Ratio: 14,949
Поблагодарили: 342
100%
Любимый Юрий Петухов! Супер-Иван! "Звёздная Месть"...
Жаль, что так рано ушёл....
alex_​starl​ing​
Стаж: 5 лет 3 мес.
Сообщений: 3
Ratio: 0,782
0%
Ох какая ностальжи. 93-ой год, а в руках новый(пришедший по почте) выпуск «Приключения, фантастика». Каждый месяц ждал. Там ещё иллюстрации были отличные.
trybag ®
Стаж: 4 года 1 мес.
Сообщений: 76
Ratio: 18,077
Поблагодарили: 1681
100%
DAO5 писал(а): Перейти к сообщению
Любимый Юрий Петухов! Супер-Иван! "Звёздная Месть"...
Жаль, что так рано ушёл....

Полностью согласен Друзья
Книгу делал для себя, не ожидал, что люди помнят этого замечательного автора.
В своё время просил Геннадия Коршунова озвучить роман "Звёздная месть" но увы.
Вот BIGBAG мне кажется эмоций не хватает, и всё-таки спасибо ему за озвучку.
Если будут пожелания продолжу выкладывать весь роман в формате M4B.
DAO5
Стаж: 1 год 1 мес.
Сообщений: 385
Ratio: 14,949
Поблагодарили: 342
100%
trybag писал(а): Перейти к сообщению
DAO5 писал(а): Перейти к сообщению
Любимый Юрий Петухов! Супер-Иван! "Звёздная Месть"...
Жаль, что так рано ушёл....

Полностью согласен Друзья
Книгу делал для себя, не ожидал, что люди помнят этого замечательного автора.
В своё время просил Геннадия Коршунова озвучить роман "Звёздная месть" но увы.
Вот BIGBAG мне кажется эмоций не хватает, и всё-таки спасибо ему за озвучку.
Если будут пожелания продолжу выкладывать весь роман в формате M4B.

Спсибо за ваши труды! Петухов один из первых поднял очень серьезную эзотерическую тему
протоарийства и влияния его на судьбу планеты Земля и Вселенной. Недооценивать труды и
Путь Юрия Петухова, как правдивого сказателя и Мастера нельзя. Уверен, его творчество еще
будет подробнее и более углубленно рассмотрено потомками.
DimBus
Стаж: 6 лет 5 мес.
Сообщений: 50
Ratio: 3,017
100%
Откуда: Moscow
russia.gif
Вот подобный более ранний релиз (28 Января 2015) от DUKAT51:
Юрий Петухов | Ангел возмездия (2015) [MP3]
Тоже читает BIGBAG, тот же битрейт 192 kb/s, но там продолжительность на 2 часа дольше.
Здесь 12:45:40, а там 14:42:10.
Не раскроете нам, в чём разница, может здесь что-то удалено (вырезано)?
Или виновата скорость?
trybag ®
Стаж: 4 года 1 мес.
Сообщений: 76
Ratio: 18,077
Поблагодарили: 1681
100%
Для Вас, для тех кто ИЩЕТ
Секретов никаких нет, книгу читал в журнальном варианте, потом выписал сборник произведений Ю.Петухова, но с развалом государства получил не весь комплект. На данный момент интернет расширился и произведения Ю.Петухова стали доступны. Повторюсь, что в своё время просил Геннадия Коршунова озвучить роман "Звёздная месть" но увы. Потом появилась озвучка от BIGBAG, стал слушать но что-то не по мне. Поэтому потратил несколько ночей изменил скорость и тон (не в обиду к BIGBAG) из моно сделал псевдостерео, что более приятнее слушать в наушниках, из старых журналов нашёл иллюстрации сфотожопил это все хозяйство, теперь слушаю и наслаждаюсь. Выложил на любимом NoNaMe ClUb , можно сказать Эксклюзив, в формате M4B я не нашел (может плохо искал), если кому-то не нравится проходите мимо, или пишите модератору пускай удалит мои релизы. Не забывайте,что Издательство: Аудиокнига своими руками, и думаю вы не смотрели спектрограмму оригинала озвучки в mp3 (это я наверно отвлекся ). Всем спасибо.
DimBus
Стаж: 6 лет 5 мес.
Сообщений: 50
Ratio: 3,017
100%
Откуда: Moscow
russia.gif
trybag ®
Да нет, не отвлеклись, очень интересно.
Полезно знать, как из чего-то сделать конфетку, если приложить голову и терпение.
А за проделанную работу и хороший ответ огромное спасибо!
Показать сообщения:   
Начать новую тему   Ответить на тему    Торрент-трекер NNM-Club -> Аудио и Видео -> Аудиокниги (AAC) Часовой пояс: GMT + 3
Страница 1 из 1

День смеха и юмора отмечается 1 апреля. В этот день принято шутить и разыгрывать друзей, коллег по работе, домашних, словом всех, с кем Вам предстоит увидеться в этот праздник – первое апреля. Первоапрельские розыгрыши, приколы на 1 апреля, первоапрельские шутки должны быть веселыми и безобидными. Приколы на 1 апреля, как правило, удаются в том случае, если человек забыл какой сегодня месяц и день, словом, забыл про 1 апреля – день смеха, шуток, день дурака.

Желаем Вам много улыбок и хорошего настроения в этот день!
С Уважением, администрация NNM-Club :)