Интеллигентный торрент-трекер
canvas not supported
Нас вместе: 4 343 511

Arc Of Doves - Discography 6 Releases (2009-2015) [FLAC|Lossless|tracks + .cue] <Ambient, Modern Classical, Dub Techno, Downtempo>


 
 
RSS
Начать новую тему   Ответить на тему    Торрент-трекер NNM-Club -> Electronic -> Easy listening (Lossless)
Автор Сообщение
vilator ®
Модератор Музыки
RG Music
 
Стаж: 8 лет
Сообщений: 5762
Ratio: 128,922
Поблагодарили: 113794
100%
Откуда: Minsk
pirates.png
Arc Of Doves Discography

Arc of Doves's music of Tetsuya Nakamura. Beginning music production in 2000. Music track is offered to the Independent movie and band. And participate in the many experimental bands as a guitarist. The Musicarity is based on sound structure of minimal dub and classic, film music, various genres mix with it.
Жанр: Ambient, Minimal, Modern Classical, Dub Techno, Downtempo • Страна: Japan • Год издания: 2009-2015 • Тип издания: CD, Web
Аудиокодек: FLAC (*.flac) • Тип рипа: tracks+.cue, tracks • Продолжительность: 05:12:48 • Источник: PTH, bandcamp
Треклист:
Год выпуска: 2009
Продолжительность: 01:08:04
Треклист:

01. Introducing (05:49)
02. Word Of Mouth (05:54)
03. Impression (10:56)
04. After Dark (05:58)
05. Arabesque (08:11)
06. Sarabande (09:00)
07. Reverie (06:06)
08. Speak Low (08:46)
09. Outro (07:24)

Exact Audio Copy V1.0 beta 3 from 29. August 2011

EAC extraction logfile from 29. May 2014, 12:43

Arc Of Doves / Impressions

Used drive : ASUS DRW-20B1LT Adapter: 0 ID: 1

Read mode : Secure
Utilize accurate stream : Yes
Defeat audio cache : Yes
Make use of C2 pointers : No

Read offset correction : 6
Overread into Lead-In and Lead-Out : No
Fill up missing offset samples with silence : Yes
Delete leading and trailing silent blocks : No
Null samples used in CRC calculations : Yes
Used interface : Native Win32 interface for Win NT & 2000
Gap handling : Appended to previous track

Used output format : User Defined Encoder
Selected bitrate : 1024 kBit/s
Quality : High
Add ID3 tag : No
Command line compressor : C:\Program Files (x86)\FLAC\flac.exe
Additional command line options : -8 -V -T "ARTIST=%artist%" -T "TITLE=%title%" -T "ALBUM=%albumtitle%" -T "DATE=%year%" -T "TRACKNUMBER=%tracknr1%" -T "GENRE=%genre%" -T "DISCNUMBER=%cdnumber%" -T "TOTALDISCS=%totalcds%" -T "TOTALTRACKS=%numtracks%" %source% -o %dest%

TOC of the extracted CD

Track | Start | Length | Start sector | End sector
---------------------------------------------------------
1 | 0:00.00 | 5:49.07 | 0 | 26181
2 | 5:49.07 | 5:54.18 | 26182 | 52749
3 | 11:43.25 | 10:56.00 | 52750 | 101949
4 | 22:39.25 | 5:58.16 | 101950 | 128815
5 | 28:37.41 | 8:10.56 | 128816 | 165621
6 | 36:48.22 | 9:00.00 | 165622 | 206121
7 | 45:48.22 | 6:06.24 | 206122 | 233595
8 | 51:54.46 | 8:46.32 | 233596 | 273077
9 | 60:41.03 | 7:24.00 | 273078 | 306377

Track 1

Filename U:\Arc Of Doves - Impressions\01_Arc_Of_Doves_Introducing.wav

Pre-gap length 0:00:02.00

Peak level 78.2 %
Extraction speed 2.2 X
Track quality 100.0 %
Test CRC 3A4688A9
Copy CRC 3A4688A9
Accurately ripped (confidence 2) [16354354] (AR v1)
Copy OK

Track 2

Filename U:\Arc Of Doves - Impressions\02_Arc_Of_Doves_Word_Of_Mouth.wav

Peak level 98.8 %
Extraction speed 2.0 X
Track quality 99.9 %
Test CRC A29F6B55
Copy CRC A29F6B55
Accurately ripped (confidence 2) [C7F3FF43] (AR v1)
Copy OK

Track 3

Filename U:\Arc Of Doves - Impressions\03_Arc_Of_Doves_Impression.wav

Peak level 63.5 %
Extraction speed 2.6 X
Track quality 99.9 %
Test CRC 112867C6
Copy CRC 112867C6
Accurately ripped (confidence 2) [82FBB617] (AR v1)
Copy OK

Track 4

Filename U:\Arc Of Doves - Impressions\04_Arc_Of_Doves_After_Dark.wav

Peak level 98.8 %
Extraction speed 2.6 X
Track quality 99.9 %
Test CRC F62BD4A3
Copy CRC F62BD4A3
Accurately ripped (confidence 2) [298DE3A0] (AR v1)
Copy OK

Track 5

Filename U:\Arc Of Doves - Impressions\05_Arc_Of_Doves_Arabesque.wav

Peak level 98.8 %
Extraction speed 3.5 X
Track quality 100.0 %
Test CRC 8E9D9260
Copy CRC 8E9D9260
Accurately ripped (confidence 2) [1F4C51A5] (AR v1)
Copy OK

Track 6

Filename U:\Arc Of Doves - Impressions\06_Arc_Of_Doves_Sarabande.wav

Peak level 79.3 %
Extraction speed 3.8 X
Track quality 100.0 %
Test CRC 250DA288
Copy CRC 250DA288
Accurately ripped (confidence 2) [F7594335] (AR v1)
Copy OK

Track 7

Filename U:\Arc Of Doves - Impressions\07_Arc_Of_Doves_Reverie.wav

Peak level 52.9 %
Extraction speed 3.9 X
Track quality 100.0 %
Test CRC B72CF3F3
Copy CRC B72CF3F3
Accurately ripped (confidence 2) [591B4D47] (AR v1)
Copy OK

Track 8

Filename U:\Arc Of Doves - Impressions\08_Arc_Of_Doves_Speak_Low.wav

Peak level 98.8 %
Extraction speed 4.2 X
Track quality 100.0 %
Test CRC 66D99228
Copy CRC 66D99228
Accurately ripped (confidence 2) [0C1B6257] (AR v1)
Copy OK

Track 9

Filename U:\Arc Of Doves - Impressions\09_Arc_Of_Doves_Outro.wav

Peak level 74.7 %
Extraction speed 4.4 X
Track quality 100.0 %
Test CRC 12902C74
Copy CRC 12902C74
Accurately ripped (confidence 2) [C5E2F754] (AR v1)
Copy OK

All tracks accurately ripped

No errors occurred

End of status report

==== Log checksum 7979F8F025D3F16EB81CEEEEC96348DACE95015F60ABCC3F5CA776DF9FAAECA7 ====


REM GENRE Ambient
REM DATE 2009
REM DISCID 620FF509
REM COMMENT "ExactAudioCopy v1.0b3"
PERFORMER "Arc Of Doves"
TITLE Impressions
FILE "01. Introducing.flac" WAVE
TRACK 1 AUDIO
TITLE Introducing
PERFORMER "Arc Of Doves"
INDEX 01 00:00:00
FILE "02. Word Of Mouth.flac" WAVE
TRACK 2 AUDIO
TITLE "Word Of Mouth"
PERFORMER "Arc Of Doves"
INDEX 01 00:00:00
FILE "03. Impression.flac" WAVE
TRACK 3 AUDIO
TITLE Impression
PERFORMER "Arc Of Doves"
INDEX 01 00:00:00
FILE "04. After Dark.flac" WAVE
TRACK 4 AUDIO
TITLE "After Dark"
PERFORMER "Arc Of Doves"
INDEX 01 00:00:00
FILE "05. Arabesque.flac" WAVE
TRACK 5 AUDIO
TITLE Arabesque
PERFORMER "Arc Of Doves"
INDEX 01 00:00:00
FILE "06. Sarabande.flac" WAVE
TRACK 6 AUDIO
TITLE Sarabande
PERFORMER "Arc Of Doves"
INDEX 01 00:00:00
FILE "07. Reverie.flac" WAVE
TRACK 7 AUDIO
TITLE Reverie
PERFORMER "Arc Of Doves"
INDEX 01 00:00:00
FILE "08. Speak Low.flac" WAVE
TRACK 8 AUDIO
TITLE "Speak Low"
PERFORMER "Arc Of Doves"
INDEX 01 00:00:00
FILE "09. Outro.flac" WAVE
TRACK 9 AUDIO
TITLE Outro
PERFORMER "Arc Of Doves"
INDEX 01 00:00:00

Год выпуска: 2010
Продолжительность: 00:44:25
Треклист:

01. Intro (04:46)
02. Limelight (06:16)
03. Megalopolis (06:56)
04. Interlude (04:57)
05. Natalis (08:04)
06. Poetry (08:35)
07. Wish You Were Here (04:51)

-----------------------

DON'T MODIFY THIS FILE

-----------------------

PERFORMER: auCDtect Task Manager, ver. 1.6.0 RC1 build 1.6.0.1
Copyright (c) 2008-2010 y-soft. All rights reserved
http://y-soft.org

ANALYZER: auCDtect: CD records authenticity detector, version 0.8.2
Copyright (c) 2004 Oleg Berngardt. All rights reserved.
Copyright (c) 2004 Alexander Djourik. All rights reserved.

FILE: 07. Wish You Were Here.flac
Size: 16354746 Hash: 0AD5B76082ACB64CF09250A1AF439765 Accuracy: -m0
Conclusion: MPEG 100%
Signature: 397EF52DBB39CF5AA1D75FF8739A2F66429D1E20
FILE: 06. Poetry.flac
Size: 51206096 Hash: 32D58740C2FD993E8AEF7C5C8E94E9CE Accuracy: -m0
Conclusion: MPEG 95%
Signature: 844C479BE518345BB4FA754A819BB866E43AAB9D
FILE: 05. Natalis.flac
Size: 53122373 Hash: EC5DCF3B550410240D84ED8CC4C650AF Accuracy: -m0
Conclusion: ???
Signature: 922A40D4FECBE3C69A499C14E50ACED7588D0777
FILE: 04. Interlude.flac
Size: 33441267 Hash: 6607E4EF3D3DF4ACC4B12CD02F518123 Accuracy: -m0
Conclusion: ???
Signature: 5193883E38855F475475BBCB01173ABC6105A3DE
FILE: 03. Megalopolis.flac
Size: 33642927 Hash: 523F613A639F71DA4E3CF0CFA0B5CEA3 Accuracy: -m0
Conclusion: MPEG 95%
Signature: CF80F569F4FFDB4301973215418564D43433E87E
FILE: 02. Limelight.flac
Size: 40960414 Hash: 5543C7400BCFA23927DD978A51F30D7D Accuracy: -m0
Conclusion: MPEG 95%
Signature: 2C22DA63A72EF82EE61E52D1CDA1CBF2CB060776
FILE: 01. Intro.flac
Size: 28217956 Hash: 1BF5BE8B1E4237530B3DE360B17D286A Accuracy: -m0
Conclusion: MPEG 95%
Signature: 1811A5234DFA9C472B07BBA00C49BB6551021206

Год выпуска: 2010
Продолжительность: 01:02:19
Треклист:

01. Mercury Rising (05:08)
02. Mars Jazz (06:31)
03. Pluto (03:43)
04. Quasar (11:29)
05. Neptune Dub (07:00)
06. Venus In Pisces (07:17)
07. Jupiter (08:04)
08. Stars (07:27)
09. Moon (05:40)

Exact Audio Copy V1.0 beta 2 from 29. April 2011

EAC extraction logfile from 12. January 2012, 14:22

Arc Of Doves / The Lights

Used drive : OPTIARC DVD-ROM DDU1678A Adapter: 0 ID: 1

Read mode : Secure
Utilize accurate stream : Yes
Defeat audio cache : Yes
Make use of C2 pointers : No

Read offset correction : 6
Overread into Lead-In and Lead-Out : No
Fill up missing offset samples with silence : Yes
Delete leading and trailing silent blocks : No
Null samples used in CRC calculations : Yes
Used interface : Native Win32 interface for Win NT & 2000
Gap handling : Appended to previous track

Used output format : User Defined Encoder
Selected bitrate : 1024 kBit/s
Quality : High
Add ID3 tag : No
Command line compressor : C:\Program Files\Exact Audio Copy\Flac\flac.exe
Additional command line options : -8 -V -T "ARTIST=%artist%" -T "TITLE=%title%" -T "ALBUM=%albumtitle%" -T "DATE=%year%" -T "TRACKNUMBER=%tracknr%" -T "GENRE=%genre%" -T "PERFORMER=%albuminterpret%" -T "COMPOSER=%composer%" %haslyrics%--tag-from-file=LYRICS

TOC of the extracted CD

Track | Start | Length | Start sector | End sector
---------------------------------------------------------
1 | 0:00.00 | 5:08.00 | 0 | 23099
2 | 5:08.00 | 6:31.24 | 23100 | 52448
3 | 11:39.24 | 3:43.34 | 52449 | 69207
4 | 15:22.58 | 11:28.50 | 69208 | 120857
5 | 26:51.33 | 7:00.08 | 120858 | 152365
6 | 33:51.41 | 7:17.01 | 152366 | 185141
7 | 41:08.42 | 8:03.47 | 185142 | 221413
8 | 49:12.14 | 7:27.17 | 221414 | 254955
9 | 56:39.31 | 5:40.21 | 254956 | 280476

Track 1

Filename K:\Torrents\Arc Of Doves - The Lights (2010) [FLAC]\1-01. Arc Of Doves - Mercury Rising.wav

Pre-gap length 0:00:02.00

Peak level 98.8 %
Extraction speed 1.9 X
Track quality 100.0 %
Test CRC 42BDF8AA
Copy CRC 42BDF8AA
Track not present in AccurateRip database
Copy OK

Track 2

Filename K:\Torrents\Arc Of Doves - The Lights (2010) [FLAC]\1-02. Arc Of Doves - Mars Jazz.wav

Pre-gap length 0:00:02.00

Peak level 98.8 %
Extraction speed 2.3 X
Track quality 100.0 %
Test CRC 9271E4D3
Copy CRC 9271E4D3
Track not present in AccurateRip database
Copy OK

Track 3

Filename K:\Torrents\Arc Of Doves - The Lights (2010) [FLAC]\1-03. Arc Of Doves - Pluto.wav

Pre-gap length 0:00:02.00

Peak level 68.3 %
Extraction speed 2.0 X
Track quality 99.9 %
Test CRC EDDF4E8B
Copy CRC EDDF4E8B
Track not present in AccurateRip database
Copy OK

Track 4

Filename K:\Torrents\Arc Of Doves - The Lights (2010) [FLAC]\1-04. Arc Of Doves - Quasar.wav

Pre-gap length 0:00:02.00

Peak level 98.8 %
Extraction speed 2.9 X
Track quality 100.0 %
Test CRC 3121EEAB
Copy CRC 3121EEAB
Track not present in AccurateRip database
Copy OK

Track 5

Filename K:\Torrents\Arc Of Doves - The Lights (2010) [FLAC]\1-05. Arc Of Doves - Neptune Dub.wav

Pre-gap length 0:00:02.00

Peak level 98.8 %
Extraction speed 3.1 X
Track quality 100.0 %
Test CRC CACD3E7E
Copy CRC CACD3E7E
Track not present in AccurateRip database
Copy OK

Track 6

Filename K:\Torrents\Arc Of Doves - The Lights (2010) [FLAC]\1-06. Arc Of Doves - Venus In Pisces.wav

Pre-gap length 0:00:02.00

Peak level 88.6 %
Extraction speed 3.3 X
Track quality 100.0 %
Test CRC 3022013B
Copy CRC 3022013B
Track not present in AccurateRip database
Copy OK

Track 7

Filename K:\Torrents\Arc Of Doves - The Lights (2010) [FLAC]\1-07. Arc Of Doves - Jupiter.wav

Pre-gap length 0:00:02.00

Peak level 98.8 %
Extraction speed 3.6 X
Track quality 100.0 %
Test CRC F3F92D8D
Copy CRC F3F92D8D
Track not present in AccurateRip database
Copy OK

Track 8

Filename K:\Torrents\Arc Of Doves - The Lights (2010) [FLAC]\1-08. Arc Of Doves - Stars.wav

Pre-gap length 0:00:02.60

Peak level 98.8 %
Extraction speed 3.7 X
Track quality 100.0 %
Test CRC 4757D88A
Copy CRC 4757D88A
Track not present in AccurateRip database
Copy OK

Track 9

Filename K:\Torrents\Arc Of Doves - The Lights (2010) [FLAC]\1-09. Arc Of Doves - Moon.wav

Pre-gap length 0:00:02.00

Peak level 98.8 %
Extraction speed 3.3 X
Track quality 99.9 %
Test CRC EFC4D736
Copy CRC EFC4D736
Track not present in AccurateRip database
Copy OK

None of the tracks are present in the AccurateRip database

No errors occurred

End of status report

---- CUETools DB Plugin V2.1.2

[CTDB TOCID: 49vfakCVwWRAOk1Xx8HFP_fwCpM-] disk not present in database, Submit result: 49vfakCVwWRAOk1Xx8HFP_fwCpM- has been uploaded

==== Log checksum 765CB1A27EEA23B88A21D5FE289585AB72E0218DED5B147FA363574160C32CE3 ====


REM GENRE "Dub Techno, Downtempo, Ambient"
REM DATE 2010
REM DISCID 590E9B09
REM COMMENT "ExactAudioCopy v1.0b2"
PERFORMER "Arc Of Doves"
TITLE "The Lights"
FILE "01 - Mercury Rising.flac" WAVE
TRACK 1 AUDIO
TITLE "Mercury Rising"
PERFORMER "Arc Of Doves"
INDEX 01 00:00:00
FILE "02 - Mars Jazz.flac" WAVE
TRACK 2 AUDIO
TITLE "Mars Jazz"
PERFORMER "Arc Of Doves"
INDEX 01 00:00:00
FILE "03 - Pluto.flac" WAVE
TRACK 3 AUDIO
TITLE Pluto
PERFORMER "Arc Of Doves"
INDEX 01 00:00:00
FILE "04 - Quasar.flac" WAVE
TRACK 4 AUDIO
TITLE Quasar
PERFORMER "Arc Of Doves"
INDEX 01 00:00:00
FILE "05 - Neptune Dub.flac" WAVE
TRACK 5 AUDIO
TITLE "Neptune Dub"
PERFORMER "Arc Of Doves"
INDEX 01 00:00:00
FILE "06 - Venus In Pisces.flac" WAVE
TRACK 6 AUDIO
TITLE "Venus In Pisces"
PERFORMER "Arc Of Doves"
INDEX 01 00:00:00
FILE "07 - Jupiter.flac" WAVE
TRACK 7 AUDIO
TITLE Jupiter
PERFORMER "Arc Of Doves"
INDEX 01 00:00:00
FILE "08 - Stars.flac" WAVE
TRACK 8 AUDIO
TITLE Stars
PERFORMER "Arc Of Doves"
INDEX 01 00:00:00
FILE "09 - Moon.flac" WAVE
TRACK 9 AUDIO
TITLE Moon
PERFORMER "Arc Of Doves"
INDEX 01 00:00:00
Год выпуска: 2011
Продолжительность: 01:09:57+00:29:19
Треклист:

CD1
01. Arc Of Doves - Moon Child (07:28)
02. Madutec - Come Together (Dubmix) (07:30)
03. FarFromYours - I'm Shadows, For The Lotus (10:34)
04. Junichi Watanabe - Steam (05:49)
05. Martin Schulte - Oblivion (05:52)
06. Lady Citizen - Inner Cycle Girl (04:45)
07. Teto - Night Leaf (06:38)
08. Arc Of Doves - Daylight (05:13)
09. Spaceci feat. Andrea Porcu - Still A Way To Meet Again (16:08)

CD2
01. Arc Of Doves - Zephyr (06:06)
02. Mr.Bizz - Shinano (08:37)
03. Martin Schulte - Rain (05:22)
04. Arc Of Doves - Blue In Green (04:33)
05. Arc Of Doves - Cordifolia (04:41)

Exact Audio Copy V1.0 beta 3 from 29. August 2011

EAC extraction logfile from 21. December 2011, 12:43

- / Layer Forest

Used drive : TSSTcorpCDDVDW TS-L633L Adapter: 0 ID: 2

Read mode : Secure
Utilize accurate stream : Yes
Defeat audio cache : Yes
Make use of C2 pointers : No

Read offset correction : 6
Overread into Lead-In and Lead-Out : No
Fill up missing offset samples with silence : Yes
Delete leading and trailing silent blocks : No
Null samples used in CRC calculations : Yes
Used interface : Native Win32 interface for Win NT & 2000
Gap handling : Appended to previous track

Used output format : User Defined Encoder
Selected bitrate : 768 kBit/s
Quality : High
Add ID3 tag : No
Command line compressor : W:\Programme\Exact Audio Copy\FLAC\FLAC.EXE
Additional command line options : -8 -V -T "ARTIST=%artist%" -T "TITLE=%title%" -T "ALBUM=%albumtitle%" -T "DATE=%year%" -T "TRACKNUMBER=%tracknr%" -T "GENRE=%genre%" -T "PERFORMER=%albuminterpret%" -T "COMPOSER=%composer%" %haslyrics%--tag-from-file=LYRICS="%lyricsfile%"%haslyrics% -T "ALBUMARTIST=%albumartist%" -T "DISCNUMBER=%cdnumber%" -T "TOTALDISCS=%totalcds%" -T "TOTALTRACKS=%numtracks%" -T "COMMENT=%comment%" %source% -o %dest%

TOC of the extracted CD

Track | Start | Length | Start sector | End sector
---------------------------------------------------------
1 | 0:00.00 | 7:28.05 | 0 | 33604
2 | 7:28.05 | 7:29.65 | 33605 | 67344
3 | 14:57.70 | 10:33.45 | 67345 | 114864
4 | 25:31.40 | 5:48.66 | 114865 | 141030
5 | 31:20.31 | 5:51.68 | 141031 | 167423
6 | 37:12.24 | 4:45.08 | 167424 | 188806
7 | 41:57.32 | 6:38.31 | 188807 | 218687
8 | 48:35.63 | 5:13.14 | 218688 | 242176
9 | 53:49.02 | 16:08.06 | 242177 | 314782

Track 1

Filename W:\EAC Rips\VA - Layer Forest\Disc 1\01 - Arc Of Doves - Moon Child.wav

Pre-gap length 0:00:02.00

Peak level 99.8 %
Extraction speed 2.4 X
Track quality 100.0 %
Test CRC E9E6010A
Copy CRC E9E6010A
Track not present in AccurateRip database
Copy OK

Track 2

Filename W:\EAC Rips\VA - Layer Forest\Disc 1\02 - Madutec - Come Together (Dubmix).wav

Peak level 99.8 %
Extraction speed 2.6 X
Track quality 99.9 %
Test CRC 519FDF2A
Copy CRC 519FDF2A
Track not present in AccurateRip database
Copy OK

Track 3

Filename W:\EAC Rips\VA - Layer Forest\Disc 1\03 - FarFromYours - I'm Shadows, For The Lotus.wav

Peak level 95.6 %
Extraction speed 3.3 X
Track quality 100.0 %
Test CRC C9DAABB3
Copy CRC C9DAABB3
Track not present in AccurateRip database
Copy OK

Track 4

Filename W:\EAC Rips\VA - Layer Forest\Disc 1\04 - Junichi Watanabe - Steam.wav

Peak level 96.6 %
Extraction speed 3.4 X
Track quality 100.0 %
Test CRC A541840D
Copy CRC A541840D
Track not present in AccurateRip database
Copy OK

Track 5

Filename W:\EAC Rips\VA - Layer Forest\Disc 1\05 - Martin Schulte - Oblivion.wav

Peak level 99.8 %
Extraction speed 3.2 X
Track quality 99.9 %
Test CRC F76D7617
Copy CRC F76D7617
Track not present in AccurateRip database
Copy OK

Track 6

Filename W:\EAC Rips\VA - Layer Forest\Disc 1\06 - Lady Citizen - Inner Cycle Girl.wav

Pre-gap length 0:00:02.00

Peak level 99.1 %
Extraction speed 3.7 X
Track quality 100.0 %
Test CRC B8F933FF
Copy CRC B8F933FF
Track not present in AccurateRip database
Copy OK

Track 7

Filename W:\EAC Rips\VA - Layer Forest\Disc 1\07 - Teto - Night Leaf.wav

Pre-gap length 0:00:01.00

Peak level 88.2 %
Extraction speed 3.5 X
Track quality 99.9 %
Test CRC 127AB81F
Copy CRC 127AB81F
Track not present in AccurateRip database
Copy OK

Track 8

Filename W:\EAC Rips\VA - Layer Forest\Disc 1\08 - Arc Of Doves - Daylight.wav

Peak level 95.8 %
Extraction speed 4.0 X
Track quality 100.0 %
Test CRC 426DC208
Copy CRC 426DC208
Track not present in AccurateRip database
Copy OK

Track 9

Filename W:\EAC Rips\VA - Layer Forest\Disc 1\09 - Spaceci - Still A Way To Meet Again.wav

Peak level 99.1 %
Extraction speed 4.8 X
Track quality 100.0 %
Test CRC 2E1D4C15
Copy CRC 2E1D4C15
Track not present in AccurateRip database
Copy OK

None of the tracks are present in the AccurateRip database

No errors occurred

End of status report

==== Log checksum 2982CA88354E83916078E13DE8F61BE8B5BD055A265EC34194F762846C0874BE ====
------------------------------------------------------------------------------------------------------------------------

Exact Audio Copy V1.0 beta 3 from 29. August 2011

EAC extraction logfile from 21. December 2011, 12:49

- / Layer Forest

Used drive : TSSTcorpCDDVDW TS-L633L Adapter: 0 ID: 2

Read mode : Secure
Utilize accurate stream : Yes
Defeat audio cache : Yes
Make use of C2 pointers : No

Read offset correction : 6
Overread into Lead-In and Lead-Out : No
Fill up missing offset samples with silence : Yes
Delete leading and trailing silent blocks : No
Null samples used in CRC calculations : Yes
Used interface : Native Win32 interface for Win NT & 2000
Gap handling : Appended to previous track

Used output format : User Defined Encoder
Selected bitrate : 768 kBit/s
Quality : High
Add ID3 tag : No
Command line compressor : W:\Programme\Exact Audio Copy\FLAC\FLAC.EXE
Additional command line options : -8 -V -T "ARTIST=%artist%" -T "TITLE=%title%" -T "ALBUM=%albumtitle%" -T "DATE=%year%" -T "TRACKNUMBER=%tracknr%" -T "GENRE=%genre%" -T "PERFORMER=%albuminterpret%" -T "COMPOSER=%composer%" %haslyrics%--tag-from-file=LYRICS="%lyricsfile%"%haslyrics% -T "ALBUMARTIST=%albumartist%" -T "DISCNUMBER=%cdnumber%" -T "TOTALDISCS=%totalcds%" -T "TOTALTRACKS=%numtracks%" -T "COMMENT=%comment%" %source% -o %dest%

TOC of the extracted CD

Track | Start | Length | Start sector | End sector
---------------------------------------------------------
1 | 0:00.00 | 6:06.04 | 0 | 27453
2 | 6:06.04 | 8:37.00 | 27454 | 66228
3 | 14:43.04 | 5:22.31 | 66229 | 90409
4 | 20:05.35 | 4:33.19 | 90410 | 110903
5 | 24:38.54 | 4:41.22 | 110904 | 132000

Track 1

Filename W:\EAC Rips\VA - Layer Forest\Disc 2\01 - Arc Of Doves - Zephyr.wav

Pre-gap length 0:00:02.00

Copy aborted

Track 2

Copy aborted

Track 3

Copy aborted

Track 4

Copy aborted

Track 5

Copy aborted

No tracks could be verified as accurate

There were errors

End of status report

==== Log checksum 328D7020FCAAEBAE558ECEE07C23978CC1D257BD1ADD9AA12384B82EB42F208E ====

------------------------------------------------------------

Exact Audio Copy V1.0 beta 3 from 29. August 2011

EAC extraction logfile from 21. December 2011, 13:12

- / Layer Forest

Used drive : TSSTcorpCDDVDW TS-L633L Adapter: 0 ID: 2

Read mode : Secure
Utilize accurate stream : Yes
Defeat audio cache : Yes
Make use of C2 pointers : No

Read offset correction : 6
Overread into Lead-In and Lead-Out : No
Fill up missing offset samples with silence : Yes
Delete leading and trailing silent blocks : No
Null samples used in CRC calculations : Yes
Used interface : Native Win32 interface for Win NT & 2000
Gap handling : Appended to previous track

Used output format : User Defined Encoder
Selected bitrate : 768 kBit/s
Quality : High
Add ID3 tag : No
Command line compressor : W:\Programme\Exact Audio Copy\FLAC\FLAC.EXE
Additional command line options : -8 -V -T "ARTIST=%artist%" -T "TITLE=%title%" -T "ALBUM=%albumtitle%" -T "DATE=%year%" -T "TRACKNUMBER=%tracknr%" -T "GENRE=%genre%" -T "PERFORMER=%albuminterpret%" -T "COMPOSER=%composer%" %haslyrics%--tag-from-file=LYRICS="%lyricsfile%"%haslyrics% -T "ALBUMARTIST=%albumartist%" -T "DISCNUMBER=%cdnumber%" -T "TOTALDISCS=%totalcds%" -T "TOTALTRACKS=%numtracks%" -T "COMMENT=%comment%" %source% -o %dest%

TOC of the extracted CD

Track | Start | Length | Start sector | End sector
---------------------------------------------------------
1 | 0:00.00 | 6:06.04 | 0 | 27453
2 | 6:06.04 | 8:37.00 | 27454 | 66228
3 | 14:43.04 | 5:22.31 | 66229 | 90409
4 | 20:05.35 | 4:33.19 | 90410 | 110903
5 | 24:38.54 | 4:41.22 | 110904 | 132000

Track 1

Filename W:\EAC Rips\VA - Layer Forest\Disc 2\01 - Arc Of Doves - Zephyr.wav

Pre-gap length 0:00:02.00

Peak level 99.8 %
Extraction speed 2.3 X
Track quality 100.0 %
Test CRC 04AD26E8
Copy CRC 04AD26E8
Track not present in AccurateRip database
Copy OK

Track 2

Filename W:\EAC Rips\VA - Layer Forest\Disc 2\02 - Mr. Bizz - Shinano.wav

Peak level 99.8 %
Extraction speed 2.8 X
Track quality 100.0 %
Test CRC B12F38C3
Copy CRC B12F38C3
Track not present in AccurateRip database
Copy OK

Track 3

Filename W:\EAC Rips\VA - Layer Forest\Disc 2\03 - Martin Schulte - Rain.wav

Peak level 99.8 %
Extraction speed 3.0 X
Track quality 100.0 %
Test CRC 43829EF6
Copy CRC 43829EF6
Track not present in AccurateRip database
Copy OK

Track 4

Filename W:\EAC Rips\VA - Layer Forest\Disc 2\04 - Arc Of Doves - Blue In Green.wav

Peak level 99.8 %
Extraction speed 3.1 X
Track quality 100.0 %
Test CRC 9097B93C
Copy CRC 9097B93C
Track not present in AccurateRip database
Copy OK

Track 5

Filename W:\EAC Rips\VA - Layer Forest\Disc 2\05 - Arc Of Doves - Cordifolia.wav

Peak level 99.6 %
Extraction speed 3.3 X
Track quality 100.0 %
Test CRC 00A824E2
Copy CRC 00A824E2
Track not present in AccurateRip database
Copy OK

None of the tracks are present in the AccurateRip database

No errors occurred

End of status report

==== Log checksum E81EDA2967CEE458C7468D41F62F4C634D1DA8D849130BD0756E6AF5C75C5753 ====


REM GENRE Ambient
REM DATE 2011
REM DISCID 7C106509
REM COMMENT "ExactAudioCopy v1.0b3"
PERFORMER ""
TITLE "Layer Forest"
FILE "01 - Arc Of Doves - Moon Child.wav" WAVE
TRACK 01 AUDIO
TITLE "Moon Child"
PERFORMER "Arc Of Doves"
FLAGS DCP
INDEX 01 00:00:00
FILE "02 - Madutec - Come Together (Dubmix).wav" WAVE
TRACK 02 AUDIO
TITLE "Come Together (Dubmix)"
PERFORMER "Madutec"
FLAGS DCP
INDEX 01 00:00:00
FILE "03 - FarFromYours - I'm Shadows, For The Lotus.wav" WAVE
TRACK 03 AUDIO
TITLE "I'm Shadows, For The Lotus"
PERFORMER "FarFromYours"
FLAGS DCP
INDEX 01 00:00:00
FILE "04 - Junichi Watanabe - Steam.wav" WAVE
TRACK 04 AUDIO
TITLE "Steam"
PERFORMER "Junichi Watanabe"
FLAGS DCP
INDEX 01 00:00:00
FILE "05 - Martin Schulte - Oblivion.wav" WAVE
TRACK 05 AUDIO
TITLE "Oblivion"
PERFORMER "Martin Schulte"
FLAGS DCP
INDEX 01 00:00:00
TRACK 06 AUDIO
TITLE "Inner Cycle Girl"
PERFORMER "Lady Citizen"
FLAGS DCP
INDEX 00 05:49:68
FILE "06 - Lady Citizen - Inner Cycle Girl.wav" WAVE
INDEX 01 00:00:00
TRACK 07 AUDIO
TITLE "Night Leaf"
PERFORMER "Teto"
FLAGS DCP
INDEX 00 04:44:08
FILE "07 - Teto - Night Leaf.wav" WAVE
INDEX 01 00:00:00
FILE "08 - Arc Of Doves - Daylight.wav" WAVE
TRACK 08 AUDIO
TITLE "Daylight"
PERFORMER "Arc Of Doves"
FLAGS DCP
INDEX 01 00:00:00
FILE "09 - Spaceci - Still A Way To Meet Again.wav" WAVE
TRACK 09 AUDIO
TITLE "Still A Way To Meet Again"
PERFORMER "Spaceci"
FLAGS DCP
INDEX 01 00:00:00
-------------------------------------------------------------------

REM GENRE Ambient
REM DATE 2011
REM DISCID 3F06E005
REM COMMENT "ExactAudioCopy v1.0b3"
PERFORMER ""
TITLE "Layer Forest"
FILE "01 - Arc Of Doves - Zephyr.wav" WAVE
TRACK 01 AUDIO
TITLE "Zephyr"
PERFORMER "Arc Of Doves"
FLAGS DCP
INDEX 01 00:00:00
FILE "02 - Mr. Bizz - Shinano.wav" WAVE
TRACK 02 AUDIO
TITLE "Shinano"
PERFORMER "Mr. Bizz"
FLAGS DCP
INDEX 01 00:00:00
FILE "03 - Martin Schulte - Rain.wav" WAVE
TRACK 03 AUDIO
TITLE "Rain"
PERFORMER "Martin Schulte"
FLAGS DCP
INDEX 01 00:00:00
FILE "04 - Arc Of Doves - Blue In Green.wav" WAVE
TRACK 04 AUDIO
TITLE "Blue In Green"
PERFORMER "Arc Of Doves"
FLAGS DCP
INDEX 01 00:00:00
FILE "05 - Arc Of Doves - Cordifolia.wav" WAVE
TRACK 05 AUDIO
TITLE "Cordifolia"
PERFORMER "Arc Of Doves"
FLAGS DCP
INDEX 01 00:00:00

Год выпуска: 2013
Продолжительность: 00:29:39
Треклист:

01. Never Let Me Go (06:27)
02. Song Of Praise (08:26)
03. Garden In The Rain (03:28)
04. Reflections (04:02)
05. Night Lights (04:39)
06. Winter Light (02:37)

-----------------------

DON'T MODIFY THIS FILE

-----------------------

PERFORMER: auCDtect Task Manager, ver. 1.6.0 RC1 build 1.6.0.1
Copyright (c) 2008-2010 y-soft. All rights reserved
http://y-soft.org

ANALYZER: auCDtect: CD records authenticity detector, version 0.8.2
Copyright (c) 2004 Oleg Berngardt. All rights reserved.
Copyright (c) 2004 Alexander Djourik. All rights reserved.

FILE: 06. Winter Light.flac
Size: 10997377 Hash: CFAE5994BF99EF08DFCEE657C964CBC3 Accuracy: -m0
Conclusion: MPEG 100%
Signature: 9106F8C8233F1D949194C2EC14460539C3ADB983
FILE: 05. Night Lights.flac
Size: 22340491 Hash: EE7B4DA245131A5231813038837D4C25 Accuracy: -m0
Conclusion: MPEG 91%
Signature: CBE8EA72760DA9D18F400A3DA615D490872845D8
FILE: 04. Reflections.flac
Size: 31095116 Hash: BDD4304821EE0F3603FB5DA629F3BC78 Accuracy: -m0
Conclusion: MPEG 100%
Signature: 90DDF2ABBDBD8DCC106E112E67F959D8E372F37F
FILE: 03. Garden In The Rain.flac
Size: 23338061 Hash: B4B2F68978BE7EFF037C469A572382C3 Accuracy: -m0
Conclusion: CDDA 100%
Signature: 493F1345021652A91727FCC04236061843DA0380
FILE: 02. Song Of Praise.flac
Size: 58354465 Hash: 51D907B20FB6DA7A74551E7181D6D372 Accuracy: -m0
Conclusion: CDDA 100%
Signature: E6CE917FDACBFB849EA06044E226A2AD5FA89F8F
FILE: 01. Never Let Me Go.flac
Size: 40648990 Hash: 177D4903D959FA705205DDF0892808DF Accuracy: -m0
Conclusion: CDDA 100%
Signature: BEDC852C3B2175A5628A7BF41AAD65FCA7921C68

Год выпуска: 2015
Продолжительность: 00:09:03
Треклист:

01. Forest (02:28)
02. On the shore (03:50)
03. River (02:45)

-----------------------

DON'T MODIFY THIS FILE

-----------------------

PERFORMER: auCDtect Task Manager, ver. 1.6.0 RC1 build 1.6.0.1
Copyright (c) 2008-2010 y-soft. All rights reserved
http://y-soft.org

ANALYZER: auCDtect: CD records authenticity detector, version 0.8.2
Copyright (c) 2004 Oleg Berngardt. All rights reserved.
Copyright (c) 2004 Alexander Djourik. All rights reserved.

FILE: 03. River.flac
Size: 14060979 Hash: 32BD10EBD63F6CFF241DF6279F266F81 Accuracy: -m0
Conclusion: CDDA 100%
Signature: E2960B2731538C3AF21DED2B8E4BD96A8AB58783
FILE: 02. On the shore.flac
Size: 23181345 Hash: 46E4BA1460DE3A67AF4E6327A08E0463 Accuracy: -m0
Conclusion: CDDA 100%
Signature: 968E68430159CB3B01813C456B66A0C37A9A098C
FILE: 01. Forest.flac
Size: 8187910 Hash: 41EB66517084FDAB7AE24B367FF88C3E Accuracy: -m0
Conclusion: CDDA 100%
Signature: F4CA4A71C2CB4D267452A8951444E3781DCCAC20

Время раздачи: 12/7
[NNMClub.to]_Arc Of Doves FLAC.torrent
 Торрент:   Зарегистрирован
 
Примагнититься

Зарегистрируйтесь и скачайте торрент!
23,3 KB
 Зарегистрирован:   01 Фев 2017 21:01:42
 Размер:   1,76 GB  (
 Рейтинг:    (Голосов: 6)
 Поблагодарили:   30
 Проверка:   Оформление проверено модератором 01 Фев 2017 21:02:15
Как cкачать  ·  Как раздать  ·  Правильно оформить  ·  Поднять ратио!  
Загрузка...
Показать сообщения:   
Начать новую тему   Ответить на тему    Торрент-трекер NNM-Club -> Electronic -> Easy listening (Lossless) Часовой пояс: GMT + 3
Страница 1 из 1

День смеха и юмора отмечается 1 апреля. В этот день принято шутить и разыгрывать друзей, коллег по работе, домашних, словом всех, с кем Вам предстоит увидеться в этот праздник – первое апреля. Первоапрельские розыгрыши, приколы на 1 апреля, первоапрельские шутки должны быть веселыми и безобидными. Приколы на 1 апреля, как правило, удаются в том случае, если человек забыл какой сегодня месяц и день, словом, забыл про 1 апреля – день смеха, шуток, день дурака.

Желаем Вам много улыбок и хорошего настроения в этот день!
С Уважением, администрация NNM-Club :)