Интеллигентный торрент-трекер
canvas not supported
Нас вместе: 4 331 807

Юрий Петухов | Бунт вурдалаков (2015) [M4B|AAC]


 
 
RSS
Начать новую тему   Ответить на тему    Торрент-трекер NNM-Club -> Аудио и Видео -> Аудиокниги (AAC)
Автор Сообщение
trybag ®
Стаж: 4 года 4 мес.
Сообщений: 83
Ratio: 20,726
Поблагодарили: 1858
100%
Юрий Петухов | Бунт вурдалаков
Автор: Юрий Петухов
Год: 2015
Жанр: Фантастика
Продолжительность: 14:29:53
Читает: BIGBAG
Издательство: Аудиокнига своими руками

Описание: Чудом вернувшись из Системы, космодесантник Иван пытается предупредить людей о грозящей им страшной опасности, но ему никто не верит. Иван уходит из космофлота, однако вскоре неизвестная организация предлагает ему странное задание: отправиться в Закрытое пространство, в Сектор Смерти, где из Внепространственных объемов вышел таинственный Объект под условным названием Планета Навей. Но самым неожиданным для землян оказалось то, что планета Навей — это обитаемый многоярусный гипермир, порождение иных вселенных, в котором есть люди, подающие сигналы бедствия. Но перед тем, как отправиться туда, у Ивана блокируют участок памяти, связанный с воспоминаниями о Хархане и ставят вместо него Программу, которая должна включиться в критический момент...

Формат: M4B
Аудиокодек: AAC
Битрейт: 192 kbps
Частота: 48,0 KHz
Разбивка на главы: есть
Вшитая обложка: есть
Музыкальное сопровождение: нет

1. Ангел Возмездия
2. Бунт вурдалаков
3. Погружение во Мрак
4. Вторжение из Ада
5. Меч Вседержителя

Код: выделить все
Общее
Полное имя                               : Бунт вурдалаков 1.m4b
Формат                                   : MPEG-4
Профиль формата                          : Apple audio with iTunes position
Идентификатор кодека                     : M4B  (M4B /mp42)
Размер файла                             : 693 Мбайт
Продолжительность                        : 8 ч. 20 м.
Режим общего битрейта                    : Переменный
Общий поток                              : 194 Кбит/сек
Альбом                                   : Звёздная месть
Альбом/Исполнитель                       : Юрий Петухов
Часть/Положение                          : 2
Часть/Всего                              : 5
Трек                                     : Бунт вурдалаков 1
Трек/Положение                           : 1
Трек/Всего                               : 2
Исполнитель                              : Юрий Петухов
Композитор                               : BIGBAG
Издатель                                 : Аудиокнига своими руками
Жанр                                     : Фантастика
Дата записи                              : 2015
Дата кодирования                         : UTC 2017-02-02 17:13:25
Дата пометки                             : UTC 2017-02-02 20:44:15
Обложка                                  : Yes
©art                                     : Юрий Петухов

Аудио
Идентификатор                            : 1
Формат                                   : AAC
Формат/Информация                        : Advanced Audio Codec
Профиль формата                          : LC
Идентификатор кодека                     : 40
Продолжительность                        : 8 ч. 20 м.
Продолжительность оригинала              : 8 ч. 20 м.
Вид битрейта                             : Переменный
Битрейт                                  : 192 Кбит/сек
Максимальный битрейт                     : 196 Кбит/сек
Каналы                                   : 2 канала
Расположение каналов                     : Front: L R
Частота                                  : 48,0 КГц
Частота кадров                           : 46,875 кадров/сек (1024 spf)
Метод сжатия                             : С потерями
Размер потока                            : 687 Мбайт (99%)
Размер потока оригинала                  : 687 Мбайт (99%)
Дата кодирования                         : UTC 2017-02-02 17:13:25
Дата пометки                             : UTC 2017-02-02 20:44:15
Menus                                    : 2

Меню
Идентификатор                            : 2
Идентификатор кодека                     : text
Продолжительность                        : 8 ч. 20 м.
Язык                                     : English
Дата кодирования                         : UTC 2017-02-02 20:42:06
Дата пометки                             : UTC 2017-02-02 20:42:06
Menu For                                 : 1
Продолжительность оригинала              : 30000662
Source_Duration_FirstFrame               : -5620096
Source_Duration_LastFrame                : 5642646
Количество кадров оригинала              : 3
Размер потока оригинала                  : 193
Счётчик кадров                           : 3
Размер потока                            : 193
00:00:00.000                             : Часть первая. ЗАКОЛДОВАННАЯ ПЛАНЕТА
01:12:52.607                             : Часть вторая. РЕЗИДЕНТ
03:59:25.312                             : Часть третья. ЗЛОЙ МОРОК
Вид битрейта                             : VBR
Общее
Полное имя                               : Бунт вурдалаков 2.m4b
Формат                                   : MPEG-4
Профиль формата                          : Apple audio with iTunes position
Идентификатор кодека                     : M4B  (M4B /mp42)
Размер файла                             : 512 Мбайт
Продолжительность                        : 6 ч. 9 м.
Режим общего битрейта                    : Переменный
Общий поток                              : 194 Кбит/сек
Альбом                                   : Звездная месть
Альбом/Исполнитель                       : Юрий Петухов
Часть/Положение                          : 2
Часть/Всего                              : 5
Трек                                     : Бунт вурдалаков 2
Трек/Положение                           : 2
Трек/Всего                               : 2
Исполнитель                              : Юрий Петухов
Композитор                               : BIGBAG
Издатель                                 : Аудиокнига своими руками
Жанр                                     : Фантастика
Дата записи                              : 2015
Дата кодирования                         : UTC 2017-02-02 17:29:59
Дата пометки                             : UTC 2017-02-02 20:44:24
Обложка                                  : Yes
©art                                     : Юрий Петухов

Аудио
Идентификатор                            : 1
Формат                                   : AAC
Формат/Информация                        : Advanced Audio Codec
Профиль формата                          : LC
Идентификатор кодека                     : 40
Продолжительность                        : 6 ч. 9 м.
Вид битрейта                             : Переменный
Битрейт                                  : 192 Кбит/сек
Максимальный битрейт                     : 196 Кбит/сек
Каналы                                   : 2 канала
Расположение каналов                     : Front: L R
Частота                                  : 48,0 КГц
Частота кадров                           : 46,875 кадров/сек (1024 spf)
Метод сжатия                             : С потерями
Размер потока                            : 508 Мбайт (99%)
Дата кодирования                         : UTC 2017-02-02 17:29:59
Дата пометки                             : UTC 2017-02-02 20:44:24
Menus                                    : 2

Меню
Идентификатор                            : 2
Идентификатор кодека                     : text
Продолжительность                        : 6 ч. 9 м.
Язык                                     : English
Дата кодирования                         : UTC 2017-02-02 20:43:21
Дата пометки                             : UTC 2017-02-02 20:43:21
Menu For                                 : 1
Duration_FirstFrame                      : -6046550
Duration_LastFrame                       : -11870208
00:00:00.000                             : Часть четвертая. ЛАБИРИНТЫ УЖАСА
02:02:03.242                             : Часть пятая. ОБОРОТЕНЬ
05:44:53.034                             : Эпилог. ЧЁРНОЕ ЗАКЛЯТЬЕ
Вид битрейта                             : VBR

[NNMClub.to]_Bunt vurdalakov.torrent
 Торрент: Платиновая раздача  Зарегистрирован
 
Примагнититься

Скачать
 Зарегистрирован:   02 Фев 2017 23:49:00
 Размер:   1,18 GB  (
 Рейтинг:   4,5 (Голосов: 15)
 Поблагодарили:   51
 Проверка:   Оформление проверено модератором 03 Фев 2017 14:04:36
Как cкачать  ·  Как раздать  ·  Правильно оформить  ·  Поднять ратио!  
OJlEG​_TOJl​RHN4​
Стаж: 1 год 11 мес.
Сообщений: 755
Ratio: 14,366
Поблагодарили: 17134
100%
Откуда: Южный Урал
ussr.gif
Где можно скачать роман в книжном формате FB2?

_________________
Andre62
Стаж: 6 лет 6 мес.
Сообщений: 317
Ratio: 4,905
100%
russia.gif
OJlEG_TOJlRHN4 писал(а): Перейти к сообщению
Где можно скачать роман в книжном формате FB2?


Тут Юрий Петухов | Сборник произведений (1983-2009) [FB2]
serjmd
Стаж: 5 лет 5 мес.
Сообщений: 6
Ratio: 0,995
0.22%
Serik Bekov писал(а): Перейти к сообщению
В 90-ые выходили книги Петухова.... Такое барахло(((
Экий вы, батенька, деликатный.
DAO5
Стаж: 1 год 4 мес.
Сообщений: 453
Ratio: 15,85
Поблагодарили: 358
100%
Прекрасная книга. Спасибо за труды!
НатаZ
Стаж: 7 лет 6 мес.
Сообщений: 351
Ratio: 14,306
Поблагодарили: 886
76.92%
russia.gif
serjmd
не вижу оригинального поста, только цитату. На трекере ввели цензуру???? :мегашок:
trybag ®
Стаж: 4 года 4 мес.
Сообщений: 83
Ratio: 20,726
Поблагодарили: 1858
100%
НатаZ писал(а): Перейти к сообщению
serjmd
не вижу оригинального поста, только цитату. На трекере ввели цензуру???? :мегашок:


5 февраля 2007г. Перовский районный суд (Новогиреевская, 52, судья Заздравнова Татьяна Владимировна, каб.3, тел. 302.91.63) с вопиющими нарушениями Конституции и законодательства (без адвоката, без независимой экспертизы, без прения сторон и гласности) принял беспрецедентное Решение о наличии в книгах Юрия Петухова «Четвертая Мировая» и «Геноцид. Общество Истребления» (Дневники Писателя 1999-2003 гг.) признаков мыслепреступникскими, их изъятии из издательства, магазинов, библиотек и уничтожении. Тем самым в России впервые (после фашистской Германии, когда книги жгли на площадях) создан прецедент запрета художественной литературы и травли писателей, высказывающих свои убеждения.
В такой С..ране живём, а вы а каком-то посте :убится ап стену:
DAO5
Стаж: 1 год 4 мес.
Сообщений: 453
Ratio: 15,85
Поблагодарили: 358
100%
[quote="trybag";p="8819063"]
НатаZ писал(а): Перейти к сообщению

В такой С..ране живём, а вы а каком-то посте :убится ап стену:

В прекрасной стране живем, а Петухова запрещала не страна, а те, кто хочет ее превратить
в колонию для обслуживающего персонала теневых могуществ о чем сам Юрий Дмитриевич и писал неоднократно в своей прекрасной и вдохновенной публицистике. Вы, вроде бы, адепт его творчества? Нет?
Вы Великую Страну не путайте, пожалуйста, с гельминтами, сосущими ее сок уже какой век.
НатаZ
Стаж: 7 лет 6 мес.
Сообщений: 351
Ratio: 14,306
Поблагодарили: 886
76.92%
russia.gif
DAO5, зачем вы приписываете мне чужие слова? Это не я написала, а trybag. И я никакой не адепт кого бы то ни было или чего бы то ни было
trybag ®
Стаж: 4 года 4 мес.
Сообщений: 83
Ratio: 20,726
Поблагодарили: 1858
100%
Для Вас, для тех кто ИЩЕТ
Секретов никаких нет, книгу читал в журнальном варианте, потом выписал сборник произведений Ю.Петухова, но с развалом государства получил не весь комплект. На данный момент интернет расширился и произведения Ю.Петухова стали доступны. Повторюсь, что в своё время просил Геннадия Коршунова озвучить роман "Звёздная месть" но увы. Потом появилась озвучка от BIGBAG, стал слушать но что-то не по мне. Поэтому потратил несколько ночей изменил скорость и тон (не в обиду к BIGBAG) из моно сделал псевдостерео, что более приятнее слушать в наушниках, из старых журналов нашёл иллюстрации сфотожопил это все хозяйство, теперь слушаю и наслаждаюсь. Выложил на любимом NoNaMe ClUb , можно сказать Эксклюзив, в формате M4B я не нашел (может плохо искал), если кому-то не нравится проходите мимо, или пишите модератору пускай удалит мои релизы. Не забывайте,что Издательство: Аудиокнига своими руками, и думаю вы не смотрели спектрограмму оригинала озвучки в mp3 (это я наверно отвлекся ). Всем спасибо.
Показать сообщения:   
Начать новую тему   Ответить на тему    Торрент-трекер NNM-Club -> Аудио и Видео -> Аудиокниги (AAC) Часовой пояс: GMT + 3
Страница 1 из 1