Интеллигентный торрент-трекер
canvas not supported
Нас вместе: 4 348 383

Sraunus - Discography 13 Releases (2010-2017) [FLAC|Lossless|tracks+.cue, tracks] <Dub Techno, Ambient, Minimal>


 
 
RSS
Начать новую тему   Ответить на тему    Торрент-трекер NNM-Club -> Electronic -> House, Techno, Electro, Minimal (Lossless)
Автор Сообщение
vilator ®
Модератор Музыки
RG Music
 
Стаж: 8 лет 1 мес.
Сообщений: 5792
Ratio: 131,169
Поблагодарили: 114839
100%
Откуда: Minsk
pirates.png
Sraunus Discography

Жанр: Dub Techno, Ambient, Minimal • Страна: Lithuania • Год издания: 2010-2017 • Тип издания: CD, WEB
Аудиокодек: FLAC (*.flac) • Тип рипа: tracks+.cue, tracks • Продолжительность: 11:18:53 • Источник: PTH, bandcamp
Треклист:
Год выпуска: 2010
Продолжительность: 01:17:32
Треклист:

01. 13 Letland (13:23)
02. Dospele (11:29)
03. Mass (12:50)
04. Hvezda Tanec (09:24)
05. Osto (10:47)
06. Festa (09:47)
07. Festa (Grad_U Reconstruction) (09:52)

-----------------------

DON'T MODIFY THIS FILE

-----------------------

PERFORMER: auCDtect Task Manager, ver. 1.6.0 RC1 build 1.6.0.1
Copyright (c) 2008-2010 y-soft. All rights reserved
http://y-soft.org

ANALYZER: auCDtect: CD records authenticity detector, version 0.8.2
Copyright (c) 2004 Oleg Berngardt. All rights reserved.
Copyright (c) 2004 Alexander Djourik. All rights reserved.

FILE: 07. Festa (Grad_U Reconstruction).flac
Size: 56035246 Hash: A0E65D807BA96D8DDF855A2C325D9690 Accuracy: -m0
Conclusion: CDDA 100%
Signature: D781F7685E773E3B45EC1FD264C8ACA1ED6EAB6A
FILE: 06. Festa.flac
Size: 60653533 Hash: 3050EE528DF4B60F558C98D62E384011 Accuracy: -m0
Conclusion: CDDA 100%
Signature: 3E8F1704E9B3AB483029EACFAA7FDEA831B053F3
FILE: 05. Osto.flac
Size: 69806785 Hash: 180299AC62DCBA512A6FE6C794ECB577 Accuracy: -m0
Conclusion: CDDA 100%
Signature: 5A02C4DF6B5BCAA18AE4D6DF051AC22E175B9720
FILE: 04. Hvezda Tanec.flac
Size: 59924609 Hash: 01594F52FE4D788C0BB0A9174E4C0D81 Accuracy: -m0
Conclusion: CDDA 99%
Signature: 455E615118150475DE39A5C939DC376F5885741C
FILE: 03. Mass.flac
Size: 82533139 Hash: 6D6679F3F00CAB22A95FD0F21527677D Accuracy: -m0
Conclusion: CDDA 100%
Signature: 8BB169696AA072E6B09A3EC43CEE48E7BD6B831A
FILE: 02. Dospele.flac
Size: 68383806 Hash: F5082B25FBB193A288D4EF2313B9EA6D Accuracy: -m0
Conclusion: CDDA 100%
Signature: 925A2BE0EE471E87E6D0E8416DFE762A2214F5E6
FILE: 01. 13 Letland.flac
Size: 90203936 Hash: AFA1FE8D6B6431DCC0D1514CA99F395B Accuracy: -m0
Conclusion: CDDA 100%
Signature: F51DBE973BCB056A960F9DAB8D74A939BD6250B3

Год выпуска: 2011
Продолжительность: 00:46:33
Треклист:

01. Gulijermo (06:10)
02. Haga (08:05)
03. Der Alte Ist Tot (06:40)
04. Jobon (08:07)
05. Kartkle (05:47)
06. Paddddusimo (07:00)
07. Letapeledziai (04:44)

-----------------------

DON'T MODIFY THIS FILE

-----------------------

PERFORMER: auCDtect Task Manager, ver. 1.6.0 RC1 build 1.6.0.1
Copyright (c) 2008-2010 y-soft. All rights reserved
http://y-soft.org

ANALYZER: auCDtect: CD records authenticity detector, version 0.8.2
Copyright (c) 2004 Oleg Berngardt. All rights reserved.
Copyright (c) 2004 Alexander Djourik. All rights reserved.

FILE: 07. Letapeledziai.flac
Size: 31700284 Hash: B7321B1EC786954202365275A1D74E4A Accuracy: -m0
Conclusion: CDDA 100%
Signature: A7BA384AB1E317291CF674C334B242A1D9756D46
FILE: 06. Paddddusimo.flac
Size: 45253150 Hash: ACB6DE29B2FB4395DF48F029F5109452 Accuracy: -m0
Conclusion: CDDA 100%
Signature: D3D95494CC9AD4BF824D82B80A9AFA9C8D7BC24B
FILE: 05. Kartkle.flac
Size: 38142855 Hash: F2DA321E6E2288EF85AD1D2B78C05CCB Accuracy: -m0
Conclusion: CDDA 100%
Signature: CD10461BBCE78FDFC0930DBE09DE119619B69BA7
FILE: 04. Jobon.flac
Size: 57450738 Hash: F50DEA46E0874B23944340EF2073ABEB Accuracy: -m0
Conclusion: CDDA 100%
Signature: 1E64533B047B615A4C2C973BB4E6C596894CF475
FILE: 03. Der Alte Ist Tot.flac
Size: 47612326 Hash: 7C74D95E4F440D0C6D73C6915E67BCA9 Accuracy: -m0
Conclusion: CDDA 100%
Signature: 562A320A619CF0A1E101E6308F370BD3558D36D1
FILE: 02. Haga.flac
Size: 54689236 Hash: 25BB069424FAB5F0FCB0C5680C1E1F7A Accuracy: -m0
Conclusion: CDDA 100%
Signature: E9A9219318EE101AE1CEF9A86F180014C0F9DC08
FILE: 01. Gulijermo.flac
Size: 45930999 Hash: 9FD101CFC579180A734FE260AF065BDB Accuracy: -m0
Conclusion: CDDA 99%
Signature: 721B492BCBBEFBD19A60F8A14F4118EC42BDD0A8

Год выпуска: 2012
Продолжительность: 01:17:43
Треклист:

01. Letland (13:24)
02. Dospele (11:32)
03. Mass (12:50)
04. Hvezda Tanec (09:26)
05. Osto (10:47)
06. Festa (09:49)
07. Festa (Grad_U Reconstruction) (09:55)

-----------------------

DON'T MODIFY THIS FILE

-----------------------

PERFORMER: auCDtect Task Manager, ver. 1.6.0 RC1 build 1.6.0.1
Copyright (c) 2008-2010 y-soft. All rights reserved
http://y-soft.org

ANALYZER: auCDtect: CD records authenticity detector, version 0.8.2
Copyright (c) 2004 Oleg Berngardt. All rights reserved.
Copyright (c) 2004 Alexander Djourik. All rights reserved.

FILE: 07. Festa (Grad_U Reconstruction).flac
Size: 56056366 Hash: 2760A9C4237DA9655855215E6EDC05E5 Accuracy: -m0
Conclusion: CDDA 99%
Signature: 6C9B26F058CECB5FFC94A867DCFC9ECDB591B95A
FILE: 06. Festa.flac
Size: 60706215 Hash: F692CCA0604B338232B657AEDCC2FD6F Accuracy: -m0
Conclusion: CDDA 99%
Signature: 037FE7AA9C7B6DED571923B764F2AF3B61A3F741
FILE: 05. Osto.flac
Size: 69563367 Hash: 180299AC62DCBA512A6FE6C794ECB577 Accuracy: -m0
Conclusion: CDDA 100%
Signature: 9EF8FBDCC434B52869961100A1855705BA8DED15
FILE: 04. Hvezda Tanec.flac
Size: 59889348 Hash: A033163EC421D79C70E583F3A9F2C0DA Accuracy: -m0
Conclusion: CDDA 99%
Signature: C4C1F4AD84DF0E41EC1A3602D023A1E11E8101C2
FILE: 03. Mass.flac
Size: 82158765 Hash: 6D6679F3F00CAB22A95FD0F21527677D Accuracy: -m0
Conclusion: CDDA 100%
Signature: 0880653507152B0A40D8BE681695CCBB35016619
FILE: 02. Dospele.flac
Size: 68652048 Hash: 5D26869AE6026BA2453B58F22E1783D8 Accuracy: -m0
Conclusion: CDDA 100%
Signature: 29E562D9C86DB5972C1439E2CA85377C13991B3D
FILE: 01. Letland.flac
Size: 89616760 Hash: 50A6DF4D4F90592855803AADAFCA63F2 Accuracy: -m0
Conclusion: CDDA 100%
Signature: 99577AD4775C7CABC8A0E584F423ECF3FCABA9A8

Год выпуска: 2013
Продолжительность: 01:11:46
Треклист:

01. Gut Uo (07:59)
02. Infinitudes (11:47)
03. Junosfera (06:26)
04. Asperatus Clouds (10:42)
05. Flying Motor (06:06)
06. XI (08:58)
07. Dunes Of Mars (11:37)
08. Tranquility Trail (08:11)

Exact Audio Copy V1.0 beta 3 from 29. August 2011

EAC extraction logfile from 1. August 2013, 20:53

Sraunus / Asperatus Clouds

Used drive : BENQ CDRW 5232X Adapter: 1 ID: 0

Read mode : Secure
Utilize accurate stream : Yes
Defeat audio cache : Yes
Make use of C2 pointers : No

Read offset correction : 738
Overread into Lead-In and Lead-Out : Yes
Fill up missing offset samples with silence : Yes
Delete leading and trailing silent blocks : No
Null samples used in CRC calculations : Yes
Used interface : Installed external ASPI interface
Gap handling : Appended to previous track

Used output format : User Defined Encoder
Selected bitrate : 1024 kBit/s
Quality : High
Add ID3 tag : No
Command line compressor : C:\Program Files (x86)\Flac\flac.exe
Additional command line options : -8 -V -T "ARTIST=%artist%" -T "TITLE=%title%" -T "ALBUM=%albumtitle%" -T "DATE=%year%" -T "TRACKNUMBER=%tracknr%" -T "GENRE=%genre%" -T "PERFORMER=%albuminterpret%" -T "COMPOSER=%composer%" %haslyrics%--tag-from-file=LYRICS="%lyricsfile%"%haslyrics% -T "ALBUMARTIST=%albumartist%" -T "DISCNUMBER=%cdnumber%" -T "TOTALDISCS=%totalcds%" -T "TOTALTRACKS=%numtracks%" -T "COMMENT=%comment%" %source% -o %dest%

TOC of the extracted CD

Track | Start | Length | Start sector | End sector
---------------------------------------------------------
1 | 0:00.00 | 7:58.54 | 0 | 35903
2 | 7:58.54 | 11:46.50 | 35904 | 88903
3 | 19:45.29 | 6:25.61 | 88904 | 117839
4 | 26:11.15 | 10:41.46 | 117840 | 165960
5 | 36:52.61 | 6:05.45 | 165961 | 193380
6 | 42:58.31 | 8:58.35 | 193381 | 233765
7 | 51:56.66 | 11:37.19 | 233766 | 286059
8 | 63:34.10 | 8:10.62 | 286060 | 322871

Track 1

Filename E:\MP3\EAC\Sraunus - Asperatus Clouds (Album FLAC)\01 Gut Uo.wav

Pre-gap length 0:00:02.00

Peak level 91.9 %
Extraction speed 5.5 X
Track quality 99.9 %
Test CRC 33366502
Copy CRC 33366502
Track not present in AccurateRip database
Copy OK

Track 2

Filename E:\MP3\EAC\Sraunus - Asperatus Clouds (Album FLAC)\02 Infinitudes.wav

Pre-gap length 0:00:01.98

Peak level 97.0 %
Extraction speed 5.9 X
Track quality 100.0 %
Test CRC 7A10600A
Copy CRC 7A10600A
Track not present in AccurateRip database
Copy OK

Track 3

Filename E:\MP3\EAC\Sraunus - Asperatus Clouds (Album FLAC)\03 Junosfera.wav

Pre-gap length 0:00:01.98

Peak level 97.8 %
Extraction speed 5.7 X
Track quality 100.0 %
Test CRC 5B975085
Copy CRC 5B975085
Track not present in AccurateRip database
Copy OK

Track 4

Filename E:\MP3\EAC\Sraunus - Asperatus Clouds (Album FLAC)\04 Asperatus Clouds.wav

Pre-gap length 0:00:01.98

Peak level 98.4 %
Extraction speed 6.0 X
Track quality 100.0 %
Test CRC 2981C6F7
Copy CRC 2981C6F7
Track not present in AccurateRip database
Copy OK

Track 5

Filename E:\MP3\EAC\Sraunus - Asperatus Clouds (Album FLAC)\05 Flying Motor.wav

Pre-gap length 0:00:01.98

Peak level 87.3 %
Extraction speed 5.8 X
Track quality 100.0 %
Test CRC F170BD71
Copy CRC F170BD71
Track not present in AccurateRip database
Copy OK

Track 6

Filename E:\MP3\EAC\Sraunus - Asperatus Clouds (Album FLAC)\06 XI.wav

Pre-gap length 0:00:01.98

Peak level 96.7 %
Extraction speed 5.5 X
Track quality 99.9 %
Test CRC 488FD878
Copy CRC 488FD878
Track not present in AccurateRip database
Copy OK

Track 7

Filename E:\MP3\EAC\Sraunus - Asperatus Clouds (Album FLAC)\07 Dunes Of Mars.wav

Pre-gap length 0:00:01.98

Peak level 96.9 %
Extraction speed 6.0 X
Track quality 100.0 %
Test CRC E28E6159
Copy CRC E28E6159
Track not present in AccurateRip database
Copy OK

Track 8

Filename E:\MP3\EAC\Sraunus - Asperatus Clouds (Album FLAC)\08 Tranquility Trail.wav

Pre-gap length 0:00:01.98

Peak level 96.4 %
Extraction speed 6.0 X
Track quality 100.0 %
Test CRC 8E0734AA
Copy CRC 8E0734AA
Track not present in AccurateRip database
Copy OK

None of the tracks are present in the AccurateRip database

No errors occurred

End of status report

---- CUETools DB Plugin V2.1.3

[CTDB TOCID: wRuyJUj8iki2VKJQeu69mP0BXTU-] disk not present in database, Submit result: database access error: Timeout für Vorgang überschritten

==== Log checksum BB67C904CDC1149CB524688DC1A88E2D534AEB26F214539D03787D3DE6591486 ====


REM GENRE "Dub Techno"
REM DATE 2013
REM DISCID 6610D008
REM COMMENT "ExactAudioCopy v1.0b3"
PERFORMER "Sraunus"
TITLE "Asperatus Clouds"
FILE "01 Gut Uo.wav" WAVE
TRACK 01 AUDIO
TITLE "Gut Uo"
PERFORMER "Sraunus"
INDEX 01 00:00:00
TRACK 02 AUDIO
TITLE "Infinitudes"
PERFORMER "Sraunus"
INDEX 00 07:56:55
FILE "02 Infinitudes.wav" WAVE
INDEX 01 00:00:00
TRACK 03 AUDIO
TITLE "Junosfera"
PERFORMER "Sraunus"
INDEX 00 11:44:51
FILE "03 Junosfera.wav" WAVE
INDEX 01 00:00:00
TRACK 04 AUDIO
TITLE "Asperatus Clouds"
PERFORMER "Sraunus"
INDEX 00 06:23:62
FILE "04 Asperatus Clouds.wav" WAVE
INDEX 01 00:00:00
TRACK 05 AUDIO
TITLE "Flying Motor"
PERFORMER "Sraunus"
INDEX 00 10:39:47
FILE "05 Flying Motor.wav" WAVE
INDEX 01 00:00:00
TRACK 06 AUDIO
TITLE "XI"
PERFORMER "Sraunus"
INDEX 00 06:03:46
FILE "06 XI.wav" WAVE
INDEX 01 00:00:00
TRACK 07 AUDIO
TITLE "Dunes Of Mars"
PERFORMER "Sraunus"
INDEX 00 08:56:36
FILE "07 Dunes Of Mars.wav" WAVE
INDEX 01 00:00:00
TRACK 08 AUDIO
TITLE "Tranquility Trail"
PERFORMER "Sraunus"
INDEX 00 11:35:20
FILE "08 Tranquility Trail.wav" WAVE
INDEX 01 00:00:00

Год выпуска: 2014
Продолжительность: 01:26:48
Треклист:

01. Susilaikymas (06:14)
02. Emigrants Song (Srauni Versija) (06:32)
03. Cloud Jumper (03:33)
04. Viskas Prasidėjo Panevėžy (06:16)
05. Merga Is Jutubes Su Daina Skinny Love (Šepečio Versija) (03:53)
06. Ogust - You Wanna Fuck Me (Su Šepečiu) (05:58)
07. Medžių Augintojas (06:27)
08. No Vember (06:41)
09. Ski Laufen (09:10)
10. Zijonistas (08:48)
11. Tripoha (09:02)
12. Vilnelė (Šepetys Lindo) (09:12)
13. Supynių Svaigulys (Išėjimas) (05:02)

-----------------------

DON'T MODIFY THIS FILE

-----------------------

PERFORMER: auCDtect Task Manager, ver. 1.6.0 RC1 build 1.6.0.1
Copyright (c) 2008-2010 y-soft. All rights reserved
http://y-soft.org

ANALYZER: auCDtect: CD records authenticity detector, version 0.8.2
Copyright (c) 2004 Oleg Berngardt. All rights reserved.
Copyright (c) 2004 Alexander Djourik. All rights reserved.

FILE: 13. Supynių Svaigulys (Išėjimas).flac
Size: 33754325 Hash: 0874062F5292435D1B605B4FCD8C84DF Accuracy: -m0
Conclusion: CDDA 100%
Signature: F758408B2F6EB3A91B7014EBB4518B5F9EE58342
FILE: 12. Zulusas - Vilnelė (Šepetys Lindo).flac
Size: 63891906 Hash: 106A4ACF288FC7C1918F151F7B965088 Accuracy: -m0
Conclusion: CDDA 100%
Signature: C5534374938D9CA1E3DE169FCC4859D1932A551A
FILE: 11. Tripoha.flac
Size: 60448330 Hash: 87048FBDA089503771F6DE89254234A3 Accuracy: -m0
Conclusion: CDDA 100%
Signature: 32EA9A458858F81AF81F2DC6883FF334EBA8A594
FILE: 10. Zijonistas.flac
Size: 54278462 Hash: E0ED5AC5D94E01A54CCD06316BC95357 Accuracy: -m0
Conclusion: CDDA 100%
Signature: D2EE6DA78DCFBA60E06A45107D920A1C5F49ED2E
FILE: 09. Ski Laufen.flac
Size: 64022860 Hash: E25C5C2DCDACA3D6676E459F8B973F1D Accuracy: -m0
Conclusion: CDDA 99%
Signature: EB70C0A003B558ADCEC9FD4AC5CC3E45C8A26BC7
FILE: 08. No Vember.flac
Size: 42401968 Hash: 2CB31C5D72558E6988A03EC570E19753 Accuracy: -m0
Conclusion: MPEG 100%
Signature: 92F3F6EC913EE1A52A6F3892D7A72E2DB3275D6A
FILE: 07. Medžių Augintojas.flac
Size: 46178531 Hash: C933DFEFDAED47C10A0E10F0356E1A52 Accuracy: -m0
Conclusion: CDDA 100%
Signature: AB74018B3956628BFF569C466E72AD3AD38B2AA9
FILE: 06. Ogust - You Wanna Fuck Me (Su Šepečiu).flac
Size: 40310066 Hash: 40E6F179DFE31C3B90FB934704280761 Accuracy: -m0
Conclusion: CDDA 100%
Signature: F5FAC714025EF2E726ADD217219632E036BCE8A3
FILE: 05. Merga Is Jutubes Su Daina Skinny Love (Šepečio Versija).flac
Size: 22718868 Hash: 232B70AE02A2C011B8D74D4C9EF89084 Accuracy: -m0
Conclusion: CDDA 100%
Signature: 0921A22A4A760E4DE0A34196189973BCC2C49E6D
FILE: 04. Viskas Prasidėjo Panevėžy.flac
Size: 34206594 Hash: FC484A01834206BDC30A0258EE64C235 Accuracy: -m0
Conclusion: CDDA 100%
Signature: D162745D03A4662BF6479406FE11861BF25C2DE3
FILE: 03. Cloud Jumper.flac
Size: 24284144 Hash: 13E6D56B89F6FB34D4C9F0F96F3F5304 Accuracy: -m0
Conclusion: CDDA 100%
Signature: 337C387A0DB2116F8176345B8ACFE2FFA9A816BF
FILE: 02. The Perfect Pill - Emigrants Song (Srauni Versija).flac
Size: 44880901 Hash: 8CECCA8D6B080E0BF8A7D602DDE00109 Accuracy: -m0
Conclusion: CDDA 100%
Signature: 68E47F19448ACFCC68FB6F1C4C6AFD98A04052B6
FILE: 01. Susilaikymas.flac
Size: 47064293 Hash: 9C27794527716406D3BD46F1070DD313 Accuracy: -m0
Conclusion: CDDA 100%
Signature: 548C94761DE7FC7CF8E8BC7001C40828CA970487

Год выпуска: 2014
Продолжительность: 00:34:02
Треклист:

01. Gas (08:02)
02. Spiralen (08:31)
03. Varpines (09:09)
04. Grey (08:20)

-----------------------

DON'T MODIFY THIS FILE

-----------------------

PERFORMER: auCDtect Task Manager, ver. 1.6.0 RC1 build 1.6.0.1
Copyright (c) 2008-2010 y-soft. All rights reserved
http://y-soft.org

ANALYZER: auCDtect: CD records authenticity detector, version 0.8.2
Copyright (c) 2004 Oleg Berngardt. All rights reserved.
Copyright (c) 2004 Alexander Djourik. All rights reserved.

FILE: 04. Grey.flac
Size: 58684820 Hash: 4D702EEA0D880DC4CFA2CAD311A064E6 Accuracy: -m0
Conclusion: CDDA 100%
Signature: CD93F2AA805F3CDA94BC3996600F9B827975756F
FILE: 03. Varpines.flac
Size: 66953740 Hash: 54C136D70A8FF5DB9A4F3D94BFF03618 Accuracy: -m0
Conclusion: CDDA 100%
Signature: 7CB9AE0FC71743A595AF54F7E77ADF1EF074F131
FILE: 02. Spiralen.flac
Size: 53035112 Hash: 6BCE54543CFE8513E5A034959C81EEBB Accuracy: -m0
Conclusion: MPEG 93%
Signature: 961EC5EADF76B12B98D1A09FE1F7EBBEF472E29E
FILE: 01. Gas.flac
Size: 48354886 Hash: 1FB2E77CEA954C8AE2BF66F4F5F6DC12 Accuracy: -m0
Conclusion: CDDA 100%
Signature: 5FD2CE4115E9CE031673871D47674579352E9ACF

Год выпуска: 2015
Продолжительность: 01:05:40
Треклист:

01. Vienuolio (10:51)
02. Slunce Radar (06:52)
03. Summer Think (06:45)
04. Vacation Tech (04:46)
05. Warm Night (09:36)
06. Squares Bird (15:10)
07. America's Spring (11:40)

-----------------------

DON'T MODIFY THIS FILE

-----------------------

PERFORMER: auCDtect Task Manager, ver. 1.6.0 RC1 build 1.6.0.1
Copyright (c) 2008-2010 y-soft. All rights reserved
http://y-soft.org

ANALYZER: auCDtect: CD records authenticity detector, version 0.8.2
Copyright (c) 2004 Oleg Berngardt. All rights reserved.
Copyright (c) 2004 Alexander Djourik. All rights reserved.

FILE: 07. America's Spring.flac
Size: 82091312 Hash: E40CD6E4D89AD8E1F5CD1E0531035D31 Accuracy: -m0
Conclusion: CDDA 100%
Signature: CF38CF658CAC2A687DC87AE6069380E897E5E9B0
FILE: 06. Squares Bird.flac
Size: 69126170 Hash: 245345D359A00C9A61A7E4BE196859DE Accuracy: -m0
Conclusion: MPEG 95%
Signature: E996BCB947E131437B0EF3E51C97F957EDB86E54
FILE: 05. Warm Night.flac
Size: 59480784 Hash: A6BFBE7FC315E33E1FC173D45421C6CA Accuracy: -m0
Conclusion: CDDA 100%
Signature: BCFF8D44460037033C46A3D89EEFC1157D3E3780
FILE: 04. Vacation Tech.flac
Size: 24964264 Hash: 2A11CE8EA294F5C36064EEA591439185 Accuracy: -m0
Conclusion: CDDA 100%
Signature: 91E04AD81728A66226525399312693B71DAA159F
FILE: 03. Summer Think.flac
Size: 48261504 Hash: E153BC435896D29F9BE24D0EFBB3AF37 Accuracy: -m0
Conclusion: CDDA 100%
Signature: 2A45B294C524E5FC6015D44F9EC8557F351A7D85
FILE: 02. Slunce Radar.flac
Size: 37796560 Hash: 32E61C3181A80AE038F3F0C354E11506 Accuracy: -m0
Conclusion: CDDA 100%
Signature: 1C16D6FDE16A2A3EF7558ECE6D7C35A1FA8B098E
FILE: 01. Vienuolio.flac
Size: 70654044 Hash: 1D4A05156B2B1A4B60A8D9B84191CCC8 Accuracy: -m0
Conclusion: CDDA 100%
Signature: 207476705DCC19D5D4DBC643D5174AE412C2F5C0

Год выпуска: 2015
Продолжительность: 00:42:48
Треклист:

01. Hitana (01:50)
02. Utopija (04:25)
03. Galyma (05:26)
04. Motina (04:58)
05. Mosera (05:41)
06. Hersa (01:38)
07. Litorina (02:37)
08. Jura (02:37)
09. Tyraja (03:48)
10. Sita (03:19)
11. Galia (03:20)
12. Mazna (03:09)

-----------------------

DON'T MODIFY THIS FILE

-----------------------

PERFORMER: auCDtect Task Manager, ver. 1.6.0 RC1 build 1.6.0.1
Copyright (c) 2008-2010 y-soft. All rights reserved
http://y-soft.org

ANALYZER: auCDtect: CD records authenticity detector, version 0.8.2
Copyright (c) 2004 Oleg Berngardt. All rights reserved.
Copyright (c) 2004 Alexander Djourik. All rights reserved.

FILE: 12. Mazna.flac
Size: 10723914 Hash: 7FD9F5EE36A902FA634761CD6EF222A3 Accuracy: -m0
Conclusion: CDDA 100%
Signature: 667059A15CF199AF0D1DA20DE1272784CAD676EA
FILE: 11. Galia.flac
Size: 14911437 Hash: 89CB603B37D732E83AB83581E048F8F2 Accuracy: -m0
Conclusion: CDDA 85%
Signature: BDFA44980F1EDB3265587B2374342DA841FF1149
FILE: 10. Sita.flac
Size: 13812415 Hash: C6E0A5D5F40513BB4F54AF4A7B55BC21 Accuracy: -m0
Conclusion: CDDA 100%
Signature: F87EBB3DA8A8029D03F1C7279162C611F36C1507
FILE: 09. Tyraja.flac
Size: 16558217 Hash: 184073EAEA391781F4B3AC1F2C8CF2F7 Accuracy: -m0
Conclusion: CDDA 100%
Signature: DC51D6401BF5639B0EE3AED44F72E8151E2EECD5
FILE: 08. Jura.flac
Size: 13737190 Hash: 7C019DCDF49617AA1C2CC66584FCBED8 Accuracy: -m0
Conclusion: CDDA 100%
Signature: 3EFD2C2CB5736599746FD1EBA7EC18B33F4A595F
FILE: 07. Litorina.flac
Size: 15275353 Hash: BBC6CAAD10BED4D1071AAED7E268BD5C Accuracy: -m0
Conclusion: CDDA 100%
Signature: 7C55997BA38EF5151E2B6957A5D4F5CCA7B1CD08
FILE: 06. Hersa.flac
Size: 7265965 Hash: D6C3FE3E47558FD6A163B016A06120A5 Accuracy: -m0
Conclusion: CDDA 100%
Signature: 26C17132EC9E91071D078B023709B461867C4B99
FILE: 05. Mosera.flac
Size: 29440642 Hash: 451D32202EC5B1100CB9BB0FD30BB652 Accuracy: -m0
Conclusion: CDDA 99%
Signature: 5D2AE843F291103181A0DAD201685954BD54186C
FILE: 04. Motina.flac
Size: 25802148 Hash: 31265058DF1E4C67AA16CAE54B2A1DBE Accuracy: -m0
Conclusion: CDDA 100%
Signature: 0E3B12B70B7BA634CA533F36D8FBC95CF50C6B16
FILE: 03. Galyma.flac
Size: 28149625 Hash: 779C780DD50F49BDAD29F2363FE4C98C Accuracy: -m0
Conclusion: CDDA 100%
Signature: B8B746A96A83A11EF116B0D977400CBD506608CC
FILE: 02. Utopija.flac
Size: 25029685 Hash: 904D90EB08AAB832D7E9D64006240EF1 Accuracy: -m0
Conclusion: CDDA 100%
Signature: 425D8B40EFBB7D23F4B1C6B810E4A063D08A0E46
FILE: 01. Hitana.flac
Size: 8689942 Hash: B8FFC5B13BE3A60975509715243F15D8 Accuracy: -m0
Conclusion: CDDA 100%
Signature: 1271BEFE787A7A3128EDF19E80039D7D37947897

Год выпуска: 2017
Продолжительность: 01:07:50
Треклист:

01. Arpiaus (09:38)
02. Juodkrante (07:08)
03. Oct (09:14)
04. Lotusa (09:05)
05. Metapadas (07:36)
06. Rodostona (09:05)
07. Motinkitchen (07:59)
08. Solana (08:05)

Exact Audio Copy V1.3 from 2. September 2016

EAC extraction logfile from 23. January 2017, 14:14

Sraunus / Atmospheric Insomnia

Used drive : TSSTcorpDVDWBD TS-LB23D Adapter: 1 ID: 0

Read mode : Secure
Utilize accurate stream : Yes
Defeat audio cache : Yes
Make use of C2 pointers : No

Read offset correction : 6
Overread into Lead-In and Lead-Out : No
Fill up missing offset samples with silence : Yes
Delete leading and trailing silent blocks : No
Null samples used in CRC calculations : Yes
Used interface : Native Win32 interface for Win NT & 2000
Gap handling : Appended to previous track

Used output format : User Defined Encoder
Selected bitrate : 1024 kBit/s
Quality : High
Add ID3 tag : No
Command line compressor : C:\Program Files (x86)\Exact Audio Copy\Flac\flac.exe
Additional command line options : -8 -e -V -T "ARTIST=%artist%" -T "TITLE=%title%" -T "ALBUM=%albumtitle%" -T "DATE=%year%" -T "TRACKNUMBER=%tracknr%" -T "GENRE=%genre%" -T "PERFORMER=%albuminterpret%" -T "COMPOSER=%composer%" %haslyrics%--tag-from-file=LYRICS="%lyricsfile%"%haslyrics% -T "ALBUMARTIST=%albumartist%" -T "DISCNUMBER=%cdnumber%" -T "TOTALDISCS=%totalcds%" -T "TOTALTRACKS=%numtracks%" -T "COMMENT=%comment%" %source% -o %dest%

TOC of the extracted CD

Track | Start | Length | Start sector | End sector
---------------------------------------------------------
1 | 0:00.00 | 9:38.00 | 0 | 43349
2 | 9:38.00 | 7:08.37 | 43350 | 75486
3 | 16:46.37 | 9:14.37 | 75487 | 117073
4 | 26:00.74 | 9:05.37 | 117074 | 157985
5 | 35:06.36 | 7:36.00 | 157986 | 192185
6 | 42:42.36 | 9:05.00 | 192186 | 233060
7 | 51:47.36 | 7:59.37 | 233061 | 269022
8 | 59:46.73 | 8:05.00 | 269023 | 305397

Track 1

Filename E:\MP3\EAC\Sraunus - Atmospheric Insomnia (2017 CD FLAC)\01 - Arpiaus.wav

Pre-gap length 0:00:02.00

Peak level 99.3 %
Extraction speed 1.4 X
Track quality 99.9 %
Test CRC 575C674A
Copy CRC 575C674A
Track not present in AccurateRip database
Copy OK

Track 2

Filename E:\MP3\EAC\Sraunus - Atmospheric Insomnia (2017 CD FLAC)\02 - Juodkrante.wav

Peak level 96.8 %
Extraction speed 1.7 X
Track quality 100.0 %
Test CRC A967C314
Copy CRC A967C314
Track not present in AccurateRip database
Copy OK

Track 3

Filename E:\MP3\EAC\Sraunus - Atmospheric Insomnia (2017 CD FLAC)\03 - Oct.wav

Peak level 96.6 %
Extraction speed 2.0 X
Track quality 100.0 %
Test CRC 3DEDA9A0
Copy CRC 3DEDA9A0
Track not present in AccurateRip database
Copy OK

Track 4

Filename E:\MP3\EAC\Sraunus - Atmospheric Insomnia (2017 CD FLAC)\04 - Lotusa.wav

Peak level 97.0 %
Extraction speed 2.2 X
Track quality 100.0 %
Test CRC 9B3DF4AB
Copy CRC 9B3DF4AB
Track not present in AccurateRip database
Copy OK

Track 5

Filename E:\MP3\EAC\Sraunus - Atmospheric Insomnia (2017 CD FLAC)\05 - Metapadas.wav

Peak level 97.9 %
Extraction speed 2.3 X
Track quality 100.0 %
Test CRC AF73304F
Copy CRC AF73304F
Track not present in AccurateRip database
Copy OK

Track 6

Filename E:\MP3\EAC\Sraunus - Atmospheric Insomnia (2017 CD FLAC)\06 - Rodostona.wav

Peak level 96.7 %
Extraction speed 2.5 X
Track quality 100.0 %
Test CRC 0F1EA7AD
Copy CRC 0F1EA7AD
Track not present in AccurateRip database
Copy OK

Track 7

Filename E:\MP3\EAC\Sraunus - Atmospheric Insomnia (2017 CD FLAC)\07 - Motinkitchen.wav

Peak level 97.4 %
Extraction speed 2.6 X
Track quality 100.0 %
Test CRC 2EC010AA
Copy CRC 2EC010AA
Track not present in AccurateRip database
Copy OK

Track 8

Filename E:\MP3\EAC\Sraunus - Atmospheric Insomnia (2017 CD FLAC)\08 - Solana.wav

Peak level 97.7 %
Extraction speed 2.9 X
Track quality 100.0 %
Test CRC 43E9A732
Copy CRC 43E9A732
Track not present in AccurateRip database
Copy OK

None of the tracks are present in the AccurateRip database

No errors occurred

End of status report

---- CUETools DB Plugin V2.1.6

[CTDB TOCID: j9mqtzlGyvR2w9sDvC3Rv8vngz0-] found
Submit result: j9mqtzlGyvR2w9sDvC3Rv8vngz0- has been confirmed
Track | CTDB Status
1 | (1/1) Accurately ripped
2 | (1/1) Accurately ripped
3 | (1/1) Accurately ripped
4 | (1/1) Accurately ripped
5 | (1/1) Accurately ripped
6 | (1/1) Accurately ripped
7 | (1/1) Accurately ripped
8 | (1/1) Accurately ripped

==== Log checksum CF0EAA3A5A6D8F51F777CE857C6762197AACCE95B732BB772C8EBA30B26DCA93 ====


REM GENRE "Dub Techno"
REM DATE 2017
REM DISCID 670FE708
REM COMMENT "ExactAudioCopy v1.3"
PERFORMER "Sraunus"
TITLE "Atmospheric Insomnia"
REM COMPOSER ""
FILE "01 - Arpiaus.wav" WAVE
TRACK 01 AUDIO
TITLE "Arpiaus"
PERFORMER "Sraunus"
REM COMPOSER ""
FLAGS DCP
INDEX 01 00:00:00
FILE "02 - Juodkrante.wav" WAVE
TRACK 02 AUDIO
TITLE "Juodkrante"
PERFORMER "Sraunus"
REM COMPOSER ""
FLAGS DCP
INDEX 01 00:00:00
FILE "03 - Oct.wav" WAVE
TRACK 03 AUDIO
TITLE "Oct"
PERFORMER "Sraunus"
REM COMPOSER ""
FLAGS DCP
INDEX 01 00:00:00
FILE "04 - Lotusa.wav" WAVE
TRACK 04 AUDIO
TITLE "Lotusa"
PERFORMER "Sraunus"
REM COMPOSER ""
FLAGS DCP
INDEX 01 00:00:00
FILE "05 - Metapadas.wav" WAVE
TRACK 05 AUDIO
TITLE "Metapadas"
PERFORMER "Sraunus"
REM COMPOSER ""
FLAGS DCP
INDEX 01 00:00:00
FILE "06 - Rodostona.wav" WAVE
TRACK 06 AUDIO
TITLE "Rodostona"
PERFORMER "Sraunus"
REM COMPOSER ""
FLAGS DCP
INDEX 01 00:00:00
FILE "07 - Motinkitchen.wav" WAVE
TRACK 07 AUDIO
TITLE "Motinkitchen"
PERFORMER "Sraunus"
REM COMPOSER ""
FLAGS DCP
INDEX 01 00:00:00
FILE "08 - Solana.wav" WAVE
TRACK 08 AUDIO
TITLE "Solana"
PERFORMER "Sraunus"
REM COMPOSER ""
FLAGS DCP
INDEX 01 00:00:00

Год выпуска: 2011
Продолжительность: 00:27:09
Треклист:

01. Mo1.2-4 (06:20)
02. 82 (06:49)
03. Good Bell (07:58)
04. Sw (06:02)

-----------------------

DON'T MODIFY THIS FILE

-----------------------

PERFORMER: auCDtect Task Manager, ver. 1.6.0 RC1 build 1.6.0.1
Copyright (c) 2008-2010 y-soft. All rights reserved
http://y-soft.org

ANALYZER: auCDtect: CD records authenticity detector, version 0.8.2
Copyright (c) 2004 Oleg Berngardt. All rights reserved.
Copyright (c) 2004 Alexander Djourik. All rights reserved.

FILE: 04. Sw.flac
Size: 44876200 Hash: 20CEC9B775AECF9F00361867B5E69C99 Accuracy: -m0
Conclusion: CDDA 100%
Signature: 1F1FDFD9B9622838D35BD4053F645D3083864797
FILE: 03. Good Bell.flac
Size: 51833768 Hash: 598E2F906EE58F0669B388756F8CB3FA Accuracy: -m0
Conclusion: CDDA 100%
Signature: 33CBEFE76378C9F7BA8A785542CB1423766272E5
FILE: 02. 82.flac
Size: 39940172 Hash: E9007A8DAE0F8942E4E053FCA98DB292 Accuracy: -m0
Conclusion: CDDA 99%
Signature: A2C7850B2AE39EC553EB5D4014F3EC525EAEC8A6
FILE: 01. Mo1.2-4.flac
Size: 33720295 Hash: 3E964C17A8910D778E371823CAB68EBC Accuracy: -m0
Conclusion: CDDA 100%
Signature: D10E29812180F49638E1C61E1108840884E652F9

Год выпуска: 2011
Продолжительность: 00:36:26
Треклист:

01. Zukunft Afrika (07:29)
02. Die Roten Moebel (05:40)
03. Kordo (08:36)
04. Russian TV (07:12)
05. Silver Hill Street (07:29)

-----------------------

DON'T MODIFY THIS FILE

-----------------------

PERFORMER: auCDtect Task Manager, ver. 1.6.0 RC1 build 1.6.0.1
Copyright (c) 2008-2010 y-soft. All rights reserved
http://y-soft.org

ANALYZER: auCDtect: CD records authenticity detector, version 0.8.2
Copyright (c) 2004 Oleg Berngardt. All rights reserved.
Copyright (c) 2004 Alexander Djourik. All rights reserved.

FILE: 05. Silver Hill Street.flac
Size: 49853686 Hash: C87ACA2918B40E5A032F532DD177A91F Accuracy: -m0
Conclusion: CDDA 49%
Signature: 4538EC8BCE197073DF3A7A9CF488BDAA66A14B2F
FILE: 04. Russian TV.flac
Size: 52679008 Hash: 5246190B8D033B1D764401943916BB9E Accuracy: -m0
Conclusion: CDDA 49%
Signature: 7914F8EEE3E80051E9223AA915A9582660FE2AAB
FILE: 03. Kordo.flac
Size: 43393934 Hash: FAC6CF40F8D1B97CCEC009FFD2C37FCD Accuracy: -m0
Conclusion: CDDA 100%
Signature: 7B49667E820068A6CA54F04174BC54DDB4364306
FILE: 02. Die Roten Moebel.flac
Size: 37491501 Hash: 7B50EAF075F03413D77C20437CC42C61 Accuracy: -m0
Conclusion: CDDA 100%
Signature: 654E54E4421EE7A28F763FCC04D3377221168AD9
FILE: 01. Zukunft Afrika.flac
Size: 44361167 Hash: D20AB8B38166FEF7A40C7238A2B251D5 Accuracy: -m0
Conclusion: CDDA 100%
Signature: 56D6E88812EE298D49B4D2718752E41E8DC5690C

Год выпуска: 2013
Продолжительность: 00:30:55
Треклист:

01. Krupnik (05:23)
02. Festa (09:52)
03. Honda (07:20)
04. Indukcija (08:20)

-----------------------

DON'T MODIFY THIS FILE

-----------------------

PERFORMER: auCDtect Task Manager, ver. 1.6.0 RC1 build 1.6.0.1
Copyright (c) 2008-2010 y-soft. All rights reserved
http://y-soft.org

ANALYZER: auCDtect: CD records authenticity detector, version 0.8.2
Copyright (c) 2004 Oleg Berngardt. All rights reserved.
Copyright (c) 2004 Alexander Djourik. All rights reserved.

FILE: 04. Indukcija.flac
Size: 53117120 Hash: FEB115E7E412FCB25E11177AAFD5EA47 Accuracy: -m0
Conclusion: CDDA 100%
Signature: CED82031FB08F5B1DAA6CFA4D0F63293788BA173
FILE: 03. Honda.flac
Size: 45349784 Hash: 16EDF6104EAC2BA7D6DF260FCCA41AF3 Accuracy: -m0
Conclusion: CDDA 99%
Signature: 3331822751737FACBA6EC642A5F7C1CA69324537
FILE: 02. Festa.flac
Size: 60322118 Hash: 44B6424B377568EFD0FB39C6D7E9D1C0 Accuracy: -m0
Conclusion: CDDA 99%
Signature: 43F0D23885D5B4BD2C00C896A4A8918C2FFB81B5
FILE: 01. Krupnik.flac
Size: 30484858 Hash: 19705C185B990938FA56D20C24454C8B Accuracy: -m0
Conclusion: CDDA 99%
Signature: D62B5823CCC2820511D5708666702AB8C5CAB7D0

Thorens TD 320
Ortofon MC 30 Super II
Pro-Ject Phono Box MM
M-Audio Fast Track Ultra
Audacity 2.0
Год выпуска: 2014
Продолжительность: 00:13:46
Треклист:

01. Humanistai (05:56)
02. Humanitarai (07:50)

-----------------------

DON'T MODIFY THIS FILE

-----------------------

PERFORMER: auCDtect Task Manager, ver. 1.6.0 RC1 build 1.6.0.1
Copyright (c) 2008-2010 y-soft. All rights reserved
http://y-soft.org

ANALYZER: auCDtect: CD records authenticity detector, version 0.8.2
Copyright (c) 2004 Oleg Berngardt. All rights reserved.
Copyright (c) 2004 Alexander Djourik. All rights reserved.

FILE: 02. Humanitarai.flac
Size: 58124801 Hash: 750F7E1F20EA58D935FF094C5EF75027 Accuracy: -m0
Conclusion: CDDA 100%
Signature: 816E2A7DFAF7373B8F91C54BE9B7BC182CDE355B
FILE: 01. Humanistai.flac
Size: 34719596 Hash: 1603F88C45FDAE20EE51CE7D0CE1EFD8 Accuracy: -m0
Conclusion: CDDA 100%
Signature: 3B5C9B527750250F3F655666BA1F1C66DFA72164

Время раздачи: 12/7
[NNMClub.to]_Sraunus FLAC.torrent
 Торрент: Платиновая раздача  Зарегистрирован
 
Примагнититься

Скачать
 Зарегистрирован:   05 Фев 2017 07:51:59
 Размер:   3,98 GB  (
 Рейтинг:    (Голосов: 6)
 Поблагодарили:   27
 Проверка:   Оформление проверено модератором 05 Фев 2017 07:52:51
Как cкачать  ·  Как раздать  ·  Правильно оформить  ·  Поднять ратио!  
Загрузка...
Показать сообщения:   
Начать новую тему   Ответить на тему    Торрент-трекер NNM-Club -> Electronic -> House, Techno, Electro, Minimal (Lossless) Часовой пояс: GMT + 3
Страница 1 из 1