Интеллигентный торрент-трекер
canvas not supported
Нас вместе: 4 348 764

Юрий Петухов | Погружение во мрак (2015) [M4B|AAC]


 
 
RSS
Начать новую тему   Ответить на тему    Торрент-трекер NNM-Club -> Аудио и Видео -> Аудиокниги (AAC)
Автор Сообщение
trybag ®
Стаж: 4 года 2 мес.
Сообщений: 80
Ratio: 19,638
Поблагодарили: 1756
100%
Юрий Петухов | Погружение во мрак
Автор: Юрий Петухов
Год: 2015
Жанр: Фантастика
Продолжительность: 14:13:55
Читает: BIGBAG
Издательство: Аудиокнига своими руками

Описание: Вернувшись из Пристанища, Иван понимает, что Землей правят не законно избранные правители, а несколько мегаконцернов (Синдикат, Восьмое Небо), и тысячи сект «Черного Блага» уже опутали земной шар. Иван пытается заручиться поддержкой своих старых друзей и найти Гуга Хлодрика Буйного. Но сделать это непросто, так как он уже несколько лет коротает свои дни на подводной каторге гиблой планеты Гиргея. В этот кромешный ад и отправляется главный герой романа, не подозревая, что на Гиргее обитает кое-кто пострашнее каторжников...

Формат: M4B
Аудиокодек: AAC
Битрейт: 192 kbps
Частота: 48,0 KHz
Разбивка на главы: есть
Вшитая обложка: есть
Музыкальное сопровождение: нет

1. Ангел Возмездия
2. Бунт вурдалаков
3. Погружение во Мрак
4. Вторжение из Ада
5. Меч Вседержителя

Код: выделить все
Общее
Полное имя                               : Погружение во мрак 1.m4b
Формат                                   : MPEG-4
Профиль формата                          : Apple audio with iTunes position
Идентификатор кодека                     : M4B  (M4B /mp42)
Размер файла                             : 626 Мбайт
Продолжительность                        : 7 ч. 32 м.
Режим общего битрейта                    : Переменный
Общий поток                              : 194 Кбит/сек
Альбом                                   : Звездная месть
Альбом/Исполнитель                       : Юрий Петухов
Часть/Положение                          : 3
Часть/Всего                              : 5
Трек                                     : Погружение во мрак 1
Трек/Положение                           : 1
Трек/Всего                               : 2
Исполнитель                              : Юрий Петухов
Композитор                               : BIGBAG
Издатель                                 : Аудиокнига своими руками
Жанр                                     : Фантастика
Дата записи                              : 2015
Дата кодирования                         : UTC 2017-02-06 11:14:36
Дата пометки                             : UTC 2017-02-06 16:01:30
Обложка                                  : Yes
©art                                     : Юрий Петухов

Аудио
Идентификатор                            : 1
Формат                                   : AAC
Формат/Информация                        : Advanced Audio Codec
Профиль формата                          : LC
Идентификатор кодека                     : 40
Продолжительность                        : 7 ч. 32 м.
Вид битрейта                             : Переменный
Битрейт                                  : 192 Кбит/сек
Максимальный битрейт                     : 196 Кбит/сек
Каналы                                   : 2 канала
Расположение каналов                     : Front: L R
Частота                                  : 48,0 КГц
Частота кадров                           : 46,875 кадров/сек (1024 spf)
Метод сжатия                             : С потерями
Размер потока                            : 621 Мбайт (99%)
Дата кодирования                         : UTC 2017-02-06 11:14:36
Дата пометки                             : UTC 2017-02-06 16:01:30
Menus                                    : 2

Меню
Идентификатор                            : 2
Идентификатор кодека                     : text
Продолжительность                        : 7 ч. 32 м.
Язык                                     : English
Дата кодирования                         : UTC 2017-02-06 16:00:05
Дата пометки                             : UTC 2017-02-06 16:00:05
Menu For                                 : 1
Duration_FirstFrame                      : -2971648
Duration_LastFrame                       : 5012139
00:00:00.000                             : Пролог. «И прийдет время наше»
01:29:53.215                             : Часть первая. ОБРЕЧЕННЫЙ
03:49:18.080                             : Часть вторая. ВО МРАКЕ
Вид битрейта                             : VBR
Общее
Полное имя                               : Погружение во мрак 2.m4b
Формат                                   : MPEG-4
Профиль формата                          : Apple audio with iTunes position
Идентификатор кодека                     : M4B  (M4B /mp42)
Размер файла                             : 556 Мбайт
Продолжительность                        : 6 ч. 41 м.
Режим общего битрейта                    : Переменный
Общий поток                              : 194 Кбит/сек
Альбом                                   : Звездная месть
Альбом/Исполнитель                       : Юрий Петухов
Часть/Положение                          : 3
Часть/Всего                              : 5
Трек                                     : Погружение во мрак 2
Трек/Положение                           : 2
Трек/Всего                               : 2
Исполнитель                              : Юрий Петухов
Композитор                               : BIGBAG
Издатель                                 : Аудиокнига своими руками
Жанр                                     : Фантастика
Дата записи                              : 2015
Дата кодирования                         : UTC 2017-02-06 11:27:49
Дата пометки                             : UTC 2017-02-06 16:01:39
Обложка                                  : Yes
©art                                     : Юрий Петухов

Аудио
Идентификатор                            : 1
Формат                                   : AAC
Формат/Информация                        : Advanced Audio Codec
Профиль формата                          : LC
Идентификатор кодека                     : 40
Продолжительность                        : 6 ч. 41 м.
Вид битрейта                             : Переменный
Битрейт                                  : 192 Кбит/сек
Максимальный битрейт                     : 196 Кбит/сек
Каналы                                   : 2 канала
Расположение каналов                     : Front: L R
Частота                                  : 48,0 КГц
Частота кадров                           : 46,875 кадров/сек (1024 spf)
Метод сжатия                             : С потерями
Размер потока                            : 552 Мбайт (99%)
Дата кодирования                         : UTC 2017-02-06 11:27:49
Дата пометки                             : UTC 2017-02-06 16:01:39
Menus                                    : 2

Меню
Идентификатор                            : 2
Идентификатор кодека                     : text
Продолжительность                        : 6 ч. 41 м.
Язык                                     : English
Дата кодирования                         : UTC 2017-02-06 16:00:49
Дата пометки                             : UTC 2017-02-06 16:00:49
Menu For                                 : 1
Duration_FirstFrame                      : -10730
Duration_LastFrame                       : -10986816
00:00:00.000                             : Часть третья. ТРЯСИНА
03:14:48.597                             : Часть четвертая. БЕЗДНА
06:29:47.925                             : Эпилог. МОЛИТВА
Вид битрейта                             : VBR

[NNMClub.to]_Pogruzhenie vo mrak.torrent
 Торрент:   Зарегистрирован
 
Примагнититься
Free Leech
Зарегистрируйтесь и скачайте торрент!
11,9 KB
 Зарегистрирован:   06 Фев 2017 18:59:32
 Размер:   1,16 GB  (
 Рейтинг:   4,1 (Голосов: 10)
 Поблагодарили:   33
 Проверка:   Оформление проверено модератором 06 Фев 2017 22:36:42
Как cкачать  ·  Как раздать  ·  Правильно оформить  ·  Поднять ратио!  
Загрузка...
GARRIF1
Стаж: 5 лет 2 мес.
Сообщений: 8
Ratio: 18,371
60.44%
К таким вещам, саму книжку бы прикладывать, по возможности конечно.
trybag ®
Стаж: 4 года 2 мес.
Сообщений: 80
Ratio: 19,638
Поблагодарили: 1756
100%
GARRIF1 писал(а): Перейти к сообщению
К таким вещам, саму книжку бы прикладывать, по возможности конечно.

Вы не первый кто спрашивает, хотя сильно удивлен, книги этого замечательного автора полно в интернете, а также продаются в книжных магазинах. Надо пояндексить
trybag ®
Стаж: 4 года 2 мес.
Сообщений: 80
Ratio: 19,638
Поблагодарили: 1756
100%
Для Вас, для тех кто ИЩЕТ
Секретов никаких нет, книгу читал в журнальном варианте, потом выписал сборник произведений Ю.Петухова, но с развалом государства получил не весь комплект. На данный момент интернет расширился и произведения Ю.Петухова стали доступны. Повторюсь, что в своё время просил Геннадия Коршунова озвучить роман "Звёздная месть" но увы. Потом появилась озвучка от BIGBAG, стал слушать но что-то не по мне. Поэтому потратил несколько ночей изменил скорость и тон (не в обиду к BIGBAG) из моно сделал псевдостерео, что более приятнее слушать в наушниках, из старых журналов нашёл иллюстрации сфотожопил это все хозяйство, теперь слушаю и наслаждаюсь. Выложил на любимом NoNaMe ClUb , можно сказать Эксклюзив, в формате M4B я не нашел (может плохо искал), если кому-то не нравится проходите мимо, или пишите модератору пускай удалит мои релизы. Не забывайте,что Издательство: Аудиокнига своими руками, и думаю вы не смотрели спектрограмму оригинала озвучки в mp3 (это я наверно отвлекся ). Всем спасибо.
Показать сообщения:   
Начать новую тему   Ответить на тему    Торрент-трекер NNM-Club -> Аудио и Видео -> Аудиокниги (AAC) Часовой пояс: GMT + 3
Страница 1 из 1