Интеллигентный торрент-трекер
canvas not supported
Нас вместе: 4 305 051

Demdike Stare - Discography 33 Releases (2009-2017) [FLAC|Lossless|tracks+.cue, tracks] <Experimental, Dark Ambient, Techno, Dub, Abstract>


 
 
RSS
Начать новую тему   Ответить на тему    Торрент-трекер NNM-Club -> Electronic -> Experimental, Industrial, EBM, Dark Electro (Lossless)
Автор Сообщение
vilator ®
Модератор Музыки
RG Music
 
Стаж: 7 лет 11 мес.
Сообщений: 5696
Ratio: 125,642
Поблагодарили: 111865
100%
Откуда: Minsk
pirates.png


Demdike Stare играют темный, смурной даб приправленный дроуном, классическим хаусом, депрессивным техно и изощренными сэмплами странного происхождения.
За проектом стоят известный техно-продюсер Майлз Уиттакер (Miles Whittaker) (Modern Love, DJ MLZ, Pendle Coven, Hate) и Шон Кенти (Sean Canty) из авторитетнейшего винилофильского лейбла Finders Keepers, специализирующегося на издании Library Music, винтажных саундтреков, эйсид-фолке 70-х и т.п. Эстетически Demdike Stare более чем вписываются в утонченный дарквейв 90-х и их альбомы с легкостью могли бы украсить каталог Beta-lactam Ring к примеру. В то же время музыка этого энигматичного манчестерского дуэта убедительно отвечает на самые актуальные вызовы современной инди-электроники.

Жанр: Experimental, Dark Ambient, Drone, Techno, Dub, Ambient, Abstract • Страна: UK • Год издания: 2009-2017 • Тип издания: CD, WEB, Vinyl, Cassette
Аудиокодек: FLAC (*.flac) • Тип рипа: tracks+.cue, tracks • Продолжительность: 26:39:24 • Источник: What, Waffles, PTH

Год выпуска: 2009
Продолжительность: 00:54:42
Треклист:

01. Suspicious Drone (06:34)
02. Haxan Dub (05:14)
03. Regressor (05:04)
04. All Hallows Eve (feat. Danny Norbury) (03:54)
05. Jannisary (06:09)
06. Haxan (06:18)
07. Extwistle Hall (03:25)
08. Trapped Dervish (01:12)
09. Nothing But The Night (06:10)
10. Conjoined (04:07)
11. Ghostly Hardware (06:35)

Exact Audio Copy V0.99 prebeta 5 from 4. May 2009

EAC extraction logfile from 20. October 2009, 8:36

Demdike Stare / Symbiosis

Used drive : HL-DT-STDVD+-RW GSA-H73N Adapter: 1 ID: 0

Read mode : Secure
Utilize accurate stream : Yes
Defeat audio cache : Yes
Make use of C2 pointers : No

Read offset correction : 102
Overread into Lead-In and Lead-Out : No
Fill up missing offset samples with silence : Yes
Delete leading and trailing silent blocks : No
Null samples used in CRC calculations : Yes
Used interface : Native Win32 interface for Win NT & 2000
Gap handling : Appended to previous track

Used output format : User Defined Encoder
Selected bitrate : 320 kBit/s
Quality : High
Add ID3 tag : No
Command line compressor : C:\Program Files\Exact Audio Copy\Flac\flac.exe
Additional command line options : -V -8 -T "artist=%a" -T "title=%t" -T "album=%g" -T "date=%y" -T "tracknumber=%n" -T "genre=%m" %s

TOC of the extracted CD

Track | Start | Length | Start sector | End sector
---------------------------------------------------------
1 | 0:00.00 | 6:34.06 | 0 | 29555
2 | 6:34.06 | 5:13.69 | 29556 | 53099
3 | 11:48.00 | 5:04.00 | 53100 | 75899
4 | 16:52.00 | 3:53.62 | 75900 | 93436
5 | 20:45.62 | 6:09.18 | 93437 | 121129
6 | 26:55.05 | 6:18.36 | 121130 | 149515
7 | 33:13.41 | 3:24.60 | 149516 | 164875
8 | 36:38.26 | 1:11.57 | 164876 | 170257
9 | 37:50.08 | 6:10.09 | 170258 | 198016
10 | 44:00.17 | 4:07.30 | 198017 | 216571
11 | 48:07.47 | 6:35.28 | 216572 | 246224

Track 1

Filename K:\MUSIC\EACrips\Demdike Stare - 2009 - Symbiosis (FLAC)\01 - Suspicious Drone.wav

Pre-gap length 0:00:02.00

Peak level 99.6 %
Track quality 100.0 %
Test CRC 4694C51D
Copy CRC 4694C51D
Track not present in AccurateRip database
Copy OK

Track 2

Filename K:\MUSIC\EACrips\Demdike Stare - 2009 - Symbiosis (FLAC)\02 - Haxan Dub.wav

Peak level 96.5 %
Track quality 100.0 %
Test CRC F8A234F6
Copy CRC F8A234F6
Track not present in AccurateRip database
Copy OK

Track 3

Filename K:\MUSIC\EACrips\Demdike Stare - 2009 - Symbiosis (FLAC)\03 - Regressor.wav

Peak level 96.2 %
Track quality 100.0 %
Test CRC 428AF56E
Copy CRC 428AF56E
Track not present in AccurateRip database
Copy OK

Track 4

Filename K:\MUSIC\EACrips\Demdike Stare - 2009 - Symbiosis (FLAC)\04 - All Hallows Eve.wav

Peak level 78.1 %
Track quality 100.0 %
Test CRC FFAFD099
Copy CRC FFAFD099
Track not present in AccurateRip database
Copy OK

Track 5

Filename K:\MUSIC\EACrips\Demdike Stare - 2009 - Symbiosis (FLAC)\05 - Jannisary.wav

Peak level 96.2 %
Track quality 99.9 %
Test CRC 3A101F8E
Copy CRC 3A101F8E
Track not present in AccurateRip database
Copy OK

Track 6

Filename K:\MUSIC\EACrips\Demdike Stare - 2009 - Symbiosis (FLAC)\06 - Haxan.wav

Peak level 96.2 %
Track quality 100.0 %
Test CRC 88D259CA
Copy CRC 88D259CA
Track not present in AccurateRip database
Copy OK

Track 7

Filename K:\MUSIC\EACrips\Demdike Stare - 2009 - Symbiosis (FLAC)\07 - Extwistle Hall.wav

Peak level 78.1 %
Track quality 100.0 %
Test CRC F375DACA
Copy CRC F375DACA
Track not present in AccurateRip database
Copy OK

Track 8

Filename K:\MUSIC\EACrips\Demdike Stare - 2009 - Symbiosis (FLAC)\08 - Trapped Dervish.wav

Peak level 96.2 %
Track quality 100.0 %
Test CRC 3D36A374
Copy CRC 3D36A374
Track not present in AccurateRip database
Copy OK

Track 9

Filename K:\MUSIC\EACrips\Demdike Stare - 2009 - Symbiosis (FLAC)\09 - Nothing But The Night.wav

Peak level 96.2 %
Track quality 100.0 %
Test CRC A846DB20
Copy CRC A846DB20
Track not present in AccurateRip database
Copy OK

Track 10

Filename K:\MUSIC\EACrips\Demdike Stare - 2009 - Symbiosis (FLAC)\10 - Conjoined.wav

Peak level 96.2 %
Track quality 99.9 %
Test CRC E79F5D5B
Copy CRC E79F5D5B
Track not present in AccurateRip database
Copy OK

Track 11

Filename K:\MUSIC\EACrips\Demdike Stare - 2009 - Symbiosis (FLAC)\11 - Ghostly Hardware.wav

Peak level 96.2 %
Track quality 100.0 %
Test CRC C5527263
Copy CRC C5527263
Track not present in AccurateRip database
Copy OK

None of the tracks are present in the AccurateRip database

No errors occurred

End of status report


REM GENRE Electronic
REM DATE 2009
REM DISCID 910CD30B
REM COMMENT "ExactAudioCopy v0.99pb5"
FILE "01 - Suspicious Drone.flac" WAVE
TRACK 01 AUDIO
INDEX 01 00:00:00
FILE "02 - Haxan Dub.flac" WAVE
TRACK 02 AUDIO
INDEX 01 00:00:00
FILE "03 - Regressor.flac" WAVE
TRACK 03 AUDIO
INDEX 01 00:00:00
FILE "04 - All Hallows Eve.flac" WAVE
TRACK 04 AUDIO
INDEX 01 00:00:00
FILE "05 - Jannisary.flac" WAVE
TRACK 05 AUDIO
INDEX 01 00:00:00
FILE "06 - Haxan.flac" WAVE
TRACK 06 AUDIO
INDEX 01 00:00:00
FILE "07 - Extwistle Hall.flac" WAVE
TRACK 07 AUDIO
INDEX 01 00:00:00
FILE "08 - Trapped Dervish.flac" WAVE
TRACK 08 AUDIO
INDEX 01 00:00:00
FILE "09 - Nothing But The Night.flac" WAVE
TRACK 09 AUDIO
INDEX 01 00:00:00
FILE "10 - Conjoined.flac" WAVE
TRACK 10 AUDIO
INDEX 01 00:00:00
FILE "11 - Ghostly Hardware.flac" WAVE
TRACK 11 AUDIO
INDEX 01 00:00:00

Год выпуска: 2010
Продолжительность: 00:24:46
Треклист:

01. Forest Of Evil (Dusk) (14:29)
02. Forest Of Evil (Dawn) (10:17)

-----------------------

DON'T MODIFY THIS FILE

-----------------------

PERFORMER: auCDtect Task Manager, ver. 1.6.0 RC1 build 1.6.0.1
Copyright (c) 2008-2010 y-soft. All rights reserved
http://y-soft.org

ANALYZER: auCDtect: CD records authenticity detector, version 0.8.2
Copyright (c) 2004 Oleg Berngardt. All rights reserved.
Copyright (c) 2004 Alexander Djourik. All rights reserved.

FILE: 02. Forest Of Evil (Dawn).flac
Size: 58844309 Hash: 14D83550460451B5FF0DF168B6DBE36A Accuracy: -m0
Conclusion: CDDA 100%
Signature: 532EFC13299C60077448E7F3520C08EF003ECA9D
FILE: 01. Forest Of Evil (Dusk).flac
Size: 76059225 Hash: 1BAB2D75E95E5027A919AE4B2D9727AC Accuracy: -m0
Conclusion: CDDA 100%
Signature: 51FDA62CA671529A94F258B4C53AD012C16DCFCC

Год выпуска: 2010
Продолжительность: 00:44:50
Треклист:

01. Caged In Stammheim (05:18)
02. Eurydice (08:08)
03. Regolith (06:00)
04. The Stars Are Moving (08:36)
05. Bardo Thodol (05:35)
06. Matilda's Dream (11:13)

-----------------------

DON'T MODIFY THIS FILE

-----------------------

PERFORMER: auCDtect Task Manager, ver. 1.6.0 RC1 build 1.6.0.1
Copyright (c) 2008-2010 y-soft. All rights reserved
http://y-soft.org

ANALYZER: auCDtect: CD records authenticity detector, version 0.8.2
Copyright (c) 2004 Oleg Berngardt. All rights reserved.
Copyright (c) 2004 Alexander Djourik. All rights reserved.

FILE: 6-Matildas_Dream.flac
Size: 55094023 Hash: 3BB7214ABA291B0FAFB31AC41FB55F5F Accuracy: -m0
Conclusion: CDDA 100%
Signature: EEDC7C4886010B27E9A9F371A6F0B2FAE396BE03
FILE: 5-Bardo_Thodol.flac
Size: 34427585 Hash: E139251328B8936DCD42386140E6FC84 Accuracy: -m0
Conclusion: CDDA 100%
Signature: EC2B8ECA1C2F295488AA0C23970B7A6EEE9A4B1C
FILE: 4-The_Stars_Are_Moving.flac
Size: 43680261 Hash: 4B89ACA2C3E1C4C721C6A2B3B1B2FD8A Accuracy: -m0
Conclusion: CDDA 100%
Signature: 3089577FA4B43F6A0DD34993F6F92B09079A7716
FILE: 3-Regolith.flac
Size: 34391591 Hash: 1206F338BB30E3F725BC1E9558946F8C Accuracy: -m0
Conclusion: CDDA 99%
Signature: 2D53FFDB4B5ED82AD44F9C23220905AABC11BFC4
FILE: 2-Eurydice.flac
Size: 39606871 Hash: C3FE2C28A6B6ADC3C373F9B3C24133DF Accuracy: -m0
Conclusion: CDDA 100%
Signature: 2DF1B22EE5430EAD5120FF033DBB7A1B8E3DE59C
FILE: 1-Caged_In_Stammheim.flac
Size: 28229671 Hash: 7A2C61C94B74434ADA1C3621CEA672D2 Accuracy: -m0
Conclusion: CDDA 100%
Signature: DD8D648A17AF436850F18EC834A159C19311608C

Год выпуска: 2010
Продолжительность: 00:48:21
Треклист:

01. Black Sun (02:28)
02. Hashshashin Chant (06:20)
03. Repository Of Light (11:21)
04. Of Decay & Shadows (02:37)
05. Rain & Shame (04:16)
06. Desert Ascetic (04:35)
07. Viento De Levante (07:16)
08. Leptonic Matter (04:34)
09. A Tale Of Sand (04:54)

-----------------------

DON'T MODIFY THIS FILE

-----------------------

PERFORMER: auCDtect Task Manager, ver. 1.6.0 RC1 build 1.6.0.1
Copyright (c) 2008-2010 y-soft. All rights reserved
http://y-soft.org

ANALYZER: auCDtect: CD records authenticity detector, version 0.8.2
Copyright (c) 2004 Oleg Berngardt. All rights reserved.
Copyright (c) 2004 Alexander Djourik. All rights reserved.

FILE: 1 - Black Sun.flac
Size: 10816551 Hash: 38050BA97222B741C09952447612155A Accuracy: -m0
Conclusion: CDDA 99%
Signature: E833ACC124E6EC28CF316F7A58ED5C9B9D7434D2
FILE: 2 - Hashshashin Chant.flac
Size: 36466079 Hash: F7E6BDDC6FD17A5649F12433F1E3CC45 Accuracy: -m0
Conclusion: CDDA 100%
Signature: 95E8A3D2228F141CDC921E67DF85D9087808AB6C
FILE: 3 - Repository Of Light.flac
Size: 70770054 Hash: 9F6D6C2B31727C6CFDD59D9DCE661590 Accuracy: -m0
Conclusion: CDDA 100%
Signature: ECE2D3C347FF76ECBB2EE2F8F6ED669EB1C08FA4
FILE: 4 - Of Decay and Shadows.flac
Size: 14498003 Hash: 27084A8822DD5E5D417E769C32056CE8 Accuracy: -m0
Conclusion: CDDA 100%
Signature: A1996EA86B61FF0B9B7350E74B0A0A43782A3B39
FILE: 5 - Rain and Shame.flac
Size: 24375306 Hash: E146210DED6FA76FD34597B9590ED831 Accuracy: -m0
Conclusion: CDDA 100%
Signature: 62E742E966D48D87F383FA6DD1A94D5A98D2E425
FILE: 6 - Desert Ascetic.flac
Size: 31715506 Hash: 3FA31A178CC250FB0286638CEB0DEBD0 Accuracy: -m0
Conclusion: CDDA 100%
Signature: BC86BB221753E4AB8C83D6D28E6E291BFA8FC8CD
FILE: 7 - Viento de Levante.flac
Size: 48771876 Hash: 48BEA92972D075D187BC4ADF4D32A131 Accuracy: -m0
Conclusion: CDDA 100%
Signature: 26F8A95C284A8FA777D36FAF3A3F5ABD0E8ECAB7
FILE: 8 - Leptonic Matter.flac
Size: 21594791 Hash: A7440649F0D8473F64405E44F0F93AD2 Accuracy: -m0
Conclusion: CDDA 100%
Signature: 308232A990E2983EFD8D28BCC3AF58EE35216C26
FILE: 9 - A Tale Of Sand.flac
Size: 27938640 Hash: 2734D48D9A2751409B1A29DB2280A4B1 Accuracy: -m0
Conclusion: CDDA 100%
Signature: CA689A8CD351B9A6B8D07722395EFFCEE547BC57
FILE: 09. A Tale Of Sand.flac
Size: 27938640 Hash: 2734D48D9A2751409B1A29DB2280A4B1 Accuracy: -m0
Conclusion: CDDA 100%
Signature: F9FF7009F95BFBA16181DDF2E9E3139F6BB711FC
FILE: 08. Leptonic Matter.flac
Size: 21594791 Hash: A7440649F0D8473F64405E44F0F93AD2 Accuracy: -m0
Conclusion: CDDA 100%
Signature: 1FEE5693CCAD45B1C2D2B17FB4E287DA5B0FAA16
FILE: 07. Viento De Levante.flac
Size: 48771876 Hash: 48BEA92972D075D187BC4ADF4D32A131 Accuracy: -m0
Conclusion: CDDA 100%
Signature: F6B000F21452A164A805B5C30F8F58F1BAEDD0B9
FILE: 06. Desert Ascetic.flac
Size: 31715506 Hash: 3FA31A178CC250FB0286638CEB0DEBD0 Accuracy: -m0
Conclusion: CDDA 100%
Signature: F38AC7D300C42F99F0F5D2F15A32A2DEABCDD2D9
FILE: 05. Rain & Shame.flac
Size: 24375306 Hash: E146210DED6FA76FD34597B9590ED831 Accuracy: -m0
Conclusion: CDDA 100%
Signature: 37D2C1AEB0BF6E57DABB5BF11E4F8F7F857E95E8
FILE: 04. Of Decay & Shadows.flac
Size: 14498003 Hash: 27084A8822DD5E5D417E769C32056CE8 Accuracy: -m0
Conclusion: CDDA 100%
Signature: 40130C41C7543C8FD6250CDDAFC4FCCF85546F87
FILE: 03. Repository Of Light.flac
Size: 70770054 Hash: 9F6D6C2B31727C6CFDD59D9DCE661590 Accuracy: -m0
Conclusion: CDDA 100%
Signature: DFF36469915D046581F66F1FD2BC65BE9066BEC8
FILE: 02. Hashshashin Chant.flac
Size: 36466079 Hash: F7E6BDDC6FD17A5649F12433F1E3CC45 Accuracy: -m0
Conclusion: CDDA 100%
Signature: 700247B06445C8B984ADFC16FFFB83A7A3F90CF3
FILE: 01. Black Sun.flac
Size: 10816551 Hash: 38050BA97222B741C09952447612155A Accuracy: -m0
Conclusion: CDDA 99%
Signature: 3D7BB7464F4057E735C50763E3B7FD31A40E1971

Год выпуска: 2012
Продолжительность: 00:55:54+00:58:59
Треклист:

CD1
01. New Use For Old Circuits (05:04)
02. Mephisto's Lament (05:23)
03. Kommunion (Alternate Version) (08:28)
04. Unction (Alternate Version) (05:04)
05. Mnemosyne (05:25)
06. Shade (03:20)
07. In The Wake Of Chronos (Alternate Version) (05:52)
08. 10th Floor Stairwell (03:47)
09. Violetta (06:40)
10. Metamorphosis (06:51)

CD2
01. All This Is Ours (Sunrise) (07:16)
02. Erosion Of Mediocrity (07:09)
03. Nuance (07:41)
04. Falling Off The Edge (Alternate Version) (10:24)
05. Dauerlinie (05:38)
06. Dasein (06:24)
07. We Have Already Died (07:04)
08. Ishmael's Intent (07:23)

Exact Audio Copy V1.0 beta 3 from 29. August 2011

EAC extraction logfile from 24. March 2012, 9:52

Demdike Stare / Elemental (CD1)

Used drive : HL-DT-STDVDRAM GP40LB10 Adapter: 1 ID: 0

Read mode : Secure
Utilize accurate stream : Yes
Defeat audio cache : Yes
Make use of C2 pointers : No

Read offset correction : 6
Overread into Lead-In and Lead-Out : No
Fill up missing offset samples with silence : Yes
Delete leading and trailing silent blocks : No
Null samples used in CRC calculations : Yes
Used interface : Native Win32 interface for Win NT & 2000
Gap handling : Appended to previous track

Used output format : User Defined Encoder
Selected bitrate : 768 kBit/s
Quality : High
Add ID3 tag : No
Command line compressor : C:\Program Files (x86)\Exact Audio Copy\FLAC\FLAC.EXE
Additional command line options : -6 -V -T "ARTIST=%artist%" -T "TITLE=%title%" -T "ALBUM=%albumtitle%" -T "DATE=%year%" -T "TRACKNUMBER=%tracknr%" -T "GENRE=%genre%" -T "COMMENT=%comment%" -T "BAND=%albuminterpret%" -T "COMPOSER=%composer%" %haslyrics%--tag-from-file=LYRICS="%lyricsfile%"%haslyrics% -T "DISCNUMBER=%cdnumber%" -T "TOTALDISCS=%totalcds%" -T "TOTALTRACKS=%numtracks%" %hascover%--picture="%coverfile%"%hascover% %source% -o %dest%

TOC of the extracted CD

Track | Start | Length | Start sector | End sector
---------------------------------------------------------
1 | 3:53.02 | 5:04.00 | 17477 | 40276
2 | 8:57.02 | 5:23.25 | 40277 | 64526
3 | 14:20.27 | 8:28.18 | 64527 | 102644
4 | 22:48.45 | 5:04.00 | 102645 | 125444
5 | 27:52.45 | 5:24.56 | 125445 | 149800
6 | 33:17.26 | 3:20.13 | 149801 | 164813
7 | 36:37.39 | 5:52.37 | 164814 | 191250
8 | 42:30.01 | 3:47.24 | 191251 | 208299
9 | 46:17.25 | 6:40.11 | 208300 | 238310
10 | 52:57.36 | 6:50.59 | 238311 | 269119

Track 1

Filename I:\Music3\Demdike Stare - Elemental (2012) FLAC\CD1\01 - New Use For Old Circuits.wav

Pre-gap length 0:03:55.02

Peak level 95.0 %
Extraction speed 1.4 X
Track quality 100.0 %
Test CRC BBD4DFA9
Copy CRC BBD4DFA9
Track not present in AccurateRip database
Copy OK

Track 2

Filename I:\Music3\Demdike Stare - Elemental (2012) FLAC\CD1\02 - Mephisto's Lament.wav

Peak level 78.1 %
Extraction speed 1.4 X
Track quality 99.9 %
Test CRC BDDD8A81
Copy CRC BDDD8A81
Track not present in AccurateRip database
Copy OK

Track 3

Filename I:\Music3\Demdike Stare - Elemental (2012) FLAC\CD1\03 - Kommunion (Alternate Version).wav

Peak level 82.5 %
Extraction speed 1.8 X
Track quality 100.0 %
Test CRC C5894209
Copy CRC C5894209
Track not present in AccurateRip database
Copy OK

Track 4

Filename I:\Music3\Demdike Stare - Elemental (2012) FLAC\CD1\04 - Unction (Alternate Version).wav

Peak level 62.5 %
Extraction speed 1.8 X
Track quality 100.0 %
Test CRC DAB4003C
Copy CRC DAB4003C
Track not present in AccurateRip database
Copy OK

Track 5

Filename I:\Music3\Demdike Stare - Elemental (2012) FLAC\CD1\05 - Mnemosyne.wav

Peak level 70.2 %
Extraction speed 2.0 X
Track quality 100.0 %
Test CRC 0AAA5B5B
Copy CRC 0AAA5B5B
Track not present in AccurateRip database
Copy OK

Track 6

Filename I:\Music3\Demdike Stare - Elemental (2012) FLAC\CD1\06 - Shade.wav

Peak level 85.3 %
Extraction speed 1.7 X
Track quality 99.9 %
Test CRC C81DBB0E
Copy CRC C81DBB0E
Track not present in AccurateRip database
Copy OK

Track 7

Filename I:\Music3\Demdike Stare - Elemental (2012) FLAC\CD1\07 - In The Wake Of Chronos (Alternate Version).wav

Peak level 85.5 %
Extraction speed 2.2 X
Track quality 100.0 %
Test CRC 6E04EA16
Copy CRC 6E04EA16
Track not present in AccurateRip database
Copy OK

Track 8

Filename I:\Music3\Demdike Stare - Elemental (2012) FLAC\CD1\08 - 10th Floor Stairwell.wav

Peak level 75.0 %
Extraction speed 2.1 X
Track quality 100.0 %
Test CRC 74289EBE
Copy CRC 74289EBE
Track not present in AccurateRip database
Copy OK

Track 9

Filename I:\Music3\Demdike Stare - Elemental (2012) FLAC\CD1\09 - Violetta.wav

Peak level 69.7 %
Extraction speed 2.4 X
Track quality 100.0 %
Test CRC 675568AF
Copy CRC 675568AF
Track not present in AccurateRip database
Copy OK

Track 10

Filename I:\Music3\Demdike Stare - Elemental (2012) FLAC\CD1\10 - Metamorphosis.wav

Peak level 100.0 %
Extraction speed 2.5 X
Track quality 100.0 %
Test CRC 82D9B594
Copy CRC 82D9B594
Track not present in AccurateRip database
Copy OK

None of the tracks are present in the AccurateRip database

No errors occurred

End of status report

==== Log checksum 8210CE3500B860F92361D688E4890A9144682E3C4CA523A31EB0C8E18887A1BD ====
--------------------------------------------------------------------------------------------------------------------------------------------------------

Exact Audio Copy V1.0 beta 3 from 29. August 2011

EAC extraction logfile from 24. March 2012, 12:23

Demdike Stare / Elemental II

Used drive : HL-DT-STDVDRAM GP40LB10 Adapter: 1 ID: 0

Read mode : Secure
Utilize accurate stream : Yes
Defeat audio cache : Yes
Make use of C2 pointers : No

Read offset correction : 6
Overread into Lead-In and Lead-Out : No
Fill up missing offset samples with silence : Yes
Delete leading and trailing silent blocks : No
Null samples used in CRC calculations : Yes
Used interface : Native Win32 interface for Win NT & 2000
Gap handling : Appended to previous track

Used output format : User Defined Encoder
Selected bitrate : 768 kBit/s
Quality : High
Add ID3 tag : No
Command line compressor : C:\Program Files (x86)\Exact Audio Copy\FLAC\FLAC.EXE
Additional command line options : -6 -V -T "ARTIST=%artist%" -T "TITLE=%title%" -T "ALBUM=%albumtitle%" -T "DATE=%year%" -T "TRACKNUMBER=%tracknr%" -T "GENRE=%genre%" -T "COMMENT=%comment%" -T "BAND=%albuminterpret%" -T "COMPOSER=%composer%" %haslyrics%--tag-from-file=LYRICS="%lyricsfile%"%haslyrics% -T "DISCNUMBER=%cdnumber%" -T "TOTALDISCS=%totalcds%" -T "TOTALTRACKS=%numtracks%" %hascover%--picture="%coverfile%"%hascover% %source% -o %dest%

TOC of the extracted CD

Track | Start | Length | Start sector | End sector
---------------------------------------------------------
1 | 0:00.00 | 7:16.00 | 0 | 32699
2 | 7:16.00 | 7:09.24 | 32700 | 64898
3 | 14:25.24 | 7:41.34 | 64899 | 99507
4 | 22:06.58 | 10:24.06 | 99508 | 146313
5 | 32:30.64 | 5:37.51 | 146314 | 171639
6 | 38:08.40 | 6:24.00 | 171640 | 200439
7 | 44:32.40 | 7:04.11 | 200440 | 232250
8 | 51:36.51 | 7:23.06 | 232251 | 265481

Track 1

Filename I:\Music3\Demdike Stare - Elemental (2012) FLAC\CD2\01 - All This Ours (Sunrise).wav

Pre-gap length 0:00:02.00

Peak level 96.7 %
Extraction speed 3.1 X
Track quality 100.0 %
Test CRC B71FC4E4
Copy CRC B71FC4E4
Track not present in AccurateRip database
Copy OK

Track 2

Filename I:\Music3\Demdike Stare - Elemental (2012) FLAC\CD2\02 - Erosion of Mediocrity.wav

Peak level 94.4 %
Extraction speed 3.7 X
Track quality 100.0 %
Test CRC AA46C175
Copy CRC AA46C175
Track not present in AccurateRip database
Copy OK

Track 3

Filename I:\Music3\Demdike Stare - Elemental (2012) FLAC\CD2\03 - Nuance.wav

Peak level 94.4 %
Extraction speed 3.7 X
Track quality 99.9 %
Test CRC 46E23B08
Copy CRC 46E23B08
Track not present in AccurateRip database
Copy OK

Track 4

Filename I:\Music3\Demdike Stare - Elemental (2012) FLAC\CD2\04 - Falling Off The Edge (Alternate Version).wav

Peak level 92.6 %
Extraction speed 2.0 X
Track quality 100.0 %
Test CRC F8071275
Copy CRC F8071275
Track not present in AccurateRip database
Copy OK

Track 5

Filename I:\Music3\Demdike Stare - Elemental (2012) FLAC\CD2\05 - Dauerlinie.wav

Peak level 94.0 %
Extraction speed 2.1 X
Track quality 100.0 %
Test CRC 0D7039F2
Copy CRC 0D7039F2
Track not present in AccurateRip database
Copy OK

Track 6

Filename I:\Music3\Demdike Stare - Elemental (2012) FLAC\CD2\06 - Dasein.wav

Peak level 95.9 %
Extraction speed 2.2 X
Track quality 100.0 %
Test CRC 97C10A5C
Copy CRC 97C10A5C
Track not present in AccurateRip database
Copy OK

Track 7

Filename I:\Music3\Demdike Stare - Elemental (2012) FLAC\CD2\07 - We Have Already Died.wav

Peak level 70.8 %
Extraction speed 2.4 X
Track quality 100.0 %
Test CRC 50277ED7
Copy CRC 50277ED7
Track not present in AccurateRip database
Copy OK

Track 8

Filename I:\Music3\Demdike Stare - Elemental (2012) FLAC\CD2\08 - Ishmael's Intent.wav

Peak level 96.2 %
Extraction speed 2.5 X
Track quality 100.0 %
Test CRC 3ADAC0CD
Copy CRC 3ADAC0CD
Track not present in AccurateRip database
Copy OK

None of the tracks are present in the AccurateRip database

No errors occurred

End of status report

==== Log checksum F46DD0B17A02F63D437EE9468AE44B3D00713A68630EA948614B5E7953643100 ====


REM GENRE Other
REM DATE 2012
REM DISCID B40D1B0A
REM COMMENT "ExactAudioCopy v1.0b3"
PERFORMER "Demdike Stare"
TITLE "Elemental (CD1)"
FILE "01 - New Use For Old Circuits.flac" WAVE
TRACK 01 AUDIO
TITLE "New Use For Old Circuits"
PERFORMER "Demdike Stare"
PREGAP 03:53:02
INDEX 01 00:00:00
FILE "02 - Mephisto's Lament.flac" WAVE
TRACK 02 AUDIO
TITLE "Mephisto's Lament"
PERFORMER "Demdike Stare"
INDEX 01 00:00:00
FILE "03 - Kommunion (Alternate Version).flac" WAVE
TRACK 03 AUDIO
TITLE "Kommunion (Alternate Version)"
PERFORMER "Demdike Stare"
INDEX 01 00:00:00
FILE "04 - Unction (Alternate Version).flac" WAVE
TRACK 04 AUDIO
TITLE "Unction (Alternate Version)"
PERFORMER "Demdike Stare"
INDEX 01 00:00:00
FILE "05 - Mnemosyne.flac" WAVE
TRACK 05 AUDIO
TITLE "Mnemosyne"
PERFORMER "Demdike Stare"
INDEX 01 00:00:00
FILE "06 - Shade.flac" WAVE
TRACK 06 AUDIO
TITLE "Shade"
PERFORMER "Demdike Stare"
INDEX 01 00:00:00
FILE "07 - In The Wake Of Chronos (Alternate Version).flac" WAVE
TRACK 07 AUDIO
TITLE "In The Wake Of Chronos (Alternate Version)"
PERFORMER "Demdike Stare"
INDEX 01 00:00:00
FILE "08 - 10th Floor Stairwell.flac" WAVE
TRACK 08 AUDIO
TITLE "10th Floor Stairwell"
PERFORMER "Demdike Stare"
INDEX 01 00:00:00
FILE "09 - Violetta.flac" WAVE
TRACK 09 AUDIO
TITLE "Violetta"
PERFORMER "Demdike Stare"
INDEX 01 00:00:00
FILE "10 - Metamorphosis.flac" WAVE
TRACK 10 AUDIO
TITLE "Metamorphosis"
PERFORMER "Demdike Stare"
INDEX 01 00:00:00
---------------------------------------------------------

REM GENRE Other
REM DATE 2012
REM DISCID 790DD308
REM COMMENT "ExactAudioCopy v1.0b3"
PERFORMER "Demdike Stare"
TITLE "Elemental II"
FILE "01 - All This Ours (Sunrise).flac" WAVE
TRACK 01 AUDIO
TITLE "All This Ours (Sunrise)"
PERFORMER "Demdike Stare"
INDEX 01 00:00:00
FILE "02 - Erosion of Mediocrity.flac" WAVE
TRACK 02 AUDIO
TITLE "Erosion of Mediocrity"
PERFORMER "Demdike Stare"
INDEX 01 00:00:00
FILE "03 - Nuance.flac" WAVE
TRACK 03 AUDIO
TITLE "Nuance"
PERFORMER "Demdike Stare"
INDEX 01 00:00:00
FILE "04 - Falling Off The Edge (Alternate Version).flac" WAVE
TRACK 04 AUDIO
TITLE "Falling Off The Edge (Alternate Version)"
PERFORMER "Demdike Stare"
INDEX 01 00:00:00
FILE "05 - Dauerlinie.flac" WAVE
TRACK 05 AUDIO
TITLE "Dauerlinie"
PERFORMER "Demdike Stare"
INDEX 01 00:00:00
FILE "06 - Dasein.flac" WAVE
TRACK 06 AUDIO
TITLE "Dasein"
PERFORMER "Demdike Stare"
INDEX 01 00:00:00
FILE "07 - We Have Already Died.flac" WAVE
TRACK 07 AUDIO
TITLE "We Have Already Died"
PERFORMER "Demdike Stare"
INDEX 01 00:00:00
FILE "08 - Ishmael's Intent.flac" WAVE
TRACK 08 AUDIO
TITLE "Ishmael's Intent"
PERFORMER "Demdike Stare"
INDEX 01 00:00:00

Год выпуска: 2016
Продолжительность: 00:51:21+00:48:34+00:54:06
Треклист:

CD1 Wonderland
01. Curzon (05:22)
02. Animal Style (07:09)
03. Hardnoise (10:37)
04. Blue (00:58)
05. FullEdge (eMpTy-40 Mix) (05:29)
06. Sourcer (05:29)
07. Airborne Latency (07:03)
08. Fridge Challenge (03:29)
09. Overstaying (05:45)

CD2 Testpressings #001-003
01. Collision (08:13)
02. Misappropriation (07:56)
03. Grows Without Bound (06:22)
04. Primitive Equations (08:28)
05. Eulogy (07:09)
06. Dyslogy (10:26)

CD3 Testpressings #004-007
01. Fail (08:21)
02. Null Results (07:46)
03. Procrastination (06:42)
04. Past Majesty (05:49)
05. 40 Years Under The Cosh (06:10)
06. Frontin' (06:10)
07. Rathe (06:27)
08. Patchwork (06:41)

X Lossless Decoder version 20161007 (149.3)

XLD extraction logfile from 2016-12-09 12:34:23 -0500

Demdike Stare / Wonderland

Used drive : MATSHITA DVD-R UJ-898 (revision HC10)
Media type : Pressed CD

Ripper mode : XLD Secure Ripper
Disable audio cache : OK for the drive with a cache less than 1375KiB
Make use of C2 pointers : NO
Read offset correction : 102
Max retry count : 20
Gap status : Analyzed, Appended (except HTOA)

TOC of the extracted CD
Track | Start | Length | Start sector | End sector
---------------------------------------------------------
1 | 00:00:00 | 05:21:53 | 0 | 24127
2 | 05:21:53 | 07:09:11 | 24128 | 56313
3 | 12:30:64 | 10:36:56 | 56314 | 104069
4 | 23:07:45 | 00:58:17 | 104070 | 108436
5 | 24:05:62 | 05:29:31 | 108437 | 133142
6 | 29:35:18 | 05:28:66 | 133143 | 157808
7 | 35:04:09 | 07:03:08 | 157809 | 189541
8 | 42:07:17 | 03:29:10 | 189542 | 205226
9 | 45:36:27 | 05:44:66 | 205227 | 231092

AccurateRip Summary
Disc not found in AccurateRip DB.

All Tracks
Album gain : -6.32 dB
Peak : 0.965637
Statistics
Read error : 0
Jitter error (maybe fixed) : 0
Retry sector count : 0
Damaged sector count : 0

Track 01
Filename : /Users/sara/Desktop/dossier sans titre/Demdike Stare - Wonderland (2016) [FLAC]/01 Curzon.flac
Pre-gap length : 00:02:00

Track gain : -7.43 dB
Peak : 0.965637
CRC32 hash (test run) : F3D0E31E
CRC32 hash : F3D0E31E
CRC32 hash (skip zero) : 7C545D68
AccurateRip v1 signature : C7602FAF
AccurateRip v2 signature : 472A2698
->Track not present in AccurateRip database.
Statistics
Read error : 0
Jitter error (maybe fixed) : 0
Retry sector count : 0
Damaged sector count : 0

Track 02
Filename : /Users/sara/Desktop/dossier sans titre/Demdike Stare - Wonderland (2016) [FLAC]/02 Animal Style.flac

Track gain : -5.43 dB
Peak : 0.965637
CRC32 hash (test run) : F5B470EE
CRC32 hash : F5B470EE
CRC32 hash (skip zero) : 6B51B42C
AccurateRip v1 signature : FDE23229
AccurateRip v2 signature : EE0DA8F4
->Track not present in AccurateRip database.
Statistics
Read error : 0
Jitter error (maybe fixed) : 0
Retry sector count : 0
Damaged sector count : 0

Track 03
Filename : /Users/sara/Desktop/dossier sans titre/Demdike Stare - Wonderland (2016) [FLAC]/03 Hardnoise.flac

Track gain : -6.74 dB
Peak : 0.965637
CRC32 hash (test run) : 86923A18
CRC32 hash : 86923A18
CRC32 hash (skip zero) : 9E6635C7
AccurateRip v1 signature : 852D70D2
AccurateRip v2 signature : A98138C6
->Track not present in AccurateRip database.
Statistics
Read error : 0
Jitter error (maybe fixed) : 0
Retry sector count : 0
Damaged sector count : 0

Track 04
Filename : /Users/sara/Desktop/dossier sans titre/Demdike Stare - Wonderland (2016) [FLAC]/04 Blue.flac

Track gain : 1.37 dB
Peak : 0.965637
CRC32 hash (test run) : FE70E77B
CRC32 hash : FE70E77B
CRC32 hash (skip zero) : D847F6DA
AccurateRip v1 signature : 9DDD9066
AccurateRip v2 signature : 9B5CC53F
->Track not present in AccurateRip database.
Statistics
Read error : 0
Jitter error (maybe fixed) : 0
Retry sector count : 0
Damaged sector count : 0

Track 05
Filename : /Users/sara/Desktop/dossier sans titre/Demdike Stare - Wonderland (2016) [FLAC]/05 FullEdge [eMpTy-40 Mix].flac

Track gain : -3.51 dB
Peak : 0.965637
CRC32 hash (test run) : 969F8346
CRC32 hash : 969F8346
CRC32 hash (skip zero) : 5D623668
AccurateRip v1 signature : 7A125043
AccurateRip v2 signature : D15C5E8C
->Track not present in AccurateRip database.
Statistics
Read error : 0
Jitter error (maybe fixed) : 0
Retry sector count : 0
Damaged sector count : 0

Track 06
Filename : /Users/sara/Desktop/dossier sans titre/Demdike Stare - Wonderland (2016) [FLAC]/06 Sourcer.flac

Track gain : -6.20 dB
Peak : 0.965637
CRC32 hash (test run) : BC7C52D0
CRC32 hash : BC7C52D0
CRC32 hash (skip zero) : 166D0EA2
AccurateRip v1 signature : 3F4E7AA9
AccurateRip v2 signature : 52BC4C79
->Track not present in AccurateRip database.
Statistics
Read error : 0
Jitter error (maybe fixed) : 0
Retry sector count : 0
Damaged sector count : 0

Track 07
Filename : /Users/sara/Desktop/dossier sans titre/Demdike Stare - Wonderland (2016) [FLAC]/07 Airborne Latency.flac

Track gain : -7.59 dB
Peak : 0.965637
CRC32 hash (test run) : 9CC80846
CRC32 hash : 9CC80846
CRC32 hash (skip zero) : 40FFC90B
AccurateRip v1 signature : 30B4C987
AccurateRip v2 signature : 3E3AD1C0
->Track not present in AccurateRip database.
Statistics
Read error : 0
Jitter error (maybe fixed) : 0
Retry sector count : 0
Damaged sector count : 0

Track 08
Filename : /Users/sara/Desktop/dossier sans titre/Demdike Stare - Wonderland (2016) [FLAC]/08 Fridge Challenge.flac

Track gain : 4.02 dB
Peak : 0.628906
CRC32 hash (test run) : 0143A3C5
CRC32 hash : 0143A3C5
CRC32 hash (skip zero) : 6FC1E223
AccurateRip v1 signature : 39BCE0AA
AccurateRip v2 signature : 69357481
->Track not present in AccurateRip database.
Statistics
Read error : 0
Jitter error (maybe fixed) : 0
Retry sector count : 0
Damaged sector count : 0

Track 09
Filename : /Users/sara/Desktop/dossier sans titre/Demdike Stare - Wonderland (2016) [FLAC]/09 Overstaying.flac

Track gain : -5.93 dB
Peak : 0.965637
CRC32 hash (test run) : AD22E716
CRC32 hash : AD22E716
CRC32 hash (skip zero) : 7282C1BE
AccurateRip v1 signature : 816BA762
AccurateRip v2 signature : 8AC1F353
->Track not present in AccurateRip database.
Statistics
Read error : 0
Jitter error (maybe fixed) : 0
Retry sector count : 0
Damaged sector count : 0

No errors occurred

End of status report

-----BEGIN XLD SIGNATURE-----
qhlcs55dhkic77Ldr_6xcmhWUS7Qm4Q21rqC2RXUlGf.S1QHUkxuYSoPo5mM2ztSZIwe9PFB_B0lx5yvSFvE3wleYQfNvEoE0M6vmPa
-----END XLD SIGNATURE

-----------------------------------------------------------------------------------------------------------------------------------------------------------

X Lossless Decoder version 20161007 (149.3)

XLD extraction logfile from 2016-12-09 13:16:53 -0500

Demdike Stare / Wonderland

Used drive : MATSHITA DVD-R UJ-898 (revision HC10)
Media type : Pressed CD

Ripper mode : XLD Secure Ripper
Disable audio cache : OK for the drive with a cache less than 1375KiB
Make use of C2 pointers : NO
Read offset correction : 102
Max retry count : 20
Gap status : Analyzed, Appended (except HTOA)

TOC of the extracted CD
Track | Start | Length | Start sector | End sector
---------------------------------------------------------
1 | 00:00:00 | 08:12:47 | 0 | 36946
2 | 08:12:47 | 07:56:37 | 36947 | 72683
3 | 16:09:09 | 06:22:20 | 72684 | 101353
4 | 22:31:29 | 08:27:55 | 101354 | 139433
5 | 30:59:09 | 07:09:37 | 139434 | 171645
6 | 38:08:46 | 10:25:45 | 171646 | 218565

AccurateRip Summary
Disc not found in AccurateRip DB.

All Tracks
Album gain : -10.20 dB
Peak : 0.996033
Statistics
Read error : 0
Jitter error (maybe fixed) : 0
Retry sector count : 0
Damaged sector count : 0

Track 01
Filename : /Users/sara/Desktop/dossier sans titre/Demdike Stare - Wonderland (2016) [FLAC]/01 Collision.flac
Pre-gap length : 00:02:00

Track gain : -11.84 dB
Peak : 0.987213
CRC32 hash (test run) : 08F77F9A
CRC32 hash : 08F77F9A
CRC32 hash (skip zero) : 3CD3A35D
AccurateRip v1 signature : AC86E4DC
AccurateRip v2 signature : EE940FE9
->Track not present in AccurateRip database.
Statistics
Read error : 0
Jitter error (maybe fixed) : 0
Retry sector count : 0
Damaged sector count : 0

Track 02
Filename : /Users/sara/Desktop/dossier sans titre/Demdike Stare - Wonderland (2016) [FLAC]/02 Misappropriation.flac

Track gain : -7.93 dB
Peak : 0.996033
CRC32 hash (test run) : 07D9D138
CRC32 hash : 07D9D138
CRC32 hash (skip zero) : 50F49063
AccurateRip v1 signature : 080C4AE9
AccurateRip v2 signature : 425DDC6D
->Track not present in AccurateRip database.
Statistics
Read error : 0
Jitter error (maybe fixed) : 0
Retry sector count : 0
Damaged sector count : 0

Track 03
Filename : /Users/sara/Desktop/dossier sans titre/Demdike Stare - Wonderland (2016) [FLAC]/03 Grows without Bound.flac

Track gain : -8.64 dB
Peak : 0.987244
CRC32 hash (test run) : 5BF8A686
CRC32 hash : 5BF8A686
CRC32 hash (skip zero) : E9E7C396
AccurateRip v1 signature : 59F856D1
AccurateRip v2 signature : F8C027D8
->Track not present in AccurateRip database.
Statistics
Read error : 0
Jitter error (maybe fixed) : 0
Retry sector count : 0
Damaged sector count : 0

Track 04
Filename : /Users/sara/Desktop/dossier sans titre/Demdike Stare - Wonderland (2016) [FLAC]/04 Primitive Equations.flac

Track gain : -9.08 dB
Peak : 0.976471
CRC32 hash (test run) : 5830D556
CRC32 hash : 5830D556
CRC32 hash (skip zero) : B791A1D1
AccurateRip v1 signature : 590DF3F9
AccurateRip v2 signature : 09443D02
->Track not present in AccurateRip database.
Statistics
Read error : 0
Jitter error (maybe fixed) : 0
Retry sector count : 0
Damaged sector count : 0

Track 05
Filename : /Users/sara/Desktop/dossier sans titre/Demdike Stare - Wonderland (2016) [FLAC]/05 Eulogy.flac

Track gain : -5.99 dB
Peak : 0.944977
CRC32 hash (test run) : 596C8481
CRC32 hash : 596C8481
CRC32 hash (skip zero) : EA1EEA81
AccurateRip v1 signature : D5D9605F
AccurateRip v2 signature : 210AF33A
->Track not present in AccurateRip database.
Statistics
Read error : 0
Jitter error (maybe fixed) : 0
Retry sector count : 0
Damaged sector count : 0

Track 06
Filename : /Users/sara/Desktop/dossier sans titre/Demdike Stare - Wonderland (2016) [FLAC]/06 Dislogy.flac

Track gain : -10.65 dB
Peak : 0.968628
CRC32 hash (test run) : 95831416
CRC32 hash : 95831416
CRC32 hash (skip zero) : E59179A8
AccurateRip v1 signature : 560410A9
AccurateRip v2 signature : F18D81E1
->Track not present in AccurateRip database.
Statistics
Read error : 0
Jitter error (maybe fixed) : 0
Retry sector count : 0
Damaged sector count : 0

No errors occurred

End of status report

-----BEGIN XLD SIGNATURE-----
T5YSvoaN8tIvlfC02oRtAF5MyLSnH3E5WN0YMOx1q5LBa7NDZY7MnoKDp9HNprsqXCa.0oIXRKOCm.vaHnntgDOF7KD9q1mJ5kR2grS
-----END XLD SIGNATURE-----

-------------------------------------------------------------------------------------------------------------------------------------------------------------------

X Lossless Decoder version 20161007 (149.3)

XLD extraction logfile from 2016-12-09 14:03:20 -0500

Demdike Stare / Wonderland

Used drive : MATSHITA DVD-R UJ-898 (revision HC10)
Media type : Pressed CD

Ripper mode : XLD Secure Ripper
Disable audio cache : OK for the drive with a cache less than 1375KiB
Make use of C2 pointers : NO
Read offset correction : 102
Max retry count : 20
Gap status : Analyzed, Appended (except HTOA)

TOC of the extracted CD
Track | Start | Length | Start sector | End sector
---------------------------------------------------------
1 | 00:00:00 | 08:20:69 | 0 | 37568
2 | 08:20:69 | 07:46:09 | 37569 | 72527
3 | 16:07:03 | 06:42:19 | 72528 | 102696
4 | 22:49:22 | 05:48:45 | 102697 | 128841
5 | 28:37:67 | 06:09:64 | 128842 | 156580
6 | 34:47:56 | 06:10:11 | 156581 | 184341
7 | 40:57:67 | 06:27:26 | 184342 | 213392
8 | 47:25:18 | 06:40:41 | 213393 | 243433

AccurateRip Summary
Disc not found in AccurateRip DB.

All Tracks
Album gain : -10.93 dB
Peak : 0.967346
Statistics
Read error : 0
Jitter error (maybe fixed) : 0
Retry sector count : 0
Damaged sector count : 0

Track 01
Filename : /Users/sara/Desktop/dossier sans titre/Demdike Stare - Wonderland (2016) [FLAC]/01 Fail.flac
Pre-gap length : 00:02:00

Track gain : -10.78 dB
Peak : 0.967346
CRC32 hash (test run) : F4949A36
CRC32 hash : F4949A36
CRC32 hash (skip zero) : 81029916
AccurateRip v1 signature : D8FD1C77
AccurateRip v2 signature : 4877F1E2
->Track not present in AccurateRip database.
Statistics
Read error : 0
Jitter error (maybe fixed) : 0
Retry sector count : 0
Damaged sector count : 0

Track 02
Filename : /Users/sara/Desktop/dossier sans titre/Demdike Stare - Wonderland (2016) [FLAC]/02 Null Results.flac

Track gain : -11.75 dB
Peak : 0.966675
CRC32 hash (test run) : 4F1F03FB
CRC32 hash : 4F1F03FB
CRC32 hash (skip zero) : 53798019
AccurateRip v1 signature : 109E5C65
AccurateRip v2 signature : 97447E4B
->Track not present in AccurateRip database.
Statistics
Read error : 0
Jitter error (maybe fixed) : 0
Retry sector count : 0
Damaged sector count : 0

Track 03
Filename : /Users/sara/Desktop/dossier sans titre/Demdike Stare - Wonderland (2016) [FLAC]/03 Procrastination.flac

Track gain : -7.23 dB
Peak : 0.966919
CRC32 hash (test run) : EB197C33
CRC32 hash : EB197C33
CRC32 hash (skip zero) : 5A42E82C
AccurateRip v1 signature : 29AEDE9D
AccurateRip v2 signature : 03869C5A
->Track not present in AccurateRip database.
Statistics
Read error : 0
Jitter error (maybe fixed) : 0
Retry sector count : 0
Damaged sector count : 0

Track 04
Filename : /Users/sara/Desktop/dossier sans titre/Demdike Stare - Wonderland (2016) [FLAC]/04 Past Majesty.flac

Track gain : -11.20 dB
Peak : 0.966949
CRC32 hash (test run) : E7575955
CRC32 hash : E7575955
CRC32 hash (skip zero) : B87F966B
AccurateRip v1 signature : 9B62663F
AccurateRip v2 signature : B52FF13A
->Track not present in AccurateRip database.
Statistics
Read error : 0
Jitter error (maybe fixed) : 0
Retry sector count : 0
Damaged sector count : 0

Track 05
Filename : /Users/sara/Desktop/dossier sans titre/Demdike Stare - Wonderland (2016) [FLAC]/05 40 Years Under the Cosh.flac

Track gain : -11.56 dB
Peak : 0.966949
CRC32 hash (test run) : 80C8EDC5
CRC32 hash : 80C8EDC5
CRC32 hash (skip zero) : 31BB6D67
AccurateRip v1 signature : 053BD436
AccurateRip v2 signature : F81ADF64
->Track not present in AccurateRip database.
Statistics
Read error : 0
Jitter error (maybe fixed) : 0
Retry sector count : 0
Damaged sector count : 0

Track 06
Filename : /Users/sara/Desktop/dossier sans titre/Demdike Stare - Wonderland (2016) [FLAC]/06 Frontin'.flac

Track gain : -9.57 dB
Peak : 0.966949
CRC32 hash (test run) : 138A7145
CRC32 hash : 138A7145
CRC32 hash (skip zero) : 77FB8E0D
AccurateRip v1 signature : 54147453
AccurateRip v2 signature : 51405C56
->Track not present in AccurateRip database.
Statistics
Read error : 0
Jitter error (maybe fixed) : 0
Retry sector count : 0
Damaged sector count : 0

Track 07
Filename : /Users/sara/Desktop/dossier sans titre/Demdike Stare - Wonderland (2016) [FLAC]/07 Rathe.flac

Track gain : -10.57 dB
Peak : 0.966034
CRC32 hash (test run) : 9B1867FB
CRC32 hash : 9B1867FB
CRC32 hash (skip zero) : D42E7458
AccurateRip v1 signature : 96133C89
AccurateRip v2 signature : 77289C66
->Track not present in AccurateRip database.
Statistics
Read error : 0
Jitter error (maybe fixed) : 0
Retry sector count : 0
Damaged sector count : 0

Track 08
Filename : /Users/sara/Desktop/dossier sans titre/Demdike Stare - Wonderland (2016) [FLAC]/08 Patchwork.flac

Track gain : -11.08 dB
Peak : 0.966034
CRC32 hash (test run) : BBB0B4D8
CRC32 hash : BBB0B4D8
CRC32 hash (skip zero) : 9B9B0F9D
AccurateRip v1 signature : 898064A4
AccurateRip v2 signature : 0469582F
->Track not present in AccurateRip database.
Statistics
Read error : 0
Jitter error (maybe fixed) : 0
Retry sector count : 0
Damaged sector count : 0

No errors occurred

End of status report

-----BEGIN XLD SIGNATURE-----
MMX70d8sPWf3ERZ1tD.HY5Ezjs4r8LjB2b5Rdh4ZZ5xAJOisoBVWsGAc0HKItNS_Fq.9VJn6E_CKLU3cvwY5oBNPfIVzBc.Lsq.PMfa
-----END XLD SIGNATURE-----


REM GENRE "Experimental"
REM DATE 2016
REM DISCNUMBER 1
PERFORMER "Demdike Stare"
TITLE Wonderland
FILE "01. Curzon.flac" WAVE
TRACK 1 AUDIO
TITLE Curzon
PERFORMER "Demdike Stare"
INDEX 01 00:00:00
FILE "02. Animal Style.flac" WAVE
TRACK 2 AUDIO
TITLE "Animal Style"
PERFORMER "Demdike Stare"
INDEX 01 00:00:00
FILE "03. Hardnoise.flac" WAVE
TRACK 3 AUDIO
TITLE Hardnoise
PERFORMER "Demdike Stare"
INDEX 01 00:00:00
FILE "04. Blue.flac" WAVE
TRACK 4 AUDIO
TITLE Blue
PERFORMER "Demdike Stare"
INDEX 01 00:00:00
FILE "05. FullEdge (eMpTy-40 Mix).flac" WAVE
TRACK 5 AUDIO
TITLE "Fulledge (Empty-40 Mix)"
PERFORMER "Demdike Stare"
INDEX 01 00:00:00
FILE "06. Sourcer.flac" WAVE
TRACK 6 AUDIO
TITLE Sourcer
PERFORMER "Demdike Stare"
INDEX 01 00:00:00
FILE "07. Airborne Latency.flac" WAVE
TRACK 7 AUDIO
TITLE "Airborne Latency"
PERFORMER "Demdike Stare"
INDEX 01 00:00:00
FILE "08. Fridge Challenge.flac" WAVE
TRACK 8 AUDIO
TITLE "Fridge Challenge"
PERFORMER "Demdike Stare"
INDEX 01 00:00:00
FILE "09. Overstaying.flac" WAVE
TRACK 9 AUDIO
TITLE Overstaying
PERFORMER "Demdike Stare"
INDEX 01 00:00:00

----------------------------------------------------------------------

REM GENRE "Experimental"
REM DATE 2016
REM DISCNUMBER 2
PERFORMER "Demdike Stare"
TITLE Wonderland
FILE "01. Collision.flac" WAVE
TRACK 1 AUDIO
TITLE Collision
PERFORMER "Demdike Stare"
INDEX 01 00:00:00
FILE "02. Misappropriation.flac" WAVE
TRACK 2 AUDIO
TITLE Misappropriation
PERFORMER "Demdike Stare"
INDEX 01 00:00:00
FILE "03. Grows Without Bound.flac" WAVE
TRACK 3 AUDIO
TITLE "Grows Without Bound"
PERFORMER "Demdike Stare"
INDEX 01 00:00:00
FILE "04. Primitive Equations.flac" WAVE
TRACK 4 AUDIO
TITLE "Primitive Equations"
PERFORMER "Demdike Stare"
INDEX 01 00:00:00
FILE "05. Eulogy.flac" WAVE
TRACK 5 AUDIO
TITLE Eulogy
PERFORMER "Demdike Stare"
INDEX 01 00:00:00
FILE "06. Dyslogy.flac" WAVE
TRACK 6 AUDIO
TITLE Dyslogy
PERFORMER "Demdike Stare"
INDEX 01 00:00:00

--------------------------------------------------------------

REM GENRE "Experimental"
REM DATE 2016
REM DISCNUMBER 3
PERFORMER "Demdike Stare"
TITLE Wonderland
FILE "01. Fail.flac" WAVE
TRACK 1 AUDIO
TITLE Fail
PERFORMER "Demdike Stare"
INDEX 01 00:00:00
FILE "02. Null Results.flac" WAVE
TRACK 2 AUDIO
TITLE "Null Results"
PERFORMER "Demdike Stare"
INDEX 01 00:00:00
FILE "03. Procrastination.flac" WAVE
TRACK 3 AUDIO
TITLE Procrastination
PERFORMER "Demdike Stare"
INDEX 01 00:00:00
FILE "04. Past Majesty.flac" WAVE
TRACK 4 AUDIO
TITLE "Past Majesty"
PERFORMER "Demdike Stare"
INDEX 01 00:00:00
FILE "05. 40 Years Under The Cosh.flac" WAVE
TRACK 5 AUDIO
TITLE "40 Years Under The Cosh"
PERFORMER "Demdike Stare"
INDEX 01 00:00:00
FILE "06. Frontin'.flac" WAVE
TRACK 6 AUDIO
TITLE Frontin'
PERFORMER "Demdike Stare"
INDEX 01 00:00:00
FILE "07. Rathe.flac" WAVE
TRACK 7 AUDIO
TITLE Rathe
PERFORMER "Demdike Stare"
INDEX 01 00:00:00
FILE "08. Patchwork.flac" WAVE
TRACK 8 AUDIO
TITLE Patchwork
PERFORMER "Demdike Stare"
INDEX 01 00:00:00

Год выпуска: 2011
Продолжительность: 00:53:27
Треклист:

01. Billy Green - Toadtrip (Demdike Stare's Double Drop Crash Edit) (05:20)
02. Vangelis - The Dragon (15:12)
03. Horrific Child - L'Etrange Mr Whinster (Demdike Stare's Les Vampires Emeutes Mash Up) (05:47)
04. Fusioon - Contraste (06:37)
05. Bappi Lahiri - Disco Title Music From Dahshat (03:17)
06. Acanthus - Violent Library (01:12)
07. Bruno Spoerri - Background Rhythm 4 (03:56)
08. Selda - Utan Utan (02:53)
09. Visitors - Visitors (03:36)
10. Stanley Myers - Main Theme From Sitting Target (02:35)
11. Philippe D'Aram - Des Ecuries (03:02)

Exact Audio Copy V1.0 beta 3 from 29. August 2011

EAC extraction logfile from 11. August 2012, 23:20

Various Artists / Make Do And Mend 02 - Demdike Stare Supports Finders Keepers

Used drive : PLEXTOR CD-R PREMIUM Adapter: 5 ID: 0

Read mode : Secure
Utilize accurate stream : Yes
Defeat audio cache : Yes
Make use of C2 pointers : No

Read offset correction : 30
Overread into Lead-In and Lead-Out : Yes
Fill up missing offset samples with silence : Yes
Delete leading and trailing silent blocks : No
Null samples used in CRC calculations : Yes
Used interface : Installed external ASPI interface
Gap handling : Appended to previous track

Used output format : User Defined Encoder
Selected bitrate : 1024 kBit/s
Quality : High
Add ID3 tag : No
Command line compressor : C:\Program Files\Exact Audio Copy\Flac\flac.exe
Additional command line options : -8 -V -T "ARTIST=%artist%" -T "TITLE=%title%" -T "ALBUM=%albumtitle%" -T "DATE=%year%" -T "TRACKNUMBER=%tracknr%" -T "GENRE=%genre%" -T "PERFORMER=%albuminterpret%" -T "COMPOSER=%composer%" %haslyrics%--tag-from-file=LYRICS="%lyricsfile%"%haslyrics% -T "ALBUMARTIST=%albumartist%" -T "ALBUM ARTIST=%albumartist%" -T "DISCNUMBER=%cdnumber%" -T "TOTALDISCS=%totalcds%" -T "TOTALTRACKS=%numtracks%" -T "COMMENT=%comment%" %source% -o %dest%

TOC of the extracted CD

Track | Start | Length | Start sector | End sector
---------------------------------------------------------
1 | 0:00.00 | 5:20.00 | 0 | 23999
2 | 5:20.00 | 15:12.27 | 24000 | 92426
3 | 20:32.27 | 5:46.51 | 92427 | 118427
4 | 26:19.03 | 6:37.37 | 118428 | 148239
5 | 32:56.40 | 3:16.63 | 148240 | 163002
6 | 36:13.28 | 1:11.68 | 163003 | 168395
7 | 37:25.21 | 3:55.59 | 168396 | 186079
8 | 41:21.05 | 2:52.54 | 186080 | 199033
9 | 44:13.59 | 3:35.54 | 199034 | 215212
10 | 47:49.38 | 2:35.22 | 215213 | 226859
11 | 50:24.60 | 3:02.18 | 226860 | 240527

Track 1

Filename C:\EACRips\01 Billy Green - Toadstrip (Demdike Stare's Double Drop Crash Edit).wav

Pre-gap length 0:00:02.00

Peak level 97.4 %
Extraction speed 6.5 X
Track quality 99.9 %
Test CRC 2956CD90
Copy CRC 2956CD90
Accurately ripped (confidence 1) [C34D24C2] (AR v2)
Copy OK

Track 2

Filename C:\EACRips\02 Vangelis - The Dragon.wav

Peak level 99.3 %
Extraction speed 10.9 X
Track quality 100.0 %
Test CRC 1E77113C
Copy CRC 1E77113C
Accurately ripped (confidence 1) [F72FDF98] (AR v2)
Copy OK

Track 3

Filename C:\EACRips\03 Horrific Child - L'Etrange Mr Whinster (Demdike Stare's Les Vampires Emeutes Mash Up).wav

Peak level 95.0 %
Extraction speed 12.5 X
Track quality 100.0 %
Test CRC 3AE90F15
Copy CRC 3AE90F15
Accurately ripped (confidence 1) [E75629F1] (AR v2)
Copy OK

Track 4

Filename C:\EACRips\04 Fusioon - Contraste.wav

Peak level 99.9 %
Extraction speed 13.5 X
Track quality 100.0 %
Test CRC E997F2FA
Copy CRC E997F2FA
Accurately ripped (confidence 1) [E82E4E17] (AR v2)
Copy OK

Track 5

Filename C:\EACRips\05 Bappi Lahiri - Disco Title Music From Dahshat.wav

Peak level 96.5 %
Extraction speed 7.2 X
Track quality 99.9 %
Test CRC E6F0EA09
Copy CRC E6F0EA09
Accurately ripped (confidence 1) [D0CDE71A] (AR v2)
Copy OK

Track 6

Filename C:\EACRips\06 Acanthus - Violent Library.wav

Peak level 79.0 %
Extraction speed 12.2 X
Track quality 100.0 %
Test CRC 86163B37
Copy CRC 86163B37
Accurately ripped (confidence 1) [5B8E4F48] (AR v2)
Copy OK

Track 7

Filename C:\EACRips\07 Bruno Spoerri - Background Rhythm 4.wav

Peak level 99.9 %
Extraction speed 14.5 X
Track quality 100.0 %
Test CRC 3A7DA7B2
Copy CRC 3A7DA7B2
Accurately ripped (confidence 1) [F03F9541] (AR v2)
Copy OK

Track 8

Filename C:\EACRips\08 Selda - Utan Utan.wav

Peak level 98.8 %
Extraction speed 14.3 X
Track quality 100.0 %
Test CRC 40305547
Copy CRC 40305547
Accurately ripped (confidence 1) [F206B161] (AR v2)
Copy OK

Track 9

Filename C:\EACRips\09 Visitors - Visitors.wav

Peak level 94.4 %
Extraction speed 15.0 X
Track quality 100.0 %
Test CRC 30B2274D
Copy CRC 30B2274D
Accurately ripped (confidence 1) [4F949201] (AR v2)
Copy OK

Track 10

Filename C:\EACRips\10 Stanley Myers - Main Theme From Sitting Target.wav

Peak level 79.4 %
Extraction speed 5.7 X
Track quality 100.0 %
Test CRC F6020C34
Copy CRC F6020C34
Accurately ripped (confidence 1) [185117D4] (AR v2)
Copy OK

Track 11

Filename C:\EACRips\11 Philippe D'Aram - Des Ecuries.wav

Pre-gap length 0:00:02.00

Peak level 100.0 %
Extraction speed 2.0 X
Track quality 99.9 %
Test CRC 1BCC1808
Copy CRC 1BCC1808
Accurately ripped (confidence 1) [A1944036] (AR v2)
Copy OK

All tracks accurately ripped

No errors occurred

End of status report

---- CUETools DB Plugin V2.1.3

[CTDB TOCID: Qdedlvn6BfuYa2EGJBA6Jat9yW8-] found, Submit result: Qdedlvn6BfuYa2EGJBA6Jat9yW8- has been confirmed
[248eee0a] (2/2) Accurately ripped

==== Log checksum 4D1978868281638DDD01285C1C5BA583D6D5DCBEB7B69A677D9995B1F98AE3A5 ====


REM GENRE Indie
REM DATE 2011
REM DISCID 990C870B
REM COMMENT "ExactAudioCopy v1.0b3"
PERFORMER "Various Artists"
TITLE "Make Do And Mend 02 - Demdike Stare Supports Finders Keepers"
FILE "01 Billy Green - Toadstrip (Demdike Stare's Double Drop Crash Edit).wav" WAVE
TRACK 01 AUDIO
TITLE "Toadstrip (Demdike Stare's Double Drop Crash Edit)"
PERFORMER "Billy Green"
INDEX 01 00:00:00
FILE "02 Vangelis - The Dragon.wav" WAVE
TRACK 02 AUDIO
TITLE "The Dragon"
PERFORMER "Vangelis"
INDEX 01 00:00:00
FILE "03 Horrific Child - L'Etrange Mr Whinster (Demdike Stare's Les Vampires Emeutes Mash Up).wav" WAVE
TRACK 03 AUDIO
TITLE "L'Etrange Mr Whinster (Demdike Stare's Les Vampires Emeutes Mash Up)"
PERFORMER "Horrific Child"
INDEX 01 00:00:00
FILE "04 Fusioon - Contraste.wav" WAVE
TRACK 04 AUDIO
TITLE "Contraste"
PERFORMER "Fusioon"
INDEX 01 00:00:00
FILE "05 Bappi Lahiri - Disco Title Music From Dahshat.wav" WAVE
TRACK 05 AUDIO
TITLE "Disco Title Music From Dahshat"
PERFORMER "Bappi Lahiri"
INDEX 01 00:00:00
FILE "06 Acanthus - Violent Library.wav" WAVE
TRACK 06 AUDIO
TITLE "Violent Library"
PERFORMER "Acanthus"
INDEX 01 00:00:00
FILE "07 Bruno Spoerri - Background Rhythm 4.wav" WAVE
TRACK 07 AUDIO
TITLE "Background Rhythm 4"
PERFORMER "Bruno Spoerri"
INDEX 01 00:00:00
FILE "08 Selda - Utan Utan.wav" WAVE
TRACK 08 AUDIO
TITLE "Utan Utan"
PERFORMER "Selda"
INDEX 01 00:00:00
FILE "09 Visitors - Visitors.wav" WAVE
TRACK 09 AUDIO
TITLE "Visitors"
PERFORMER "Visitors"
INDEX 01 00:00:00
FILE "10 Stanley Myers - Main Theme From Sitting Target.wav" WAVE
TRACK 10 AUDIO
TITLE "Main Theme From Sitting Target"
PERFORMER "Stanley Myers"
INDEX 01 00:00:00
TRACK 11 AUDIO
TITLE "Des Ecuries"
PERFORMER "Philippe D'Aram"
INDEX 00 02:33:22
FILE "11 Philippe D'Aram - Des Ecuries.wav" WAVE
INDEX 01 00:00:00

Год выпуска: 2011
Продолжительность: 00:28:24+01:04:01+01:08:07
Треклист:

CD1 Forest of Evil
01. Forest Of Evil (Dusk) (14:29)
02. Forest Of Evil (Dawn) (10:17)
03. Quiet Sky (03:38)

CD2 Liberation Through Hearing
01. Caged In Stammheim (05:18)
02. Eurydice (08:08)
03. Regolith (06:00)
04. The Stars Are Moving (08:36)
05. Bardo Thodol (05:35)
06. Matilda's Dream (11:13)
07. Nothing But The Night 2 (04:54)
08. Library Of Solomon Book 1 (04:38)
09. Library Of Solomon Book 2 (09:39)

CD3 Voices of Dust
01. Black Sun (02:28)
02. Hashshashin Chant (06:20)
03. Repository Of Light (11:21)
04. Of Decay & Shadows (02:37)
05. Rain & Shame (04:16)
06. Desert Ascetic (04:35)
07. Viento De Levante (07:16)
08. Leptonic Matter (04:34)
09. A Tale Of Sand (04:54)
10. Filtered Through Prejudice (10:40)
11. Past Is Past (09:06)

Exact Audio Copy V0.99 prebeta 5 from 4. May 2009

EAC extraction logfile from 2. February 2011, 19:33

Demdike Stare / Tryptych [Disc 1: Forest of Evil]

Used drive : HL-DT-STDVD+-RW GSA-H31N Adapter: 1 ID: 0

Read mode : Secure
Utilize accurate stream : Yes
Defeat audio cache : Yes
Make use of C2 pointers : No

Read offset correction : 102
Overread into Lead-In and Lead-Out : No
Fill up missing offset samples with silence : Yes
Delete leading and trailing silent blocks : No
Null samples used in CRC calculations : Yes
Used interface : Installed external ASPI interface
Gap handling : Appended to previous track

Used output format : User Defined Encoder
Selected bitrate : 128 kBit/s
Quality : High
Add ID3 tag : No
Command line compressor : D:\Program Files\Exact Audio Copy\Flac\flac.exe
Additional command line options : -V -8 -T "artist=%a" -T "title=%t" -T "album=%g" -T "date=%y" -T "tracknumber=%n" -T "genre=%m" %s

TOC of the extracted CD

Track | Start | Length | Start sector | End sector
---------------------------------------------------------
1 | 0:00.00 | 14:29.00 | 0 | 65174
2 | 14:29.00 | 10:17.00 | 65175 | 111449
3 | 24:46.00 | 3:37.51 | 111450 | 127775

Track 1

Filename E:\Temp5\Demdike Stare - Tryptych [FLAC]\Disc 1- Forest of Evil\01 - Forest of Evil (Dusk).wav

Pre-gap length 0:00:02.00

Peak level 97.7 %
Track quality 99.9 %
Test CRC 4DEFA8F9
Copy CRC 4DEFA8F9
Track not present in AccurateRip database
Copy OK

Track 2

Filename E:\Temp5\Demdike Stare - Tryptych [FLAC]\Disc 1- Forest of Evil\02 - Forest of Evil (Dawn).wav

Peak level 95.7 %
Track quality 100.0 %
Test CRC D96C2971
Copy CRC D96C2971
Track not present in AccurateRip database
Copy OK

Track 3

Filename E:\Temp5\Demdike Stare - Tryptych [FLAC]\Disc 1- Forest of Evil\03 - Quiet Sky.wav

Peak level 97.1 %
Track quality 100.0 %
Test CRC D49F60AE
Copy CRC D49F60AE
Track not present in AccurateRip database
Copy OK

None of the tracks are present in the AccurateRip database

No errors occurred

End of status report

----------------------------------------------------------------------------------------------------------------------------------------

Exact Audio Copy V0.99 prebeta 5 from 4. May 2009

EAC extraction logfile from 2. February 2011, 19:05

Demdike Stare / Tryptych [Disc 2: Liberation Through Hearing]

Used drive : HL-DT-STDVD+-RW GSA-H31N Adapter: 1 ID: 0

Read mode : Secure
Utilize accurate stream : Yes
Defeat audio cache : Yes
Make use of C2 pointers : No

Read offset correction : 102
Overread into Lead-In and Lead-Out : No
Fill up missing offset samples with silence : Yes
Delete leading and trailing silent blocks : No
Null samples used in CRC calculations : Yes
Used interface : Installed external ASPI interface
Gap handling : Appended to previous track

Used output format : User Defined Encoder
Selected bitrate : 128 kBit/s
Quality : High
Add ID3 tag : No
Command line compressor : D:\Program Files\Exact Audio Copy\Flac\flac.exe
Additional command line options : -V -8 -T "artist=%a" -T "title=%t" -T "album=%g" -T "date=%y" -T "tracknumber=%n" -T "genre=%m" %s

TOC of the extracted CD

Track | Start | Length | Start sector | End sector
---------------------------------------------------------
1 | 0:00.00 | 5:18.04 | 0 | 23853
2 | 5:18.04 | 8:07.71 | 23854 | 60449
3 | 13:26.00 | 5:59.63 | 60450 | 87437
4 | 19:25.63 | 8:36.00 | 87438 | 126137
5 | 28:01.63 | 5:35.26 | 126138 | 151288
6 | 33:37.14 | 11:12.61 | 151289 | 201749
7 | 44:50.00 | 4:53.49 | 201750 | 223773
8 | 49:43.49 | 4:38.30 | 223774 | 244653
9 | 54:22.04 | 9:39.23 | 244654 | 288101

Track 1

Filename E:\Temp5\Demdike Stare - Tryptych [FLAC]\Disc 2- Liberation Through Hearing\01 - Gaged in Stammheim.wav

Pre-gap length 0:00:02.00

Peak level 96.2 %
Track quality 100.0 %
Test CRC 32E3273F
Copy CRC 32E3273F
Track not present in AccurateRip database
Copy OK

Track 2

Filename E:\Temp5\Demdike Stare - Tryptych [FLAC]\Disc 2- Liberation Through Hearing\02 - Eurydice.wav

Peak level 96.2 %
Track quality 100.0 %
Test CRC E44380C1
Copy CRC E44380C1
Track not present in AccurateRip database
Copy OK

Track 3

Filename E:\Temp5\Demdike Stare - Tryptych [FLAC]\Disc 2- Liberation Through Hearing\03 - Regolith.wav

Peak level 96.4 %
Track quality 100.0 %
Test CRC 8555D84F
Copy CRC 8555D84F
Track not present in AccurateRip database
Copy OK

Track 4

Filename E:\Temp5\Demdike Stare - Tryptych [FLAC]\Disc 2- Liberation Through Hearing\04 - The Stars Are Moving.wav

Peak level 96.2 %
Track quality 100.0 %
Test CRC 2C13E1D3
Copy CRC 2C13E1D3
Track not present in AccurateRip database
Copy OK

Track 5

Filename E:\Temp5\Demdike Stare - Tryptych [FLAC]\Disc 2- Liberation Through Hearing\05 - Bardo Thodol.wav

Peak level 96.3 %
Track quality 99.9 %
Test CRC 2349F6C6
Copy CRC 2349F6C6
Track not present in AccurateRip database
Copy OK

Track 6

Filename E:\Temp5\Demdike Stare - Tryptych [FLAC]\Disc 2- Liberation Through Hearing\06 - Matilda's Dream.wav

Peak level 96.2 %
Track quality 100.0 %
Test CRC F8A4940F
Copy CRC F8A4940F
Track not present in AccurateRip database
Copy OK

Track 7

Filename E:\Temp5\Demdike Stare - Tryptych [FLAC]\Disc 2- Liberation Through Hearing\07 - Nothing But the Night 2.wav

Peak level 95.0 %
Track quality 100.0 %
Test CRC 2937F1C2
Copy CRC 2937F1C2
Track not present in AccurateRip database
Copy OK

Track 8

Filename E:\Temp5\Demdike Stare - Tryptych [FLAC]\Disc 2- Liberation Through Hearing\08 - Library Of Salomon Book 1.wav

Peak level 95.0 %
Track quality 100.0 %
Test CRC DD5016E8
Copy CRC DD5016E8
Track not present in AccurateRip database
Copy OK

Track 9

Filename E:\Temp5\Demdike Stare - Tryptych [FLAC]\Disc 2- Liberation Through Hearing\09 - Library Of Salomon Book 2.wav

Peak level 95.0 %
Track quality 100.0 %
Test CRC 8B6640A3
Copy CRC 8B6640A3
Track not present in AccurateRip database
Copy OK

None of the tracks are present in the AccurateRip database

No errors occurred

End of status report

------------------------------------------------------------------------------------------------------------------------------------------------------

Exact Audio Copy V0.99 prebeta 5 from 4. May 2009

EAC extraction logfile from 2. February 2011, 18:13

Demdike Stare / Tryptych [Disc 3: Voices of Dust]

Used drive : HL-DT-STDVD+-RW GSA-H31N Adapter: 1 ID: 0

Read mode : Secure
Utilize accurate stream : Yes
Defeat audio cache : Yes
Make use of C2 pointers : No

Read offset correction : 102
Overread into Lead-In and Lead-Out : No
Fill up missing offset samples with silence : Yes
Delete leading and trailing silent blocks : No
Null samples used in CRC calculations : Yes
Used interface : Installed external ASPI interface
Gap handling : Appended to previous track

Used output format : User Defined Encoder
Selected bitrate : 128 kBit/s
Quality : High
Add ID3 tag : No
Command line compressor : D:\Program Files\Exact Audio Copy\Flac\flac.exe
Additional command line options : -V -8 -T "artist=%a" -T "title=%t" -T "album=%g" -T "date=%y" -T "tracknumber=%n" -T "genre=%m" %s

TOC of the extracted CD

Track | Start | Length | Start sector | End sector
---------------------------------------------------------
1 | 0:00.00 | 2:28.31 | 0 | 11130
2 | 2:28.31 | 6:20.05 | 11131 | 39635
3 | 8:48.36 | 11:21.21 | 39636 | 90731
4 | 20:09.57 | 2:36.74 | 90732 | 102505
5 | 22:46.56 | 4:15.48 | 102506 | 121678
6 | 27:02.29 | 4:34.66 | 121679 | 142294
7 | 31:37.20 | 7:15.51 | 142295 | 174970
8 | 38:52.71 | 4:33.69 | 174971 | 195514
9 | 43:26.65 | 4:53.49 | 195515 | 217538
10 | 48:20.39 | 10:40.00 | 217539 | 265538
11 | 59:00.39 | 9:06.15 | 265539 | 306503

Track 1

Filename E:\Temp5\Demdike Stare - Tryptych [FLAC]\Disc 3- Voices of Dust\01 - Black Sun.wav

Pre-gap length 0:00:02.00

Peak level 71.2 %
Track quality 99.9 %
Test CRC D6C09936
Copy CRC D6C09936
Track not present in AccurateRip database
Copy OK

Track 2

Filename E:\Temp5\Demdike Stare - Tryptych [FLAC]\Disc 3- Voices of Dust\02 - Hashshashin Chant.wav

Peak level 96.3 %
Track quality 100.0 %
Test CRC 7AE5D1CC
Copy CRC 7AE5D1CC
Track not present in AccurateRip database
Copy OK

Track 3

Filename E:\Temp5\Demdike Stare - Tryptych [FLAC]\Disc 3- Voices of Dust\03 - Repository of Light.wav

Peak level 97.2 %
Track quality 100.0 %
Test CRC 43EEF33E
Copy CRC 43EEF33E
Track not present in AccurateRip database
Copy OK

Track 4

Filename E:\Temp5\Demdike Stare - Tryptych [FLAC]\Disc 3- Voices of Dust\04 - Of Decay & Shadows.wav

Peak level 71.2 %
Track quality 100.0 %
Test CRC B24061E1
Copy CRC B24061E1
Track not present in AccurateRip database
Copy OK

Track 5

Filename E:\Temp5\Demdike Stare - Tryptych [FLAC]\Disc 3- Voices of Dust\05 - Rain & Shame.wav

Peak level 96.2 %
Track quality 100.0 %
Test CRC 0B70F4D3
Copy CRC 0B70F4D3
Track not present in AccurateRip database
Copy OK

Track 6

Filename E:\Temp5\Demdike Stare - Tryptych [FLAC]\Disc 3- Voices of Dust\06 - Desert Ascetic.wav

Peak level 99.8 %
Track quality 100.0 %
Test CRC 0D58354E
Copy CRC 0D58354E
Track not present in AccurateRip database
Copy OK

Track 7

Filename E:\Temp5\Demdike Stare - Tryptych [FLAC]\Disc 3- Voices of Dust\07 - Viento De Levante.wav

Peak level 98.4 %
Track quality 99.9 %
Test CRC B5D54C59
Copy CRC B5D54C59
Track not present in AccurateRip database
Copy OK

Track 8

Filename E:\Temp5\Demdike Stare - Tryptych [FLAC]\Disc 3- Voices of Dust\08 - Leptonic Matter.wav

Peak level 96.1 %
Track quality 99.9 %
Test CRC 58E50EB9
Copy CRC 58E50EB9
Track not present in AccurateRip database
Copy OK

Track 9

Filename E:\Temp5\Demdike Stare - Tryptych [FLAC]\Disc 3- Voices of Dust\09 - A Tale of Sand.wav

Peak level 96.2 %
Track quality 100.0 %
Test CRC 6D611F44
Copy CRC 6D611F44
Track not present in AccurateRip database
Copy OK

Track 10

Filename E:\Temp5\Demdike Stare - Tryptych [FLAC]\Disc 3- Voices of Dust\10 - Filtered Through Predjudis.wav

Peak level 95.0 %
Track quality 100.0 %
Test CRC 2463C3EF
Copy CRC 2463C3EF
Track not present in AccurateRip database
Copy OK

Track 11

Filename E:\Temp5\Demdike Stare - Tryptych [FLAC]\Disc 3- Voices of Dust\11 - Past is Past.wav

Peak level 95.0 %
Track quality 100.0 %
Test CRC D4AE78B6
Copy CRC D4AE78B6
Track not present in AccurateRip database
Copy OK

None of the tracks are present in the AccurateRip database

No errors occurred

End of status report


REM GENRE Ambient
REM DATE 2011
REM DISCID 2706A703
REM COMMENT "ExactAudioCopy v0.99pb5"
PERFORMER "Demdike Stare"
TITLE "Tryptych [Disc 1: Forest of Evil]"
FILE "01 - Forest of Evil (Dusk).wav" WAVE
TRACK 01 AUDIO
TITLE "Forest of Evil (Dusk)"
PERFORMER "Demdike Stare"
INDEX 01 00:00:00
FILE "02 - Forest of Evil (Dawn).wav" WAVE
TRACK 02 AUDIO
TITLE "Forest of Evil (Dawn)"
PERFORMER "Demdike Stare"
INDEX 01 00:00:00
FILE "03 - Quiet Sky.wav" WAVE
TRACK 03 AUDIO
TITLE "Quiet Sky"
PERFORMER "Demdike Stare"
INDEX 01 00:00:00
---------------------------------------------------------------------------

REM GENRE Ambient
REM DATE 2011
REM DISCID 7E0F0109
REM COMMENT "ExactAudioCopy v0.99pb5"
PERFORMER "Demdike Stare"
TITLE "Tryptych [Disc 2: Liberation Through Hearing]"
FILE "01 - Gaged in Stammheim.wav" WAVE
TRACK 01 AUDIO
TITLE "Gaged in Stammheim"
PERFORMER "Demdike Stare"
INDEX 01 00:00:00
FILE "02 - Eurydice.wav" WAVE
TRACK 02 AUDIO
TITLE "Eurydice"
PERFORMER "Demdike Stare"
INDEX 01 00:00:00
FILE "03 - Regolith.wav" WAVE
TRACK 03 AUDIO
TITLE "Regolith"
PERFORMER "Demdike Stare"
INDEX 01 00:00:00
FILE "04 - The Stars Are Moving.wav" WAVE
TRACK 04 AUDIO
TITLE "The Stars Are Moving"
PERFORMER "Demdike Stare"
INDEX 01 00:00:00
FILE "05 - Bardo Thodol.wav" WAVE
TRACK 05 AUDIO
TITLE "Bardo Thodol"
PERFORMER "Demdike Stare"
INDEX 01 00:00:00
FILE "06 - Matilda's Dream.wav" WAVE
TRACK 06 AUDIO
TITLE "Matilda's Dream"
PERFORMER "Demdike Stare"
INDEX 01 00:00:00
FILE "07 - Nothing But the Night 2.wav" WAVE
TRACK 07 AUDIO
TITLE "Nothing But the Night 2"
PERFORMER "Demdike Stare"
INDEX 01 00:00:00
FILE "08 - Library Of Salomon Book 1.wav" WAVE
TRACK 08 AUDIO
TITLE "Library Of Salomon Book 1"
PERFORMER "Demdike Stare"
INDEX 01 00:00:00
FILE "09 - Library Of Salomon Book 2.wav" WAVE
TRACK 09 AUDIO
TITLE "Library Of Salomon Book 2"
PERFORMER "Demdike Stare"
INDEX 01 00:00:00
-------------------------------------------------------------------------

REM GENRE Ambient
REM DATE 2011
REM DISCID 860FF60B
REM COMMENT "ExactAudioCopy v0.99pb5"
PERFORMER "Demdike Stare"
TITLE "Tryptych [Disc 3: Voices of Dust]"
FILE "01 - Black Sun.wav" WAVE
TRACK 01 AUDIO
TITLE "Black Sun"
PERFORMER "Demdike Stare"
INDEX 01 00:00:00
FILE "02 - Hashshashin Chant.wav" WAVE
TRACK 02 AUDIO
TITLE "Hashshashin Chant"
PERFORMER "Demdike Stare"
INDEX 01 00:00:00
FILE "03 - Repository of Light.wav" WAVE
TRACK 03 AUDIO
TITLE "Repository of Light"
PERFORMER "Demdike Stare"
INDEX 01 00:00:00
FILE "04 - Of Decay & Shadows.wav" WAVE
TRACK 04 AUDIO
TITLE "Of Decay & Shadows"
PERFORMER "Demdike Stare"
INDEX 01 00:00:00
FILE "05 - Rain & Shame.wav" WAVE
TRACK 05 AUDIO
TITLE "Rain & Shame"
PERFORMER "Demdike Stare"
INDEX 01 00:00:00
FILE "06 - Desert Ascetic.wav" WAVE
TRACK 06 AUDIO
TITLE "Desert Ascetic"
PERFORMER "Demdike Stare"
INDEX 01 00:00:00
FILE "07 - Viento De Levante.wav" WAVE
TRACK 07 AUDIO
TITLE "Viento De Levante"
PERFORMER "Demdike Stare"
INDEX 01 00:00:00
FILE "08 - Leptonic Matter.wav" WAVE
TRACK 08 AUDIO
TITLE "Leptonic Matter"
PERFORMER "Demdike Stare"
INDEX 01 00:00:00
FILE "09 - A Tale of Sand.wav" WAVE
TRACK 09 AUDIO
TITLE "A Tale of Sand"
PERFORMER "Demdike Stare"
INDEX 01 00:00:00
FILE "10 - Filtered Through Predjudis.wav" WAVE
TRACK 10 AUDIO
TITLE "Filtered Through Predjudis"
PERFORMER "Demdike Stare"
INDEX 01 00:00:00
FILE "11 - Past is Past.wav" WAVE
TRACK 11 AUDIO
TITLE "Past is Past"
PERFORMER "Demdike Stare"
INDEX 01 00:00:00

Год выпуска: 2016
Продолжительность: 01:42:36
Треклист:

01. Collision (08:12)
02. Misappropriation (07:56)
03. Grows Without Bound (06:22)
04. Primitive Equations (08:28)
05. Eulogy (07:09)
06. Dyslogy (10:25)
07. Fail (08:20)
08. Null Results (07:46)
09. Procrastination (06:42)
10. Past Majesty (05:49)
11. 40 Years Under The Cosh (06:10)
12. Frontin (06:10)
13. Rathe (06:27)
14. Patchwork (06:40)

-----------------------

DON'T MODIFY THIS FILE

-----------------------

PERFORMER: auCDtect Task Manager, ver. 1.6.0 RC1 build 1.6.0.1
Copyright (c) 2008-2010 y-soft. All rights reserved
http://y-soft.org

ANALYZER: auCDtect: CD records authenticity detector, version 0.8.2
Copyright (c) 2004 Oleg Berngardt. All rights reserved.
Copyright (c) 2004 Alexander Djourik. All rights reserved.

FILE: 14. Patchwork.flac
Size: 47238809 Hash: 3F171265E04788177082657D5CF9135B Accuracy: -m0
Conclusion: CDDA 100%
Signature: D7DFD26CED831BD4A9CD391D270DE042F26CBD3A
FILE: 13. Rathe.flac
Size: 46605985 Hash: F840CCC20DA77D1EE06052CF98E1C9DA Accuracy: -m0
Conclusion: CDDA 100%
Signature: 1656C8319620A1CC64D834942485B19C813CEF86
FILE: 12. Frontin.flac
Size: 45781644 Hash: 5D91EB9A4E22D03F3A1006BDFAD7528A Accuracy: -m0
Conclusion: CDDA 99%
Signature: 001A9F91AB51411B2455210A4D916CEA2672C315
FILE: 11. 40 Years Under The Cosh.flac
Size: 48742640 Hash: E6C66AF55BFD3C06FA603FF6F68CB09F Accuracy: -m0
Conclusion: CDDA 100%
Signature: 623696807527CD3DAF908388BCE6D457E84B9A1E
FILE: 10. Past Majesty.flac
Size: 41876740 Hash: 1B10DF8CA82CB0A5D2FEA0E8E4425E23 Accuracy: -m0
Conclusion: CDDA 100%
Signature: A4894335C7828A883FCD14C5170A7BE206E5A09D
FILE: 09. Procrastination.flac
Size: 44092661 Hash: F93B7A81C39C9753AD4EB9D2B853CFDA Accuracy: -m0
Conclusion: CDDA 100%
Signature: 9BC611BA00E29C4B455227631CFB666645030C9D
FILE: 08. Null Results.flac
Size: 55153055 Hash: 06213FEF2D36ED1A349AD38158A75748 Accuracy: -m0
Conclusion: CDDA 100%
Signature: 320FBA5E3A71BE44B68877E09F3AF32E5AA685BD
FILE: 07. Fail.flac
Size: 61520440 Hash: 604621200EEE974736B657F226C918E8 Accuracy: -m0
Conclusion: CDDA 100%
Signature: E82A9ABFB5F4CF0416CFE08B3BD56952F512EB6F
FILE: 06. Dyslogy.flac
Size: 74515101 Hash: B7944DEF8CE3D8865F2A6E78A4D20CD2 Accuracy: -m0
Conclusion: CDDA 100%
Signature: E2A90ED29DDA4C363B8312AA52D3F1761ADF50CE
FILE: 05. Eulogy.flac
Size: 40888501 Hash: A070021EF6894470E36BC81F2A77A7AA Accuracy: -m0
Conclusion: CDDA 100%
Signature: 13DC648684509A626318FF576A17977A05FD5F8E
FILE: 04. Primitive Equations.flac
Size: 69188067 Hash: DBFB622174A7F9F6CFB8EDE83E084F28 Accuracy: -m0
Conclusion: CDDA 100%
Signature: 477E00E85F9F2272FFD06000EA3C9D7344B71626
FILE: 03. Grows Without Bound.flac
Size: 46816334 Hash: 7A98A5CCA19AFF7115D95A9B384B473B Accuracy: -m0
Conclusion: CDDA 100%
Signature: CC6AA57F0172BDB86B251A3761AEB180E42F3BAB
FILE: 02. Misappropriation.flac
Size: 57514749 Hash: DFF0CCDD707A8D6955BDD8AD0F9485DD Accuracy: -m0
Conclusion: CDDA 100%
Signature: DE36D976F015F740BDC7DF4A36EA52E3723B491E
FILE: 01. Collision.flac
Size: 65140400 Hash: 156B482D4A4127C194331059395B59B8 Accuracy: -m0
Conclusion: CDDA 100%
Signature: 50591370AD1DBEEF150E9C2435AD90FC93A8490F

Год выпуска: 2009
Продолжительность: 00:27:32
Треклист:

01. Haxan (06:23)
02. Conjoined (04:03)
03. Extwistle Hall (03:23)
04. Nothing But The Night (06:04)
05. Trapped Dervish (01:08)
06. Ghostly Hardware (06:31)

-----------------------

DON'T MODIFY THIS FILE

-----------------------

PERFORMER: auCDtect Task Manager, ver. 1.6.0 RC1 build 1.6.0.1
Copyright (c) 2008-2010 y-soft. All rights reserved
http://y-soft.org

ANALYZER: auCDtect: CD records authenticity detector, version 0.8.2
Copyright (c) 2004 Oleg Berngardt. All rights reserved.
Copyright (c) 2004 Alexander Djourik. All rights reserved.

FILE: B3.Ghostly Hardware.flac
Size: 31969607 Hash: 188A4D3A48B6C925914DCDA39FD75F3A Accuracy: -m0
Conclusion: CDDA 99%
Signature: 46C6D15049A3BCBF7DD284DDBA3DE37F04273703
FILE: B2.Trapped Dervish.flac
Size: 6144219 Hash: 7B24D28AAE78797700231BB709EAA774 Accuracy: -m0
Conclusion: CDDA 99%
Signature: EE2FF030435869DDCA2B4113241E9566590635FB
FILE: B1.Nothing But The Night.flac
Size: 36547621 Hash: 41A7844565A6FDEEA07F6079AF78129B Accuracy: -m0
Conclusion: CDDA 100%
Signature: AF669F6EF90409B3546FB8A3211EFE48DB4D86D5
FILE: A3.Extwistle Hall.flac
Size: 19259203 Hash: 23E09F63774EA30F2F4D21CC6555ECC9 Accuracy: -m0
Conclusion: CDDA 100%
Signature: 0E5E801A4AA18C9A09A720C4DBBCF4FBE7AB56CD
FILE: A2.Conjoined.flac
Size: 20524367 Hash: ABCA580C39CE4D259C87435B31D2999A Accuracy: -m0
Conclusion: CDDA 100%
Signature: 7306B134BFCD48377A2AD7542D1B9B6F9EF542A7
FILE: A1.Haxan.flac
Size: 38185740 Hash: AF470C7E8E87F616BF7BBF7FAFF26A15 Accuracy: -m0
Conclusion: CDDA 100%
Signature: 9F8E9BBB1C640E14AA531F5FB434ECED38CF94FA

Год выпуска: 2011
Продолжительность: 00:40:57
Треклист:

01. Mephisto's Lament (05:25)
02. Kommunion (08:56)
03. Unction (05:24)
04. (Untitled Hidden Track) (00:52)
05. Mnemosyne (07:20)
06. In The Wake Of Chronos (06:12)
07. Violetta (06:48)

-----------------------

DON'T MODIFY THIS FILE

-----------------------

PERFORMER: auCDtect Task Manager, ver. 1.6.0 RC1 build 1.6.0.1
Copyright (c) 2008-2010 y-soft. All rights reserved
http://y-soft.org

ANALYZER: auCDtect: CD records authenticity detector, version 0.8.2
Copyright (c) 2004 Oleg Berngardt. All rights reserved.
Copyright (c) 2004 Alexander Djourik. All rights reserved.

FILE: 07. Violetta.flac
Size: 43478869 Hash: 2AE21F3FA8B0683AC23C701BF33AE682 Accuracy: -m0
Conclusion: CDDA 100%
Signature: 5CDA4C2E511BEFAE727BE9F7BC54F65E391340FA
FILE: 06. In The Wake Of Chronos.flac
Size: 36457712 Hash: B4776346B98AA28ABCE1AE0DBF4007D6 Accuracy: -m0
Conclusion: CDDA 100%
Signature: 34BF19BDA5A78101D3638645FE848B4547F2D8BB
FILE: 05. Mnemosyne.flac
Size: 48836860 Hash: 7AAE80F7070EECC378B9CAF59B078513 Accuracy: -m0
Conclusion: CDDA 100%
Signature: FE08C33DAD0FDCF5CCFACEF20D1C9130C6D6ED78
FILE: 04. (Untitled Hidden Track).flac
Size: 4658548 Hash: AAF02C0C1E6718A0A0DCC431C1C38DDF Accuracy: -m0
Conclusion: CDDA 99%
Signature: 8740BEE9A4DCA1A082FA3246E2831164C29823DB
FILE: 03. Unction.flac
Size: 28465519 Hash: 415DD68314EE5B3A7A41F7B3D9ACCADE Accuracy: -m0
Conclusion: CDDA 100%
Signature: D359A06B1673F4FC1772D5219498E53A20EC2D0A
FILE: 02. Kommunion.flac
Size: 47960644 Hash: A668145EC80A46B5372C62CEEDC98E48 Accuracy: -m0
Conclusion: CDDA 100%
Signature: 46F08E8FFFB65E637F6525D226243FD96EA38503
FILE: 01. Mephisto's Lament.flac
Size: 36302805 Hash: 01BA98E93F43A9137EB6149E524850C3 Accuracy: -m0
Conclusion: CDDA 100%
Signature: D16CBB4CEF65B43E06A1212E71D348A6D490C826

Год выпуска: 2012
Продолжительность: 00:19:22
Треклист:

01. Dauerlinie (05:37)
02. Dasein (06:24)
03. Ishmael's Intent (07:21)

-----------------------

DON'T MODIFY THIS FILE

-----------------------

PERFORMER: auCDtect Task Manager, ver. 1.6.0 RC1 build 1.6.0.1
Copyright (c) 2008-2010 y-soft. All rights reserved
http://y-soft.org

ANALYZER: auCDtect: CD records authenticity detector, version 0.8.2
Copyright (c) 2004 Oleg Berngardt. All rights reserved.
Copyright (c) 2004 Alexander Djourik. All rights reserved.

FILE: Demdike Stare - Iris - 03. Ishmael's Intent.flac
Size: 45810471 Hash: F5B64243E245C83866560F57E3E85A04 Accuracy: -m0
Conclusion: CDDA 100%
Signature: E96B8BB76723B69051ED0E4C947BA967CFF2DD83
FILE: Demdike Stare - Iris - 02. Dasein.flac
Size: 28303196 Hash: A30B46DC33396593164CFC649207EDEB Accuracy: -m0
Conclusion: CDDA 100%
Signature: 5DA1445754CEBB4D8D71D8D3AB8AD9D55A8B1D5F
FILE: Demdike Stare - Iris - 01. Dauerlinie.flac
Size: 22822835 Hash: 483D707420206FEDB5F30B5C2B78A392 Accuracy: -m0
Conclusion: CDDA 100%
Signature: 69CD43790573562520D069F659CA0277E616D691

Год выпуска: 2012
Продолжительность: 00:24:19
Треклист:

01. Erosion Of Mediocrity (07:09)
02. Nuance (07:55)
03. Falling Off The Edge (09:15)

-----------------------

DON'T MODIFY THIS FILE

-----------------------

PERFORMER: auCDtect Task Manager, ver. 1.6.0 RC1 build 1.6.0.1
Copyright (c) 2008-2010 y-soft. All rights reserved
http://y-soft.org

ANALYZER: auCDtect: CD records authenticity detector, version 0.8.2
Copyright (c) 2004 Oleg Berngardt. All rights reserved.
Copyright (c) 2004 Alexander Djourik. All rights reserved.

FILE: 03. Falling Off The Edge.flac
Size: 46408571 Hash: 592140332C70E32CB0B46E66EB0A8E98 Accuracy: -m0
Conclusion: CDDA 100%
Signature: 91C19CFCCD918E46376D982D8A8572DBF18A26CB
FILE: 02. Nuance.flac
Size: 38394672 Hash: 50CB71BD404FCF23033F32032017DBDC Accuracy: -m0
Conclusion: CDDA 100%
Signature: 74F0089C9378B1F8569021A8B4CA2A193E7374E8
FILE: 01. Erosion Of Mediocrity.flac
Size: 40645641 Hash: 19AFE9B24E1B7A467E4A8F4BA30A4A21 Accuracy: -m0
Conclusion: CDDA 100%
Signature: 869788234F81BF1F1526A3606C23595B5A675AF3

Год выпуска: 2012
Продолжительность: 00:17:40
Треклист:

01. Demdike Stare Meets Shangaan Electro (05:49)
02. Demdike Stare Meets Shangaan Electro (Version) (05:57)
03. Untitled (My Love) (02:59)
04. Untitled (My Love Dub) (02:55)

-----------------------

DON'T MODIFY THIS FILE

-----------------------

PERFORMER: auCDtect Task Manager, ver. 1.6.0 RC1 build 1.6.0.1
Copyright (c) 2008-2010 y-soft. All rights reserved
http://y-soft.org

ANALYZER: auCDtect: CD records authenticity detector, version 0.8.2
Copyright (c) 2004 Oleg Berngardt. All rights reserved.
Copyright (c) 2004 Alexander Djourik. All rights reserved.

FILE: 01 - Demdike Stare Meets Shangaan Electro.flac
Size: 29511704 Hash: DF512AE17B92580209E20AF927BC4EEE Accuracy: -m0
Conclusion: CDDA 100%
Signature: 5F1DDEB0CB0FFF894A787E3FFE0C695F0F4C9301
FILE: 02 - Demdike Stare Meets Shangaan Electro (Version).flac
Size: 30172825 Hash: A4F70C770AF2173E8595DA00FBE80B61 Accuracy: -m0
Conclusion: CDDA 99%
Signature: FB767A3B8529FB6C4BC4FF4D8B1962C3DF36406D
FILE: 03 - Hype Williams Meets Shangaan Electro.flac
Size: 19844699 Hash: 14AB8ACEF5311A739419B4CD5FCCCA0A Accuracy: -m0
Conclusion: CDDA 100%
Signature: 97F7617073D11856F63F0C084398CE3D2F7D00A7
FILE: 04 - Hype Williams Meets Shangaan Electro (Version).flac
Size: 14962387 Hash: 062F2540DAE78325BF81AD534DB511EB Accuracy: -m0
Conclusion: CDDA 100%
Signature: 16BFD5B6079DCC2508A2C744B33FBBA98F18557A
FILE: 02. Hype Williams - Untitled (My Love Dub).flac
Size: 15093132 Hash: 062F2540DAE78325BF81AD534DB511EB Accuracy: -m0
Conclusion: CDDA 100%
Signature: 4998BEFE29E719CF425FF34C3C7899500F2EC4EA
FILE: 02. Demdike Stare - Demdike Stare Meets Shangaan Electro (Version).flac
Size: 30303590 Hash: A4F70C770AF2173E8595DA00FBE80B61 Accuracy: -m0
Conclusion: CDDA 99%
Signature: 408654DE5EBA276950301AB244D3461F9F4F8A77
FILE: 01. Hype Williams - Untitled (My Love).flac
Size: 19975449 Hash: 14AB8ACEF5311A739419B4CD5FCCCA0A Accuracy: -m0
Conclusion: CDDA 100%
Signature: E8380A719D516428C188CC1C0BB43E3FA69B8AC3
FILE: 01. Demdike Stare - Demdike Stare Meets Shangaan Electro.flac
Size: 29642468 Hash: DF512AE17B92580209E20AF927BC4EEE Accuracy: -m0
Conclusion: CDDA 100%
Signature: 65DEEB128544FF5E6B4B29729415473DB66BB499

Год выпуска: 2013
Продолжительность: 00:16:05
Треклист:

01. Collision (08:05)
02. Misappropriation (08:00)

-----------------------

DON'T MODIFY THIS FILE

-----------------------

PERFORMER: auCDtect Task Manager, ver. 1.5.1RC6 build 1.5.1.7
Copyright (c) 2008-2010 y-soft. All rights reserved
http://y-soft.org

ANALYZER: auCDtect: CD records authenticity detector, version 0.8.2
Copyright (c) 2004 Oleg Berngardt. All rights reserved.
Copyright (c) 2004 Alexander Djourik. All rights reserved.

FILE: 02. Misappropriation.flac
Size: 51322534 Hash: 22C471D56E50BD7474D33EC2DE168589 Accuracy: -m0
Conclusion: CDDA 99%
Signature: 73C22CA46D630A57FEC6D697DEFA0A0356198D37
FILE: 01. Collision.flac
Size: 59358625 Hash: 1DB49A9A74BF9836BFC6BB7E74446B4E Accuracy: -m0
Conclusion: CDDA 100%
Signature: 548855ED3FA431C52342A0EC8AD471F86F386D51

Год выпуска: 2013
Продолжительность: 00:14:50
Треклист:

01. Grows Without Bound (06:22)
02. Primitive Equations (08:28)

-----------------------

DON'T MODIFY THIS FILE

-----------------------

PERFORMER: auCDtect Task Manager, ver. 1.6.0 RC1 build 1.6.0.1
Copyright (c) 2008-2010 y-soft. All rights reserved
http://y-soft.org

ANALYZER: auCDtect: CD records authenticity detector, version 0.8.2
Copyright (c) 2004 Oleg Berngardt. All rights reserved.
Copyright (c) 2004 Alexander Djourik. All rights reserved.

FILE: 01 Grows Without Bound.flac
Size: 46421552 Hash: B610EBDE01233DA53EFF703C542BC19B Accuracy: -m0
Conclusion: CDDA 100%
Signature: 1C7010662075C5610518DB73A83183A90B14C6E7
FILE: 02 Primitive Equations.flac
Size: 68534138 Hash: 6392D1242382A02CF54C4EFB5185D3A6 Accuracy: -m0
Conclusion: CDDA 100%
Signature: B01BA02D14B860A2AD8961B294D5E63ECF158152

Год выпуска: 2013
Продолжительность: 00:17:34
Треклист:

01. Eulogy (07:09)
02. Dyslogy (10:25)

-----------------------

DON'T MODIFY THIS FILE

-----------------------

PERFORMER: auCDtect Task Manager, ver. 1.6.0 RC1 build 1.6.0.1
Copyright (c) 2008-2010 y-soft. All rights reserved
http://y-soft.org

ANALYZER: auCDtect: CD records authenticity detector, version 0.8.2
Copyright (c) 2004 Oleg Berngardt. All rights reserved.
Copyright (c) 2004 Alexander Djourik. All rights reserved.

FILE: 01 Eulogy.flac
Size: 40309207 Hash: A070021EF6894470E36BC81F2A77A7AA Accuracy: -m0
Conclusion: CDDA 100%
Signature: 34F89B65CB6DE2B2BCD8534112D63B077F56BB32
FILE: 02 Dyslogy.flac
Size: 73915428 Hash: B7944DEF8CE3D8865F2A6E78A4D20CD2 Accuracy: -m0
Conclusion: CDDA 100%
Signature: CA57F4665E496BD01A03231B1B38D99BEC25A5AD

Год выпуска: 2013
Продолжительность: 00:16:06
Треклист:

01. Fail (08:20)
02. Null Results (07:46)

-----------------------

DON'T MODIFY THIS FILE

-----------------------

PERFORMER: auCDtect Task Manager, ver. 1.6.0 RC1 build 1.6.0.1
Copyright (c) 2008-2010 y-soft. All rights reserved
http://y-soft.org

ANALYZER: auCDtect: CD records authenticity detector, version 0.8.2
Copyright (c) 2004 Oleg Berngardt. All rights reserved.
Copyright (c) 2004 Alexander Djourik. All rights reserved.

FILE: 02 Null Results.flac
Size: 54923997 Hash: BEA85AF5569A9E30C1CDD2F005F9F747 Accuracy: -m0
Conclusion: CDDA 100%
Signature: E40277E01B14CDBBC9984B689CE0AFC2DE4AD38A
FILE: 01 Fail.flac
Size: 61332708 Hash: 604621200EEE974736B657F226C918E8 Accuracy: -m0
Conclusion: CDDA 100%
Signature: 6AB9C235E5EA383FEF6757141878E314742F34B9

Год выпуска: 2014
Продолжительность: 00:24:48
Треклист:

01. At Rest Versions 1&2 (14:38)
02. At Rest Versions 3&4 (10:10)

-----------------------

DON'T MODIFY THIS FILE

-----------------------

PERFORMER: auCDtect Task Manager, ver. 1.6.0 RC1 build 1.6.0.1
Copyright (c) 2008-2010 y-soft. All rights reserved
http://y-soft.org

ANALYZER: auCDtect: CD records authenticity detector, version 0.8.2
Copyright (c) 2004 Oleg Berngardt. All rights reserved.
Copyright (c) 2004 Alexander Djourik. All rights reserved.

FILE: At Rest Versions 3&4.flac
Size: 24153511 Hash: E1B2639527D56A4673190B9A49297A64 Accuracy: -m0
Conclusion: CDDA 58%
Signature: 3449E63651BB55645E262DBD193300F345E3A401
FILE: At Rest Versions 1&2.flac
Size: 35945725 Hash: 60BF8AB8A0E8D1FE25B7AC24BDE992D1 Accuracy: -m0
Conclusion: CDDA 76%
Signature: 701C7097A30E4F0A211F84EC6E86F8C0316E748F

Год выпуска: 2014
Продолжительность: 00:12:31
Треклист:

01. Procrastination (06:42)
02. Past Majesty (05:49)

-----------------------

DON'T MODIFY THIS FILE

-----------------------

PERFORMER: auCDtect Task Manager, ver. 1.6.0 RC1 build 1.6.0.1
Copyright (c) 2008-2010 y-soft. All rights reserved
http://y-soft.org

ANALYZER: auCDtect: CD records authenticity detector, version 0.8.2
Copyright (c) 2004 Oleg Berngardt. All rights reserved.
Copyright (c) 2004 Alexander Djourik. All rights reserved.

FILE: 02 - Past Majesty.flac
Size: 41638229 Hash: 1B10DF8CA82CB0A5D2FEA0E8E4425E23 Accuracy: -m0
Conclusion: CDDA 100%
Signature: 3F8D4350419D73D712C308BE51A907D42E85147C
FILE: 01 - Procrastination.flac
Size: 43861510 Hash: F93B7A81C39C9753AD4EB9D2B853CFDA Accuracy: -m0
Conclusion: CDDA 100%
Signature: 387A3BAFE50E1192E955D89FD0AA040102A3BF56

Год выпуска: 2014
Продолжительность: 00:12:20
Треклист:

01. 40 Years Under The Cosh (06:10)
02. Frontin' (06:10)

-----------------------

DON'T MODIFY THIS FILE

-----------------------

PERFORMER: auCDtect Task Manager, ver. 1.6.0 RC1 build 1.6.0.1
Copyright (c) 2008-2010 y-soft. All rights reserved
http://y-soft.org

ANALYZER: auCDtect: CD records authenticity detector, version 0.8.2
Copyright (c) 2004 Oleg Berngardt. All rights reserved.
Copyright (c) 2004 Alexander Djourik. All rights reserved.

FILE: 02 - Frontin'.flac
Size: 45742488 Hash: 5D91EB9A4E22D03F3A1006BDFAD7528A Accuracy: -m0
Conclusion: CDDA 99%
Signature: 72C3D7A172D1DA46E11D7F311014F10C6471B82F
FILE: 01 - 40 Years Under The Cosh.flac
Size: 48442436 Hash: E6C66AF55BFD3C06FA603FF6F68CB09F Accuracy: -m0
Conclusion: CDDA 100%
Signature: EF0A043120D88A457365B4758775337510AAFF01

Год выпуска: 2015
Продолжительность: 00:13:07
Треклист:

01. Rathe (06:27)
02. Patchwork (06:40)

-----------------------

DON'T MODIFY THIS FILE

-----------------------

PERFORMER: auCDtect Task Manager, ver. 1.6.0 RC1 build 1.6.0.1
Copyright (c) 2008-2010 y-soft. All rights reserved
http://y-soft.org

ANALYZER: auCDtect: CD records authenticity detector, version 0.8.2
Copyright (c) 2004 Oleg Berngardt. All rights reserved.
Copyright (c) 2004 Alexander Djourik. All rights reserved.

FILE: 1-Rathe.flac
Size: 46469920 Hash: F840CCC20DA77D1EE06052CF98E1C9DA Accuracy: -m0
Conclusion: CDDA 100%
Signature: 79F0F360E4186D5E9931BD58E4592BA0AF3D60C5
FILE: 2-Patchwork.flac
Size: 46957878 Hash: 3F171265E04788177082657D5CF9135B Accuracy: -m0
Conclusion: CDDA 100%
Signature: 1D8D6D32AB2E62D13D2240477B979D2D4A4F9C97

Год выпуска: 2015
Продолжительность: 00:06:43
Треклист:

01. Untitled (06:43)

-----------------------

DON'T MODIFY THIS FILE

-----------------------

PERFORMER: auCDtect Task Manager, ver. 1.6.0 RC1 build 1.6.0.1
Copyright (c) 2008-2010 y-soft. All rights reserved
http://y-soft.org

ANALYZER: auCDtect: CD records authenticity detector, version 0.8.2
Copyright (c) 2004 Oleg Berngardt. All rights reserved.
Copyright (c) 2004 Alexander Djourik. All rights reserved.

FILE: 01. Untitled.flac
Size: 34342688 Hash: 5B1590D67242DDCE381031B899A5F840 Accuracy: -m0
Conclusion: CDDA 100%
Signature: 48F9DABEE3608EC4AE3D45D6C7F935ED454A3974

Год выпуска: 2009
Продолжительность: 00:41:44
Треклист:

01. Moving Metals (41:44)

-----------------------

DON'T MODIFY THIS FILE

-----------------------

PERFORMER: auCDtect Task Manager, ver. 1.6.0 RC1 build 1.6.0.1
Copyright (c) 2008-2010 y-soft. All rights reserved
http://y-soft.org

ANALYZER: auCDtect: CD records authenticity detector, version 0.8.2
Copyright (c) 2004 Oleg Berngardt. All rights reserved.
Copyright (c) 2004 Alexander Djourik. All rights reserved.

FILE: 01 Moving Metals.flac
Size: 211768312 Hash: A9BB477CE5084F529980227BF5649868 Accuracy: -m0
Conclusion: MPEG 95%
Signature: D403525F463F712BBBF78C2E7DE9AD82FA1B3236

Год выпуска: 2010
Продолжительность: 00:56:16
Треклист:

01. Industrial Desert (56:16)

X Lossless Decoder version 20161007 (149.3)

XLD extraction logfile from 2017-01-10 13:07:34 -0500

Demdike Stare / Industrial Desert

Used drive : MATSHITA DVD-RAM UJ8D2Q (revision 1.10)
Media type : Pressed CD

Ripper mode : XLD Secure Ripper
Disable audio cache : OK for the drive with a cache less than 1375KiB
Make use of C2 pointers : NO
Read offset correction : 103
Max retry count : 20
Gap status : Analyzed, Appended (except HTOA)

TOC of the extracted CD
Track | Start | Length | Start sector | End sector
---------------------------------------------------------
1 | 00:00:00 | 56:16:30 | 0 | 253229

AccurateRip Summary (DiscID: 0003dd2e-0007ba5d-020d3001)
Track 01 : OK (v1, confidence 1/1)
->All tracks accurately ripped.

All Tracks
Album gain : -4.16 dB
Peak : 0.903656
Statistics
Read error : 0
Jitter error (maybe fixed) : 0
Retry sector count : 0
Damaged sector count : 0

Track 01
Filename : /Users/im1/Music/Demdike Stare - Industrial Desert (2010) [FLAC]/01 Industrial Desert (DJ mix).flac
Pre-gap length : 00:02:00

Track gain : -4.16 dB
Peak : 0.903656
CRC32 hash (test run) : FC6356E4
CRC32 hash : FC6356E4
CRC32 hash (skip zero) : B1C6CB30
AccurateRip v1 signature : 0C892843
AccurateRip v2 signature : 8421598B
->Accurately ripped (v1, confidence 1/1)
Statistics
Read error : 0
Jitter error (maybe fixed) : 0
Retry sector count : 0
Damaged sector count : 0

No errors occurred

End of status report

-----BEGIN XLD SIGNATURE-----
SxANKsSwBqN0Iqxhh3VC3sSw02eUvgbid_XI2S6LQZFiz8ULpCGF0ULjK2Q0Sy_mF7ITBfOYUBB6PE.Bi.1UUBykp9TU1gCpTHYLyny
-----END XLD SIGNATURE-----


REM GENRE "Krautrock, Techno, Ambient, Folk"
REM DATE 2010
PERFORMER "Demdike Stare"
TITLE "Industrial Desert"
FILE "01. Industrial Desert.flac" WAVE
TRACK 1 AUDIO
TITLE "Industrial Desert"
PERFORMER "Demdike Stare"
INDEX 01 00:00:00
Год выпуска: 2010
Продолжительность: 00:59:00
Треклист:

01. Osmosis (59:00)

X Lossless Decoder version 20091230 (115.2)

XLD extraction logfile from 2010-01-15 20:53:04 +0000

Demdike Stare / Osmosis

Used drive : MATSHITA CD-RW CW-8221 (revision GA0J)

Use cdparanoia mode : YES (CDParanoia III 10.2 engine)
Disable audio cache : OK for the drive with cache less than 2750KB
Make use of C2 pointers : NO
Read offset correction : 102
Max retry count : 100

TOC of the extracted CD
Track | Start | Length | Start sector | End sector
---------------------------------------------------------
1 | 00:00:00 | 58:59:50 | 0 | 265474

Track 01
Filename : /Users/seanhiggins/Desktop/Demdike Stare - Osmosis (2009)/01 - Osmosis.flac

Pre-gap length : 00:02:00

CRC32 hash (test run) : 59E3315C
CRC32 hash : 59E3315C
CRC32 hash (skip zero) : BEFA1F3A
AccurateRip signature : 70F61E99
->Track not present in AccurateRip database.
Statistics
Read error : 0
Skipped (treated as error) : 0
Edge jitter error (maybe fixed) : 0
Atom jitter error (maybe fixed) : 0
Drift error (maybe fixed) : 0
Dropped bytes error (maybe fixed) : 0
Duplicated bytes error (maybe fixed) : 0
Inconsistency in error sectors : 0

No errors occurred

End of status report


TITLE "Osmosis"
PERFORMER "Demdike Stare"
FILE "CDImage.wav" WAVE
TRACK 01 AUDIO
TITLE "Osmosis"
INDEX 01 00:00:00

Год выпуска: 2010
Продолжительность: 01:09:33
Треклист:

01. Untitled (01:09:33)

-----------------------

DON'T MODIFY THIS FILE

-----------------------

PERFORMER: auCDtect Task Manager, ver. 1.6.0 RC1 build 1.6.0.1
Copyright (c) 2008-2010 y-soft. All rights reserved
http://y-soft.org

ANALYZER: auCDtect: CD records authenticity detector, version 0.8.2
Copyright (c) 2004 Oleg Berngardt. All rights reserved.
Copyright (c) 2004 Alexander Djourik. All rights reserved.

FILE: 01 Anworth Kirk & Demdike Stare - Samhain Slant Azimuth Volume 1.flac
Size: 296422252 Hash: 354094FCA41F2F4FF43B980B825395C2 Accuracy: -m0
Conclusion: CDDA 76%
Signature: 9B1DE3316680161339C805592D350032C591147F

Год выпуска: 2012
Продолжительность: 00:59:05
Треклист:

01. 15 Mai 2011 Live At The Golden Pudel Club (59:05)

X Lossless Decoder version 20120120 (139.0)

XLD extraction logfile from 2012-02-21 00:44:42 +0000

Demdike Stare / 15. Mai 2011 Live at Golden Pudel Club

Used drive : HL-DT-ST DVDRW GA32N (revision KC09)

Ripper mode : XLD Secure Ripper
Disable audio cache : OK for the drive with a cache less than 1375KiB
Make use of C2 pointers : NO
Read offset correction : 103
Max retry count : 20
Gap status : Analyzed, Appended

TOC of the extracted CD
Track | Start | Length | Start sector | End sector
---------------------------------------------------------
1 | 00:00:00 | 59:04:46 | 0 | 265845

AccurateRip Summary
Disc not found in AccurateRip DB.

All Tracks
Album gain : -7.49 dB
Peak : 0.847137
Statistics
Read error : 0
Jitter error (maybe fixed) : 0
Retry sector count : 0
Damaged sector count : 0

Track 01
Filename : /Volumes/Acheron/Users/Rin/Music/Demdike Stare - 15. Mai 2011 Live at Golden Pudel Club (2011)/01 15. Mai 2011 Live at Golden Pudel Club.flac
/Volumes/Acheron/Users/Rin/Music/Demdike Stare - 15. Mai 2011 Live at Golden Pudel Club (2011)/01 15. Mai 2011 Live at Golden Pudel Club(320k).mp3
/Volumes/Acheron/Users/Rin/Music/Demdike Stare - 15. Mai 2011 Live at Golden Pudel Club (2011)/01 15. Mai 2011 Live at Golden Pudel Club(V0).mp3
Pre-gap length : 00:02:00

Track gain : -7.49 dB
Peak : 0.847137
CRC32 hash (test run) : FC16B3DF
CRC32 hash : FC16B3DF
CRC32 hash (skip zero) : A0AFF700
AccurateRip signature : 6C478057
->Track not present in AccurateRip database.
Statistics
Read error : 0
Jitter error (maybe fixed) : 0
Retry sector count : 0
Damaged sector count : 0

No errors occurred

End of status report


REM GENRE Experimental
REM DATE 2012
PERFORMER "Demdike Stare"
TITLE "15 Mai 2011 Live At The Golden Pudel Club"
FILE "01. 15 Mai 2011 Live At The Golden Pudel Club.flac" WAVE
TRACK 1 AUDIO
TITLE "15 Mai 2011 Live At The Golden Pudel Club"
PERFORMER "Demdike Stare"
INDEX 01 00:00:00
Год выпуска: 2013
Продолжительность: 00:56:59
Треклист:

01. Untitled (28:59)
02. Untitled (28:00)

-----------------------

DON'T MODIFY THIS FILE

-----------------------

PERFORMER: auCDtect Task Manager, ver. 1.6.0 RC1 build 1.6.0.1
Copyright (c) 2008-2010 y-soft. All rights reserved
http://y-soft.org

ANALYZER: auCDtect: CD records authenticity detector, version 0.8.2
Copyright (c) 2004 Oleg Berngardt. All rights reserved.
Copyright (c) 2004 Alexander Djourik. All rights reserved.

FILE: 02 - Untitled.flac
Size: 181140144 Hash: B02313E17663E6DEDAEF6F3EAE2C3EE8 Accuracy: -m0
Conclusion: CDDA 100%
Signature: 827394F05411D3E442EE24AC97E438586D275AC2
FILE: 01 - Untitled.flac
Size: 193155433 Hash: DF2CBC0E470DBAF46F261DF9D14E982B Accuracy: -m0
Conclusion: CDDA 99%
Signature: 3F2E7ED9EFDA52AE24ED8D2E533EE0D87F34E70B

Год выпуска: 2013
Продолжительность: 01:00:55
Треклист:

01. Untitled (31:25)
02. Untitled (29:30)

-----------------------

DON'T MODIFY THIS FILE

-----------------------

PERFORMER: auCDtect Task Manager, ver. 1.6.0 RC1 build 1.6.0.1
Copyright (c) 2008-2010 y-soft. All rights reserved
http://y-soft.org

ANALYZER: auCDtect: CD records authenticity detector, version 0.8.2
Copyright (c) 2004 Oleg Berngardt. All rights reserved.
Copyright (c) 2004 Alexander Djourik. All rights reserved.

FILE: 02 - Side B.flac
Size: 173186900 Hash: F5582F2D6B0EA9F7077A646484E4F929 Accuracy: -m0
Conclusion: CDDA 100%
Signature: 4C14DC49D5EABA6B7505046FA710429B1A702608
FILE: 01 - Side A.flac
Size: 187624251 Hash: 06FEDD14FAA61D191D604064980035FA Accuracy: -m0
Conclusion: CDDA 100%
Signature: A84EAD71CD9084F3079F41C243020E7D012207F5

Год выпуска: 2014
Продолжительность: 00:57:50
Треклист:

01. Untitled (26:10)
02. Untitled (31:40)

-----------------------

DON'T MODIFY THIS FILE

-----------------------

PERFORMER: auCDtect Task Manager, ver. 1.6.0 RC1 build 1.6.0.1
Copyright (c) 2008-2010 y-soft. All rights reserved
http://y-soft.org

ANALYZER: auCDtect: CD records authenticity detector, version 0.8.2
Copyright (c) 2004 Oleg Berngardt. All rights reserved.
Copyright (c) 2004 Alexander Djourik. All rights reserved.

FILE: 02. Untitled.flac
Size: 171128269 Hash: E0E54E2AC3661D2B9BE31A35809BDFBB Accuracy: -m0
Conclusion: CDDA 100%
Signature: BF58CF5D5FE191B70EF776E009AC546DB460479D
FILE: 01. Untitled.flac
Size: 143441197 Hash: FEB7D3D807578E4C7199BA4992CC7A77 Accuracy: -m0
Conclusion: CDDA 100%
Signature: CC48C20092C870FA683114D3FD6181BFF6C076F5

Год выпуска: 2015
Продолжительность: 00:56:35
Треклист:

01. Untitled (29:54)
02. Untitled (26:41)

-----------------------

DON'T MODIFY THIS FILE

-----------------------

PERFORMER: auCDtect Task Manager, ver. 1.6.0 RC1 build 1.6.0.1
Copyright (c) 2008-2010 y-soft. All rights reserved
http://y-soft.org

ANALYZER: auCDtect: CD records authenticity detector, version 0.8.2
Copyright (c) 2004 Oleg Berngardt. All rights reserved.
Copyright (c) 2004 Alexander Djourik. All rights reserved.

FILE: 02. Untitled.flac
Size: 103462217 Hash: 4E331DAADF18A5D98A6677679B7DC390 Accuracy: -m0
Conclusion: CDDA 100%
Signature: 1BDD72F862EA0372C32123E7F5EF64D1DEA0D07C
FILE: 01. Untitled.flac
Size: 117513427 Hash: 9AECF359DF713FC8CD6F59B6015EE43D Accuracy: -m0
Conclusion: CDDA 100%
Signature: 84771ACEECF38458D48E8D2DBF45F562E9D6D30B

Год выпуска: 2017
Продолжительность: 00:59:22
Треклист:

01. Mix A (29:50)
02. Mix B (29:32)

-----------------------

DON'T MODIFY THIS FILE

-----------------------

PERFORMER: auCDtect Task Manager, ver. 1.6.0 RC1 build 1.6.0.1
Copyright (c) 2008-2010 y-soft. All rights reserved
http://y-soft.org

ANALYZER: auCDtect: CD records authenticity detector, version 0.8.2
Copyright (c) 2004 Oleg Berngardt. All rights reserved.
Copyright (c) 2004 Alexander Djourik. All rights reserved.

FILE: 02. Mix.flac
Size: 139933751 Hash: 6E25B96B381FB570ADC409BEE5F8F357 Accuracy: -m0
Conclusion: CDDA 100%
Signature: 32A7DFFE721C8C00FF621D8D17E02A636B52261D
FILE: 01. Mix.flac
Size: 146359044 Hash: 0EED35A465C456A08DD28BBE44B34BA9 Accuracy: -m0
Conclusion: CDDA 100%
Signature: B9530F6053721DB3FDB80BD8A94AADD0A8F7E249

Время раздачи: 12/7
[NNMClub.to]_Demdike Stare FLAC.torrent
 Торрент: Золотая раздача  Зарегистрирован
 
Примагнититься
Free Leech
Зарегистрируйтесь и скачайте торрент!
69,6 KB
 Зарегистрирован:   06 Фев 2017 23:58:42
 Размер:   8,47 GB  (
 Рейтинг:    (Голосов: 6)
 Поблагодарили:   21
 Проверка:   Оформление проверено модератором 06 Фев 2017 23:59:51
Как cкачать  ·  Как раздать  ·  Правильно оформить  ·  Поднять ратио!  
Показать сообщения:   
Начать новую тему   Ответить на тему    Торрент-трекер NNM-Club -> Electronic -> Experimental, Industrial, EBM, Dark Electro (Lossless) Часовой пояс: GMT + 3
Страница 1 из 1