Интеллигентный торрент-трекер
canvas not supported
Нас вместе: 4 259 698

Cactus Island Recordings - Label-Pack 34 Releases (2002-2010) [FLAC|Lossless|tracks+.cue, tracks] <IDM, Ambient, Glitch, Leftfield, Abstract>


 
 
RSS
Начать новую тему   Ответить на тему    Торрент-трекер NNM-Club -> Electronic -> IDM (Lossless)
Автор Сообщение
vilator ®
Модератор Музыки
RG Музыки
 
Стаж: 7 лет 10 мес.
Сообщений: 5595
Ratio: 118,076
Поблагодарили: 109108
100%
Откуда: Minsk
pirates.png

Label run by Tim Martin aka Maps and Diagrams and Steve Davis aka Broca.
Жанр: IDM, Ambient, Glitch, Downtempo, Experimental, Leftfield, Abstract • Страна: UK • Год издания: 2002-2010 • Тип издания: CD, Web
Аудиокодек: FLAC (*.flac) • Тип рипа: tracks+.cue, tracks • Продолжительность: 16:20:52 Источник: What, Bandcamp
Треклист:
Год выпуска: 2002
Продолжительность: 00:11:37
Треклист:

01. Maps And Diagrams - Ti Sta Bene Marone (06:00)
02. Broca - Sei Cosi' Dolce (05:37)

-----------------------

DON'T MODIFY THIS FILE

-----------------------

PERFORMER: auCDtect Task Manager, ver. 1.6.0 RC1 build 1.6.0.1
Copyright (c) 2008-2010 y-soft. All rights reserved
http://y-soft.org

ANALYZER: auCDtect: CD records authenticity detector, version 0.8.2
Copyright (c) 2004 Oleg Berngardt. All rights reserved.
Copyright (c) 2004 Alexander Djourik. All rights reserved.

FILE: 01. Maps And Diagrams - Ti Sta Bene Marone.flac
Size: 36740651 Hash: 0997DA90FBEB3758A4D45E9469FAC17F Accuracy: -m0
Conclusion: MPEG 95%
Signature: 35249380C7015CF2DF329228B03285CF88947390
FILE: 02. Broca - Sei Cosi' Dolce.flac
Size: 30650565 Hash: 2DA4095E1BFD030F9514A7CF441B179A Accuracy: -m0
Conclusion: MPEG 95%
Signature: F4E43659C1865346CEFE6103D1DD1BFFBE20178D

Год выпуска: 2003
Продолжительность: 01:12:18
Треклист:

01. Commander - Slumber (04:42)
02. Tim Koch - Seven Ate Nine (03:04)
03. Stendec - Aileron (05:34)
04. Broca - Koowbwai (04:47)
05. Apparat - Tangens (04:40)
06. Sovacusa - 116 (04:45)
07. Vain Foam - Autumn Rain Passing (04:38)
08. Frank Murder - Beach Blaster (02:07)
09. Helios - Bounce Dive (05:25)
10. Maps And Diagrams - N34 (04:20)
11. Verbose - Watchingyouglow (04:18)
12. Skurken - Bjormella (03:59)
13. Chico Rockstar - Codebloated (05:49)
14. Iodil - Repleat Curtain (02:39)
15. Verbose - Alloneword (Xela Remix) (04:56)
16. Phasmid - Eating Ghosts (03:59)
17. Bovine Life - Gneiss (02:36)

Exact Audio Copy V0.99 prebeta 5 from 4. May 2009

EAC extraction logfile from 17. March 2010, 15:17

Various / Friends We Met Along the Way

Used drive : PLEXTOR CD-R PREMIUM Adapter: 2 ID: 0

Read mode : Secure
Utilize accurate stream : Yes
Defeat audio cache : Yes
Make use of C2 pointers : No

Read offset correction : 30
Overread into Lead-In and Lead-Out : Yes
Fill up missing offset samples with silence : Yes
Delete leading and trailing silent blocks : No
Null samples used in CRC calculations : Yes
Used interface : Installed external ASPI interface
Gap handling : Appended to previous track

Used output format : Internal WAV Routines
Sample format : 44.100 Hz; 16 Bit; Stereo

TOC of the extracted CD

Track | Start | Length | Start sector | End sector
---------------------------------------------------------
1 | 0:00.00 | 4:41.43 | 0 | 21117
2 | 4:41.43 | 3:03.60 | 21118 | 34902
3 | 7:45.28 | 5:33.54 | 34903 | 59931
4 | 13:19.07 | 4:46.48 | 59932 | 81429
5 | 18:05.55 | 4:39.41 | 81430 | 102395
6 | 22:45.21 | 4:45.01 | 102396 | 123771
7 | 27:30.22 | 4:38.12 | 123772 | 144633
8 | 32:08.34 | 2:07.37 | 144634 | 154195
9 | 34:15.71 | 5:25.11 | 154196 | 178581
10 | 39:41.07 | 4:19.73 | 178582 | 198079
11 | 44:01.05 | 4:17.58 | 198080 | 217412
12 | 48:18.63 | 3:59.31 | 217413 | 235368
13 | 52:18.19 | 5:49.30 | 235369 | 261573
14 | 58:07.49 | 2:39.22 | 261574 | 273520
15 | 60:46.71 | 4:56.06 | 273521 | 295726
16 | 65:43.02 | 3:59.23 | 295727 | 313674
17 | 69:42.25 | 2:35.53 | 313675 | 325352

Track 1

Filename C:\rip\01-Commander-Slumber.wav

Pre-gap length 0:00:02.00

Peak level 73.6 %
Track quality 99.9 %
Test CRC DA144282
Copy CRC DA144282
Track not present in AccurateRip database
Copy OK

Track 2

Filename C:\rip\02-Tim_Koch-Seven_Ate_Nine.wav

Peak level 65.7 %
Track quality 100.0 %
Test CRC 1D941A91
Copy CRC 1D941A91
Track not present in AccurateRip database
Copy OK

Track 3

Filename C:\rip\03-Stendec-Aileron.wav

Peak level 62.0 %
Track quality 99.9 %
Test CRC 4323A341
Copy CRC 4323A341
Track not present in AccurateRip database
Copy OK

Track 4

Filename C:\rip\04-Broca-Koowbwai.wav

Peak level 60.0 %
Track quality 100.0 %
Test CRC 4E652297
Copy CRC 4E652297
Track not present in AccurateRip database
Copy OK

Track 5

Filename C:\rip\05-Apparat-Tangens.wav

Peak level 60.5 %
Track quality 100.0 %
Test CRC E0F1A4CA
Copy CRC E0F1A4CA
Track not present in AccurateRip database
Copy OK

Track 6

Filename C:\rip\06-Sovacusa-116.wav

Peak level 56.8 %
Track quality 100.0 %
Test CRC 2BC14D74
Copy CRC 2BC14D74
Track not present in AccurateRip database
Copy OK

Track 7

Filename C:\rip\07-Vain_Foam-Autumn_Rain_Passing.wav

Peak level 54.0 %
Track quality 100.0 %
Test CRC C279C0C3
Copy CRC C279C0C3
Track not present in AccurateRip database
Copy OK

Track 8

Filename C:\rip\08-Frank_Murder-Beach_Blaster.wav

Peak level 53.5 %
Track quality 99.9 %
Test CRC DE54F28F
Copy CRC DE54F28F
Track not present in AccurateRip database
Copy OK

Track 9

Filename C:\rip\09-Helios-Bounce_Dive.wav

Peak level 67.4 %
Track quality 100.0 %
Test CRC F76F033C
Copy CRC F76F033C
Track not present in AccurateRip database
Copy OK

Track 10

Filename C:\rip\10-Maps_&_Diagrams-N34.wav

Peak level 61.7 %
Track quality 99.9 %
Test CRC A53CE548
Copy CRC A53CE548
Track not present in AccurateRip database
Copy OK

Track 11

Filename C:\rip\11-Verbose-Watching_You_Glow.wav

Peak level 71.2 %
Track quality 100.0 %
Test CRC 486E77FE
Copy CRC 486E77FE
Track not present in AccurateRip database
Copy OK

Track 12

Filename C:\rip\12-Skurken-Bjormella.wav

Peak level 68.7 %
Track quality 99.9 %
Test CRC 589B39C6
Copy CRC 589B39C6
Track not present in AccurateRip database
Copy OK

Track 13

Filename C:\rip\13-Chico_Rockstar-Codebloated.wav

Peak level 61.3 %
Track quality 100.0 %
Test CRC DA7EA6C3
Copy CRC DA7EA6C3
Track not present in AccurateRip database
Copy OK

Track 14

Filename C:\rip\14-Iodil-Repleat_Curtain.wav

Peak level 55.0 %
Track quality 100.0 %
Test CRC AAAB83D7
Copy CRC AAAB83D7
Track not present in AccurateRip database
Copy OK

Track 15

Filename C:\rip\15-Verbose-Alloneword_(Xela_mix).wav

Peak level 63.9 %
Track quality 100.0 %
Test CRC EEFFE0C7
Copy CRC EEFFE0C7
Track not present in AccurateRip database
Copy OK

Track 16

Filename C:\rip\16-Phasmid-Eating_Ghosts.wav

Peak level 63.9 %
Track quality 100.0 %
Test CRC 00BE72CC
Copy CRC 00BE72CC
Track not present in AccurateRip database
Copy OK

Track 17

Filename C:\rip\17-Bovine_Life-Gneiss.wav

Peak level 27.8 %
Track quality 99.9 %
Test CRC 88855E3F
Copy CRC 88855E3F
Track not present in AccurateRip database
Copy OK

None of the tracks are present in the AccurateRip database

No errors occurred

End of status report


REM GENRE Unknown
REM DATE 2003
REM DISCID F810F211
REM COMMENT "ExactAudioCopy v0.99pb5"
PERFORMER "Various"
TITLE "Friends We Met Along the Way"
FILE "01. Commander - Slumber.wav" WAVE
TRACK 01 AUDIO
TITLE "Slumber"
PERFORMER "Commander"
INDEX 01 00:00:00
FILE "02. Tim Koch - Seven Ate Nine.wav" WAVE
TRACK 02 AUDIO
TITLE "Seven Ate Nine"
PERFORMER "Tim Koch"
INDEX 01 00:00:00
FILE "03. Stendec - Aileron.wav" WAVE
TRACK 03 AUDIO
TITLE "Aileron"
PERFORMER "Stendec"
INDEX 01 00:00:00
FILE "04. Broca - Koowbwai.wav" WAVE
TRACK 04 AUDIO
TITLE "Koowbwai"
PERFORMER "Broca"
INDEX 01 00:00:00
FILE "05. Apparat - Tangens.wav" WAVE
TRACK 05 AUDIO
TITLE "Tangens"
PERFORMER "Apparat"
INDEX 01 00:00:00
FILE "06. Sovacusa - 116.wav" WAVE
TRACK 06 AUDIO
TITLE "116"
PERFORMER "Sovacusa"
INDEX 01 00:00:00
FILE "07. Vain Foam - Autumn Rain Passing.wav" WAVE
TRACK 07 AUDIO
TITLE "Autumn Rain Passing"
PERFORMER "Vain Foam"
INDEX 01 00:00:00
INDEX 02 01:18:59
FILE "08. Frank Murder - Beach Blaster.wav" WAVE
TRACK 08 AUDIO
TITLE "Beach Blaster"
PERFORMER "Frank Murder"
INDEX 01 00:00:00
FILE "09. Helios - Bounce Dive.wav" WAVE
TRACK 09 AUDIO
TITLE "Bounce Dive"
PERFORMER "Helios"
INDEX 01 00:00:00
FILE "10. Maps And Diagrams - N34.wav" WAVE
TRACK 10 AUDIO
TITLE "N34"
PERFORMER "Maps & Diagrams"
INDEX 01 00:00:00
FILE "11. Verbose - Watchingyouglow.wav" WAVE
TRACK 11 AUDIO
TITLE "Watchingyouglow"
PERFORMER "Verbose"
INDEX 01 00:00:00
FILE "12. Skurken - Bjormella.wav" WAVE
TRACK 12 AUDIO
TITLE "Bjormella"
PERFORMER "Skurken"
INDEX 01 00:00:00
FILE "13. Chico Rockstar - Codebloated.wav" WAVE
TRACK 13 AUDIO
TITLE "Codebloated"
PERFORMER "Chico Rockstar"
INDEX 01 00:00:00
FILE "14. Iodil - Repleat Curtain.wav" WAVE
TRACK 14 AUDIO
TITLE "Repleat Curtain"
PERFORMER "Iodil"
INDEX 01 00:00:00
FILE "15. Verbose - Alloneword (Xela Remix).wav" WAVE
TRACK 15 AUDIO
TITLE "Alloneword (Xela Remix)"
PERFORMER "Verbose"
INDEX 01 00:00:00
FILE "16. Phasmid - Eating Ghosts.wav" WAVE
TRACK 16 AUDIO
TITLE "Eating Ghosts"
PERFORMER "Phasmid"
INDEX 01 00:00:00
FILE "17. Bovine Life - Gneiss.wav" WAVE
TRACK 17 AUDIO
TITLE "Gneiss"
PERFORMER "Bovine Life"
INDEX 01 00:00:00

Год выпуска: 2004
Продолжительность: 00:19:07
Треклист:

01. Vertigo (02:44)
02. Undercurrent (04:02)
03. Ampersand (01:58)
04. Sabotage (03:26)
05. Eureka (02:00)
06. Asterisk* (01:52)
07. Kairo (03:05)
Год выпуска: 2004
Продолжительность: 00:17:25
Треклист:

01. The Power Of Corridors (04:39)
02. Stitched Switch (04:15)
03. As Yet Undiagnosed (04:20)
04. Half An Echo (04:11)
Год выпуска: 2004
Продолжительность: 00:21:04
Треклист:

01. In (00:45)
02. A.D.S.A (04:02)
03. Red King (03:31)
04. Pin (00:31)
05. Bubble (03:42)
06. Brocken Glory (02:25)
07. As She Explodes (06:08)

-----------------------

DON'T MODIFY THIS FILE

-----------------------

PERFORMER: auCDtect Task Manager, ver. 1.6.0 RC1 build 1.6.0.1
Copyright (c) 2008-2010 y-soft. All rights reserved
http://y-soft.org

ANALYZER: auCDtect: CD records authenticity detector, version 0.8.2
Copyright (c) 2004 Oleg Berngardt. All rights reserved.
Copyright (c) 2004 Alexander Djourik. All rights reserved.

FILE: 07. As She Explodes.flac
Size: 43561253 Hash: 32BBB0969C336180DA1006E500C23184 Accuracy: -m0
Conclusion: CDDA 100%
Signature: 3EAA0F0911FFA7CB0571C5CCB6DA4FE98A07FED6
FILE: 06. Brocken Glory.flac
Size: 14151476 Hash: 5824AC14DA9D9CD85BF268015169CEA8 Accuracy: -m0
Conclusion: CDDA 100%
Signature: CF55AC16A6BE30AA90FFF91FD0264A5CC40DF2F9
FILE: 05. Bubble.flac
Size: 20123253 Hash: 7994C68308B90ED3EDD52817F448C732 Accuracy: -m0
Conclusion: CDDA 100%
Signature: F73B1B950580ECF2D8F6026872121A780EC4F47E
FILE: 04. Pin.flac
Size: 2342132 Hash: 4A91994B53D1B3B8E790037F5A3981A3 Accuracy: -m0
Conclusion: CDDA 100%
Signature: 8FE4E971051A39D45CF721BF65606E90F5E76A40
FILE: 03. Red King.flac
Size: 25897184 Hash: 85BCFA6FD878C394DF35C76DB9CDADAC Accuracy: -m0
Conclusion: CDDA 100%
Signature: C89793B3762EB50CCFD131D479F8C63F577B68B4
FILE: 02. A.D.S.A.flac
Size: 28363131 Hash: E0AA498555F0CBDE5FE89518F7AFCF2B Accuracy: -m0
Conclusion: CDDA 92%
Signature: 0A4FF27DBC86F6592335A5AB49FBA96F985BF72F
FILE: 01. In.flac
Size: 3674713 Hash: 65FF7491AE6E5E5382485D3454BF792F Accuracy: -m0
Conclusion: CDDA 100%
Signature: AF5BAEECAEFB7B1FD0574708466305F5AFFDB151

Год выпуска: 2004
Продолжительность: 00:18:27
Треклист:

01. Ljósvakinn (03:31)
02. Straumsvík (03:02)
03. Hafravatn (03:32)
04. Atómstöðin (03:13)
05. Vatnsveitan (02:52)
06. Hiti Og Rafmagn (02:17)
Год выпуска: 2005
Продолжительность: 00:20:02
Треклист:

01. Guida (05:05)
02. Queuek (05:03)
03. Semeas (03:22)
04. Lopiak (00:54)
05. Fiord (05:38)

Exact Audio Copy V0.99 prebeta 4 from 23. January 2008

EAC extraction logfile from 5. January 2009, 5:30

Maps & Diagrams / Perspect

Used drive : HL-DT-STDVDRAM GSA-T20L Adapter: 1 ID: 0

Read mode : Secure
Utilize accurate stream : Yes
Defeat audio cache : Yes
Make use of C2 pointers : No

Read offset correction : 667
Overread into Lead-In and Lead-Out : No
Fill up missing offset samples with silence : Yes
Delete leading and trailing silent blocks : No
Null samples used in CRC calculations : Yes
Used interface : Native Win32 interface for Win NT & 2000
Gap handling : Appended to previous track

Used output format : User Defined Encoder
Selected bitrate : 320 kBit/s
Quality : High
Add ID3 tag : No
Command line compressor : C:\Users\Downloads\flac-1.2.1-win\bin\flac.exe
Additional command line options : -V -8 -T "artist=%a" -T "title=%t" -T "album=%g" -T "date=%y" -T "tracknumber=%n" -T "genre=%m" %s

TOC of the extracted CD

Track | Start | Length | Start sector | End sector
---------------------------------------------------------
1 | 0:00.00 | 5:05.04 | 0 | 22878
2 | 5:05.04 | 5:02.59 | 22879 | 45587
3 | 10:07.63 | 3:22.03 | 45588 | 60740
4 | 13:29.66 | 0:53.64 | 60741 | 64779
5 | 14:23.55 | 5:37.46 | 64780 | 90100

Track 1

Filename C:\download\Maps & Diagrams - 2005 - Perspect\01 - Guida.wav

Pre-gap length 0:00:02.00

Peak level 100.0 %
Track quality 100.0 %
Test CRC FC094FC1
Copy CRC FC094FC1
Track not present in AccurateRip database
Copy OK

Track 2

Filename C:\download\Maps & Diagrams - 2005 - Perspect\02 - Queuek.wav

Pre-gap length 0:00:02.00

Peak level 99.1 %
Track quality 100.0 %
Test CRC 95B0F903
Copy CRC 95B0F903
Track not present in AccurateRip database
Copy OK

Track 3

Filename C:\download\Maps & Diagrams - 2005 - Perspect\03 - Semeas.wav

Pre-gap length 0:00:02.00

Peak level 97.7 %
Track quality 100.0 %
Test CRC EE4113A2
Copy CRC EE4113A2
Track not present in AccurateRip database
Copy OK

Track 4

Filename C:\download\Maps & Diagrams - 2005 - Perspect\04 - Lopiak.wav

Pre-gap length 0:00:02.00

Peak level 67.7 %
Track quality 100.0 %
Test CRC DFB64156
Copy CRC DFB64156
Track not present in AccurateRip database
Copy OK

Track 5

Filename C:\download\Maps & Diagrams - 2005 - Perspect\05 - Fiord.wav

Pre-gap length 0:00:02.00

Peak level 100.0 %
Track quality 100.0 %
Test CRC C4CD7842
Copy CRC C4CD7842
Track not present in AccurateRip database
Copy OK

None of the tracks are present in the AccurateRip database

No errors occurred

End of status report


REM GENRE Electronic
REM DATE 2005
REM DISCID 3804B105
REM COMMENT "ExactAudioCopy v0.99pb4"
FILE "01 - Guida.wav" WAVE
TRACK 01 AUDIO
INDEX 01 00:00:00
TRACK 02 AUDIO
INDEX 00 05:03:04
FILE "02 - Queuek.wav" WAVE
INDEX 01 00:00:00
TRACK 03 AUDIO
INDEX 00 05:00:59
FILE "03 - Semeas.wav" WAVE
INDEX 01 00:00:00
TRACK 04 AUDIO
INDEX 00 03:20:03
FILE "04 - Lopiak.wav" WAVE
INDEX 01 00:00:00
TRACK 05 AUDIO
INDEX 00 00:51:64
FILE "05 - Fiord.wav" WAVE
INDEX 01 00:00:00

Год выпуска: 2005
Продолжительность: 00:19:49
Треклист:

01. 45forelectricity (02:59)
02. Rent Ballad (07:52)
03. Practice-Makes-Perfect (03:58)
04. Walking Water (01:06)
05. Return (03:54)

Exact Audio Copy V1.0 beta 3 from 29. August 2011

EAC extraction logfile from 3. February 2012, 12:46

Sense / Smallthings

Used drive : PLEXTOR CD-R PREMIUM Adapter: 4 ID: 0

Read mode : Secure
Utilize accurate stream : Yes
Defeat audio cache : Yes
Make use of C2 pointers : No

Read offset correction : 30
Overread into Lead-In and Lead-Out : Yes
Fill up missing offset samples with silence : Yes
Delete leading and trailing silent blocks : No
Null samples used in CRC calculations : Yes
Used interface : Installed external ASPI interface
Gap handling : Appended to previous track

Used output format : Internal WAV Routines
Sample format : 44.100 Hz; 16 Bit; Stereo

TOC of the extracted CD

Track | Start | Length | Start sector | End sector
---------------------------------------------------------
1 | 0:00.00 | 2:59.33 | 0 | 13457
2 | 2:59.33 | 7:51.64 | 13458 | 48846
3 | 10:51.22 | 3:58.02 | 48847 | 66698
4 | 14:49.24 | 1:06.32 | 66699 | 71680
5 | 15:55.56 | 3:54.11 | 71681 | 89241

Track 1

Filename C:\rip\Sense - Smallthings (2005)\01 - 45forelectricity.wav

Pre-gap length 0:00:02.00

Peak level 100.0 %
Extraction speed 5.0 X
Track quality 100.0 %
Test CRC 9A896076
Copy CRC 9A896076
Track not present in AccurateRip database
Copy OK

Track 2

Filename C:\rip\Sense - Smallthings (2005)\02 - Rent Ballad.wav

Peak level 100.0 %
Extraction speed 5.9 X
Track quality 100.0 %
Test CRC CD8D5CA0
Copy CRC CD8D5CA0
Track not present in AccurateRip database
Copy OK

Track 3

Filename C:\rip\Sense - Smallthings (2005)\03 - Practice-Makes-Perfect.wav

Peak level 100.0 %
Extraction speed 5.7 X
Track quality 99.9 %
Test CRC F256D643
Copy CRC F256D643
Track not present in AccurateRip database
Copy OK

Track 4

Filename C:\rip\Sense - Smallthings (2005)\04 - Walking Water.wav

Peak level 100.0 %
Extraction speed 5.4 X
Track quality 100.0 %
Test CRC D0750729
Copy CRC D0750729
Track not present in AccurateRip database
Copy OK

Track 5

Filename C:\rip\Sense - Smallthings (2005)\05 - Return.wav

Peak level 100.0 %
Extraction speed 6.8 X
Track quality 100.0 %
Test CRC 88DED374
Copy CRC 88DED374
Track not present in AccurateRip database
Copy OK

None of the tracks are present in the AccurateRip database

No errors occurred

End of status report

==== Log checksum 37A9189A05A88F03E221F493C10DDF30C771224DFA1F46179CE57BE76C1D0C7F ====


REM GENRE Unknown
REM DATE 2005
REM DISCID 4104A505
REM COMMENT "ExactAudioCopy v1.0b3"
PERFORMER "Sense"
TITLE "Small Things"
FILE "01. Sense - 45forelectricity.wav" WAVE
TRACK 01 AUDIO
TITLE "45forelectricity"
PERFORMER "Sense"
FLAGS DCP
INDEX 01 00:00:00
FILE "02. Sense - Rent Ballad.wav" WAVE
TRACK 02 AUDIO
TITLE "Rent Ballad"
PERFORMER "Sense"
FLAGS DCP
INDEX 01 00:00:00
FILE "03. Sense - Practice Makes Perfect.wav" WAVE
TRACK 03 AUDIO
TITLE "Practice Makes Perfect"
PERFORMER "Sense"
FLAGS DCP
INDEX 01 00:00:00
FILE "04. Sense - Walking Water.wav" WAVE
TRACK 04 AUDIO
TITLE "Walking Water"
PERFORMER "Sense"
FLAGS DCP
INDEX 01 00:00:00
FILE "05. Sense - Return.wav" WAVE
TRACK 05 AUDIO
TITLE "Return"
PERFORMER "Sense"
FLAGS DCP
INDEX 01 00:00:00

Год выпуска: 2005
Продолжительность: 00:20:40
Треклист:

01. Part One (04:11)
02. Part Two (04:25)
03. Part Three (04:26)
04. Part Four (07:38)

Exact Audio Copy V0.99 prebeta 4 from 23. January 2008

EAC extraction logfile from 3. January 2009, 17:53

Stendec / Opaque

Used drive : HL-DT-STDVDRAM GSA-T20L Adapter: 1 ID: 0

Read mode : Secure
Utilize accurate stream : Yes
Defeat audio cache : Yes
Make use of C2 pointers : No

Read offset correction : 667
Overread into Lead-In and Lead-Out : No
Fill up missing offset samples with silence : Yes
Delete leading and trailing silent blocks : No
Null samples used in CRC calculations : Yes
Used interface : Native Win32 interface for Win NT & 2000
Gap handling : Appended to previous track

Used output format : User Defined Encoder
Selected bitrate : 320 kBit/s
Quality : High
Add ID3 tag : No
Command line compressor : C:\Users\Downloads\flac-1.2.1-win\bin\flac.exe
Additional command line options : -V -8 -T "artist=%a" -T "title=%t" -T "album=%g" -T "date=%y" -T "tracknumber=%n" -T "genre=%m" %s

TOC of the extracted CD

Track | Start | Length | Start sector | End sector
---------------------------------------------------------
1 | 0:00.00 | 4:11.26 | 0 | 18850
2 | 4:11.26 | 4:24.44 | 18851 | 38694
3 | 8:35.70 | 4:26.34 | 38695 | 58678
4 | 13:02.29 | 7:38.15 | 58679 | 93043

Track 1

Filename C:\download\Stendec - 2005 - Opaque\01 - Part One.wav

Pre-gap length 0:00:02.00

Peak level 57.8 %
Track quality 100.0 %
Test CRC 70E9821E
Copy CRC 70E9821E
Track not present in AccurateRip database
Copy OK

Track 2

Filename C:\download\Stendec - 2005 - Opaque\02 - Part Two.wav

Peak level 100.0 %
Track quality 100.0 %
Test CRC DD1AE73E
Copy CRC DD1AE73E
Track not present in AccurateRip database
Copy OK

Track 3

Filename C:\download\Stendec - 2005 - Opaque\03 - Part Three.wav

Peak level 100.0 %
Track quality 100.0 %
Test CRC AED484A0
Copy CRC AED484A0
Track not present in AccurateRip database
Copy OK

Track 4

Filename C:\download\Stendec - 2005 - Opaque\04 - Part Four.wav

Peak level 100.0 %
Track quality 100.0 %
Test CRC 216598B3
Copy CRC 216598B3
Track not present in AccurateRip database
Copy OK

None of the tracks are present in the AccurateRip database

No errors occurred

End of status report


REM GENRE Electronic
REM DATE 2005
REM DISCID 2C04D804
REM COMMENT "ExactAudioCopy v0.99pb4"
FILE "01 - Part One.wav" WAVE
TRACK 01 AUDIO
INDEX 01 00:00:00
FILE "02 - Part Two.wav" WAVE
TRACK 02 AUDIO
INDEX 01 00:00:00
FILE "03 - Part Three.wav" WAVE
TRACK 03 AUDIO
INDEX 01 00:00:00
FILE "04 - Part Four.wav" WAVE
TRACK 04 AUDIO
INDEX 01 00:00:00

Год выпуска: 2005
Продолжительность: 00:18:24
Треклист:

01. Flipper (04:54)
02. Dub (04:58)
03. Summer (04:29)
04. Turn (04:03)

Exact Audio Copy V0.99 prebeta 4 from 23. January 2008

EAC extraction logfile from 10. January 2009, 0:23

EU / Nu)+(No

Used drive : HL-DT-STDVDRAM GSA-T20L Adapter: 1 ID: 0

Read mode : Secure
Utilize accurate stream : Yes
Defeat audio cache : Yes
Make use of C2 pointers : No

Read offset correction : 667
Overread into Lead-In and Lead-Out : No
Fill up missing offset samples with silence : Yes
Delete leading and trailing silent blocks : No
Null samples used in CRC calculations : Yes
Used interface : Native Win32 interface for Win NT & 2000
Gap handling : Appended to previous track

Used output format : User Defined Encoder
Selected bitrate : 320 kBit/s
Quality : High
Add ID3 tag : No
Command line compressor : C:\Users\Downloads\flac-1.2.1-win\bin\flac.exe
Additional command line options : -V -8 -T "artist=%a" -T "title=%t" -T "album=%g" -T "date=%y" -T "tracknumber=%n" -T "genre=%m" %s

TOC of the extracted CD

Track | Start | Length | Start sector | End sector
---------------------------------------------------------
1 | 0:00.00 | 4:54.19 | 0 | 22068
2 | 4:54.19 | 4:58.31 | 22069 | 44449
3 | 9:52.50 | 4:28.61 | 44450 | 64610
4 | 14:21.36 | 4:02.73 | 64611 | 82833

Track 1

Filename C:\download\EU - 2005 - Nu)+(No\01 - Flipper.wav

Pre-gap length 0:00:02.00

Peak level 96.6 %
Track quality 100.0 %
Test CRC A6814AF9
Copy CRC A6814AF9
Accurately ripped (confidence 2) [26695E19]
Copy OK

Track 2

Filename C:\download\EU - 2005 - Nu)+(No\02 - Dub.wav

Pre-gap length 0:00:02.00

Peak level 96.6 %
Track quality 100.0 %
Test CRC 2E9937AD
Copy CRC 2E9937AD
Accurately ripped (confidence 2) [C35A9F5E]
Copy OK

Track 3

Filename C:\download\EU - 2005 - Nu)+(No\03 - Summer.wav

Pre-gap length 0:00:02.00

Peak level 96.5 %
Track quality 100.0 %
Test CRC 848BBAB4
Copy CRC 848BBAB4
Accurately ripped (confidence 2) [7371C077]
Copy OK

Track 4

Filename C:\download\EU - 2005 - Nu)+(No\04 - Turn.wav

Pre-gap length 0:00:02.00

Peak level 96.5 %
Track quality 100.0 %
Test CRC 7FCFCCC9
Copy CRC 7FCFCCC9
Accurately ripped (confidence 2) [E3DFB236]
Copy OK

All tracks accurately ripped

No errors occurred

End of status report


REM GENRE Electronic
REM DATE 2005
REM DISCID 36045004
REM COMMENT "ExactAudioCopy v0.99pb4"
FILE "01 - Flipper.wav" WAVE
TRACK 01 AUDIO
INDEX 01 00:00:00
TRACK 02 AUDIO
INDEX 00 04:52:19
FILE "02 - Dub.wav" WAVE
INDEX 01 00:00:00
TRACK 03 AUDIO
INDEX 00 04:56:31
FILE "03 - Summer.wav" WAVE
INDEX 01 00:00:00
TRACK 04 AUDIO
INDEX 00 04:26:61
FILE "04 - Turn.wav" WAVE
INDEX 01 00:00:00

Год выпуска: 2005
Продолжительность: 00:16:00
Треклист:

01. Ärmusepoisid (04:30)
02. Kui Toivo Tuleb (04:15)
03. Mana Uppa (03:47)
04. Vanaisaga Prügimäel (03:28)

-----------------------

DON'T MODIFY THIS FILE

-----------------------

PERFORMER: auCDtect Task Manager, ver. 1.6.0 RC1 build 1.6.0.1
Copyright (c) 2008-2010 y-soft. All rights reserved
http://y-soft.org

ANALYZER: auCDtect: CD records authenticity detector, version 0.8.2
Copyright (c) 2004 Oleg Berngardt. All rights reserved.
Copyright (c) 2004 Alexander Djourik. All rights reserved.

FILE: 04. Vanaisaga Prügimäel.flac
Size: 18145173 Hash: B14F4BFB66A0D511C2CF7BA72F7E8DF6 Accuracy: -m0
Conclusion: CDDA 100%
Signature: 7B3364821276452F61FF5DD7CBEAA15CFE6F73DF
FILE: 03. Mana Uppa.flac
Size: 19713301 Hash: 0E5BE51FA16283017E7F61E5FAE7D2C8 Accuracy: -m0
Conclusion: CDDA 100%
Signature: A87710A27F4A4BDA101BC0A390014C063D88B156
FILE: 02. Kui Toivo Tuleb.flac
Size: 21745396 Hash: 19A7AE82A8A036AE4A9D00A64A66D962 Accuracy: -m0
Conclusion: CDDA 100%
Signature: 22A207E10B312272D2797114DEEEEDFB4972E25D
FILE: 01. Ärmusepoisid.flac
Size: 23210894 Hash: C99CD44DCC4E13F933077CBE3993EC90 Accuracy: -m0
Conclusion: CDDA 100%
Signature: 7C276B7CC7D7AED328E0F65A667BFEEDD723EF6A

Год выпуска: 2005
Продолжительность: 00:22:02
Треклист:

01. 93 Years On (08:18)
02. November In Battery Park (04:08)
03. Gone (04:14)
04. After The First Death (05:22)

Exact Audio Copy V0.99 prebeta 4 from 23. January 2008

EAC extraction logfile from 4. January 2009, 5:45

Digitonal / In Silence

Used drive : HL-DT-STDVDRAM GSA-T20L Adapter: 1 ID: 0

Read mode : Secure
Utilize accurate stream : Yes
Defeat audio cache : Yes
Make use of C2 pointers : No

Read offset correction : 667
Overread into Lead-In and Lead-Out : No
Fill up missing offset samples with silence : Yes
Delete leading and trailing silent blocks : No
Null samples used in CRC calculations : Yes
Used interface : Native Win32 interface for Win NT & 2000
Gap handling : Appended to previous track

Used output format : User Defined Encoder
Selected bitrate : 320 kBit/s
Quality : High
Add ID3 tag : No
Command line compressor : C:\Users\Downloads\flac-1.2.1-win\bin\flac.exe
Additional command line options : -V -8 -T "artist=%a" -T "title=%t" -T "album=%g" -T "date=%y" -T "tracknumber=%n" -T "genre=%m" %s

TOC of the extracted CD

Track | Start | Length | Start sector | End sector
---------------------------------------------------------
1 | 0:00.00 | 8:17.67 | 0 | 37341
2 | 8:17.67 | 4:08.30 | 37342 | 55971
3 | 12:26.22 | 4:13.56 | 55972 | 75002
4 | 16:40.03 | 5:21.66 | 75003 | 99143

Track 1

Filename C:\download\Digitonal - 2005 - In Silence\01 - 93 Years on.wav

Pre-gap length 0:00:02.00

Peak level 88.0 %
Track quality 100.0 %
Test CRC AEF4AC0C
Copy CRC AEF4AC0C
Track not present in AccurateRip database
Copy OK

Track 2

Filename C:\download\Digitonal - 2005 - In Silence\02 - November in Battery Park.wav

Pre-gap length 0:00:02.00

Peak level 98.8 %
Track quality 99.9 %
Test CRC C80E24DF
Copy CRC C80E24DF
Track not present in AccurateRip database
Copy OK

Track 3

Filename C:\download\Digitonal - 2005 - In Silence\03 - Gone.wav

Pre-gap length 0:00:02.00

Peak level 84.5 %
Track quality 100.0 %
Test CRC BD245654
Copy CRC BD245654
Track not present in AccurateRip database
Copy OK

Track 4

Filename C:\download\Digitonal - 2005 - In Silence\04 - After the First Death.wav

Pre-gap length 0:00:02.00

Peak level 88.0 %
Track quality 100.0 %
Test CRC CC85BA35
Copy CRC CC85BA35
Track not present in AccurateRip database
Copy OK

None of the tracks are present in the AccurateRip database

No errors occurred

End of status report


REM GENRE Electronic
REM DATE 2005
REM DISCID 2E052904
REM COMMENT "ExactAudioCopy v0.99pb4"
FILE "01 - 93 Years on.wav" WAVE
TRACK 01 AUDIO
INDEX 01 00:00:00
TRACK 02 AUDIO
INDEX 00 08:15:67
FILE "02 - November in Battery Park.wav" WAVE
INDEX 01 00:00:00
TRACK 03 AUDIO
INDEX 00 04:06:30
FILE "03 - Gone.wav" WAVE
INDEX 01 00:00:00
TRACK 04 AUDIO
INDEX 00 04:11:56
FILE "04 - After the First Death.wav" WAVE
INDEX 01 00:00:00

Год выпуска: 2005
Продолжительность: 00:19:51
Треклист:

01. Alg 11 (00:40)
02. Dirt Dx Amb (02:05)
03. Reflection 2 (01:49)
04. Darkly True (01:47)
05. Richi 04 Orch (01:28)
06. Gliss 4 (01:09)
07. 60 Planets (02:40)
08. 40 New Osc's (01:42)
09. 120 New Noises (02:04)
10. 120 Mls Of Acid (02:05)
11. Of A12 (02:22)

Exact Audio Copy V0.99 prebeta 5 from 4. May 2009

EAC extraction logfile from 3. November 2009, 18:55

eu / colder [cact 013]

Used drive : SONY DVD RW DRU-840A Adapter: 1 ID: 0

Read mode : Secure
Utilize accurate stream : Yes
Defeat audio cache : Yes
Make use of C2 pointers : No

Read offset correction : 6
Overread into Lead-In and Lead-Out : No
Fill up missing offset samples with silence : Yes
Delete leading and trailing silent blocks : No
Null samples used in CRC calculations : Yes
Used interface : Native Win32 interface for Win NT & 2000
Gap handling : Appended to previous track

Used output format : User Defined Encoder
Selected bitrate : 1024 kBit/s
Quality : High
Add ID3 tag : No
Command line compressor : C:\Program Files\Exact Audio Copy\Flac\flac.exe
Additional command line options : -V -8 -T "artist=%a" -T "title=%t" -T "album=%g" -T "date=(%y)" -T "tracknumber=(%n)" -T "genre=%m" %s

TOC of the extracted CD

Track | Start | Length | Start sector | End sector
---------------------------------------------------------
1 | 0:00.00 | 0:39.55 | 0 | 2979
2 | 0:39.55 | 2:04.41 | 2980 | 12320
3 | 2:44.21 | 1:48.59 | 12321 | 20479
4 | 4:33.05 | 1:46.43 | 20480 | 28472
5 | 6:19.48 | 1:28.33 | 28473 | 35105
6 | 7:48.06 | 1:08.44 | 35106 | 40249
7 | 8:56.50 | 2:39.65 | 40250 | 52239
8 | 11:36.40 | 1:42.02 | 52240 | 59891
9 | 13:18.42 | 2:04.10 | 59892 | 69201
10 | 15:22.52 | 2:05.35 | 69202 | 78611
11 | 17:28.12 | 2:21.41 | 78612 | 89227

Track 1

Filename I:\EAC-09-26-2009-0.99pb5\eu (2005) colder [cact 013]\(01) eu - alg 11.wav

Pre-gap length 0:00:02.00

Peak level 89.5 %
Track quality 100.0 %
Test CRC C914A987
Copy CRC C914A987
Accurately ripped (confidence 1) [53AA95C8]
Copy OK

Track 2

Filename I:\EAC-09-26-2009-0.99pb5\eu (2005) colder [cact 013]\(02) eu - dirt dx amb.wav

Pre-gap length 0:00:01.98

Peak level 80.0 %
Track quality 99.9 %
Test CRC CD5482DC
Copy CRC CD5482DC
Accurately ripped (confidence 1) [F206E079]
Copy OK

Track 3

Filename I:\EAC-09-26-2009-0.99pb5\eu (2005) colder [cact 013]\(03) eu - reflection 2.wav

Pre-gap length 0:00:01.98

Peak level 96.6 %
Track quality 100.0 %
Test CRC E896B72E
Copy CRC E896B72E
Accurately ripped (confidence 1) [93B2C42D]
Copy OK

Track 4

Filename I:\EAC-09-26-2009-0.99pb5\eu (2005) colder [cact 013]\(04) eu - darkly true.wav

Pre-gap length 0:00:01.98

Peak level 91.0 %
Track quality 99.9 %
Test CRC 10121F50
Copy CRC 10121F50
Accurately ripped (confidence 1) [0553D34D]
Copy OK

Track 5

Filename I:\EAC-09-26-2009-0.99pb5\eu (2005) colder [cact 013]\(05) eu - richi 04 orch.wav

Pre-gap length 0:00:01.98

Peak level 96.6 %
Track quality 100.0 %
Test CRC 8AFDD764
Copy CRC 8AFDD764
Accurately ripped (confidence 1) [41B5E4AA]
Copy OK

Track 6

Filename I:\EAC-09-26-2009-0.99pb5\eu (2005) colder [cact 013]\(06) eu - gliss 4.wav

Pre-gap length 0:00:01.98

Peak level 96.5 %
Track quality 100.0 %
Test CRC 1741A589
Copy CRC 1741A589
Accurately ripped (confidence 1) [46482127]
Copy OK

Track 7

Filename I:\EAC-09-26-2009-0.99pb5\eu (2005) colder [cact 013]\(07) eu - 60 planets.wav

Pre-gap length 0:00:01.98

Peak level 96.5 %
Track quality 100.0 %
Test CRC 4804E979
Copy CRC 4804E979
Accurately ripped (confidence 1) [37771BB6]
Copy OK

Track 8

Filename I:\EAC-09-26-2009-0.99pb5\eu (2005) colder [cact 013]\(08) eu - 40 new osc's.wav

Pre-gap length 0:00:01.98

Peak level 96.6 %
Track quality 100.0 %
Test CRC DF312F3F
Copy CRC DF312F3F
Accurately ripped (confidence 1) [9D0D646F]
Copy OK

Track 9

Filename I:\EAC-09-26-2009-0.99pb5\eu (2005) colder [cact 013]\(09) eu - 120 new noises.wav

Pre-gap length 0:00:01.98

Peak level 96.6 %
Track quality 100.0 %
Test CRC F731BB5E
Copy CRC F731BB5E
Accurately ripped (confidence 1) [C555E14E]
Copy OK

Track 10

Filename I:\EAC-09-26-2009-0.99pb5\eu (2005) colder [cact 013]\(10) eu - 120 mls of acid.wav

Pre-gap length 0:00:01.98

Peak level 100.0 %
Track quality 100.0 %
Test CRC CD04C839
Copy CRC CD04C839
Accurately ripped (confidence 1) [D333E61E]
Copy OK

Track 11

Filename I:\EAC-09-26-2009-0.99pb5\eu (2005) colder [cact 013]\(11) eu - of a12.wav

Pre-gap length 0:00:01.98

Peak level 96.5 %
Track quality 100.0 %
Test CRC 3DD0F6ED
Copy CRC 3DD0F6ED
Accurately ripped (confidence 1) [F9BEFA94]
Copy OK

All tracks accurately ripped

No errors occurred

End of status report


REM GENRE IDM
REM DATE 2005
REM DISCID 7D04A50B
REM COMMENT "ExactAudioCopy v0.99pb5"
PERFORMER EU
TITLE Colder
FILE "01. Alg 11.flac" WAVE
TRACK 1 AUDIO
TITLE "Alg 11"
PERFORMER Eu
INDEX 01 00:00:00
FILE "02. Dirt Dx Amb.flac" WAVE
TRACK 2 AUDIO
TITLE "Dirt Dx Amb"
PERFORMER Eu
INDEX 01 00:00:00
FILE "03. Reflection 2.flac" WAVE
TRACK 3 AUDIO
TITLE "Reflection 2"
PERFORMER Eu
INDEX 01 00:00:00
FILE "04. Darkly True.flac" WAVE
TRACK 4 AUDIO
TITLE "Darkly True"
PERFORMER Eu
INDEX 01 00:00:00
FILE "05. Richi 04 Orch.flac" WAVE
TRACK 5 AUDIO
TITLE "Richi 04 Orch"
PERFORMER Eu
INDEX 01 00:00:00
FILE "06. Gliss 4.flac" WAVE
TRACK 6 AUDIO
TITLE "Gliss 4"
PERFORMER Eu
INDEX 01 00:00:00
FILE "07. 60 Planets.flac" WAVE
TRACK 7 AUDIO
TITLE "60 Planets"
PERFORMER Eu
INDEX 01 00:00:00
FILE "08. 40 New Osc's.flac" WAVE
TRACK 8 AUDIO
TITLE "40 New Osc's"
PERFORMER Eu
INDEX 01 00:00:00
FILE "09. 120 New Noises.flac" WAVE
TRACK 9 AUDIO
TITLE "120 New Noises"
PERFORMER Eu
INDEX 01 00:00:00
FILE "10. 120 Mls Of Acid.flac" WAVE
TRACK 10 AUDIO
TITLE "120 Mls Of Acid"
PERFORMER Eu
INDEX 01 00:00:00
FILE "11. Of A12.flac" WAVE
TRACK 11 AUDIO
TITLE "Of A12"
PERFORMER Eu
INDEX 01 00:00:00

Год выпуска: 2005
Продолжительность: 00:20:30
Треклист:

01. Noth (03:37)
02. Broken (05:42)
03. My Corridors (07:19)
04. Pops (03:52)

-----------------------

DON'T MODIFY THIS FILE

-----------------------

PERFORMER: auCDtect Task Manager, ver. 1.6.0 RC1 build 1.6.0.1
Copyright (c) 2008-2010 y-soft. All rights reserved
http://y-soft.org

ANALYZER: auCDtect: CD records authenticity detector, version 0.8.2
Copyright (c) 2004 Oleg Berngardt. All rights reserved.
Copyright (c) 2004 Alexander Djourik. All rights reserved.

FILE: 04. Pops.flac
Size: 22013380 Hash: 87C72F43B8801848DC3E54C6B26B7058 Accuracy: -m0
Conclusion: CDDA 100%
Signature: 0076F3900BC9BB8131374C8D5D02908059225D12
FILE: 03. My Corridors.flac
Size: 46485715 Hash: 0D719303BB42A4B3F596EB56174F1D1D Accuracy: -m0
Conclusion: CDDA 100%
Signature: A0D600C06D08215708FFCCB025F43B0657A39516
FILE: 02. Broken.flac
Size: 33273816 Hash: 84E7837E884BA4AE64E886A524ECE4FF Accuracy: -m0
Conclusion: CDDA 99%
Signature: 3D7257A1AC80F69940560982F4A9DF139A836C64
FILE: 01. Noth.flac
Size: 19630065 Hash: 87A9B21E4730C4A7C5B1A3C3DE1090C0 Accuracy: -m0
Conclusion: CDDA 100%
Signature: 9E5452F8425EFC9EF629863154A2E1DA46B630A3

Год выпуска: 2005
Продолжительность: 00:59:17
Треклист:

01. Deeptwit (04:16)
02. Scuffling Bow (03:18)
03. Interlude (01:54)
04. Rheomode (05:41)
05. Minera (For John Peel) (06:00)
06. Medeva (04:36)
07. Lux Natura (05:17)
08. Upwards (05:12)
09. Darkcharge (05:42)
10. Unky (04:04)
11. Interlude 2 (01:26)
12. Spring (04:59)
13. As My Guitar Gently Rots (03:00)
14. Purge (03:52)

-----------------------

DON'T MODIFY THIS FILE

-----------------------

PERFORMER: auCDtect Task Manager, ver. 1.6.0 RC1 build 1.6.0.1
Copyright (c) 2008-2010 y-soft. All rights reserved
http://y-soft.org

ANALYZER: auCDtect: CD records authenticity detector, version 0.8.2
Copyright (c) 2004 Oleg Berngardt. All rights reserved.
Copyright (c) 2004 Alexander Djourik. All rights reserved.

FILE: 14. Purge.flac
Size: 26627550 Hash: FC9C94094E2990DFC11B71C28359765E Accuracy: -m0
Conclusion: CDDA 100%
Signature: A555E08C5CF0A58F3CF399C76F3F6C2ABF6D598B
FILE: 13. As My Guitar Gently Rots.flac
Size: 10228281 Hash: 8EBB9B9EAA5BC5950CC33BA05D0F92D4 Accuracy: -m0
Conclusion: CDDA 54%
Signature: 0853DFEAE30A039A544AD6AF6CC1AE8B3FEB2AC8
FILE: 12. Spring.flac
Size: 29786236 Hash: 840E06AE44D9BCD6544E991C692EABD2 Accuracy: -m0
Conclusion: CDDA 100%
Signature: 3948C58865DCA00A9477BEC2227D41B01A75BEEC
FILE: 11. Interlude 2.flac
Size: 5190183 Hash: 0B0588BA445743ACDD20E9D2CE518A1E Accuracy: -m0
Conclusion: MPEG 97%
Signature: 703EC384E98F420330C972D88118763C2698DCFE
FILE: 10. Unky.flac
Size: 21298852 Hash: B2F3A38DF2D29C412F76E8A16706D3BA Accuracy: -m0
Conclusion: MPEG 100%
Signature: EBF9E8C0ACED0E3DE3CF2246D6C53C7735FB5EC2
FILE: 09. Darkcharge.flac
Size: 35083429 Hash: 10C094A4658755FA5F55FBAEBB5E0705 Accuracy: -m0
Conclusion: CDDA 100%
Signature: 2FB5FD1B174B458ECA8EB65BD768CFF15EEF87B3
FILE: 08. Upwards.flac
Size: 31872418 Hash: EC6E4240C1994B56D6586A6E0E066BBF Accuracy: -m0
Conclusion: CDDA 100%
Signature: 0199B28EBDB8640839808C5009D74A737CD3378B
FILE: 07. Lux Natura.flac
Size: 23815961 Hash: 317926E669B374BD6BAD88DF8C6B69D0 Accuracy: -m0
Conclusion: CDDA 49%
Signature: DFE9492F39B8660CB0358661277735357CE80D1C
FILE: 06. Medeva.flac
Size: 24632153 Hash: 19A65575B6428138499C9E9E8A352A71 Accuracy: -m0
Conclusion: CDDA 100%
Signature: DE377B757B44EA4A93746D1D6D840D35889CF4FD
FILE: 05. Minera (For John Peel).flac
Size: 29941053 Hash: 391E29506E89DE8EC3A101366FB59E1F Accuracy: -m0
Conclusion: CDDA 100%
Signature: 84315AD7683EA5845A74209AA7B6D38CB301539D
FILE: 04. Rheomode.flac
Size: 29659932 Hash: 61E9E61E7B539CD120C9E930510E95E3 Accuracy: -m0
Conclusion: CDDA 54%
Signature: 088672EB345857FD87E67F19F4F1E2AE5CEC0AC0
FILE: 03. Interlude.flac
Size: 10241578 Hash: F007E0CA39FB09F09746F0FFB49E0D58 Accuracy: -m0
Conclusion: CDDA 100%
Signature: 31A9B1438493A6CDD270A504F7B9CB34284283B3
FILE: 02. Scuffling Bow.flac
Size: 19793978 Hash: A45802B60B54F923C0DFD69C84EDEA99 Accuracy: -m0
Conclusion: CDDA 100%
Signature: 52BE8E2C5C717C632D3BA74F4C205D26FA7AD438
FILE: 01. Deeptwit.flac
Size: 23922206 Hash: F52A8C9AAD7FC0363B0132D78A9FC283 Accuracy: -m0
Conclusion: CDDA 100%
Signature: 85B5CBEC1A44476470DE8372C0FE756597E72414

Год выпуска: 2006
Продолжительность: 00:19:39
Треклист:

01. Fusée (04:21)
02. Ensemble D'Esprit (03:00)
03. Fonction (07:02)
04. Trépied (05:16)

-----------------------

DON'T MODIFY THIS FILE

-----------------------

PERFORMER: auCDtect Task Manager, ver. 1.6.0 RC1 build 1.6.0.1
Copyright (c) 2008-2010 y-soft. All rights reserved
http://y-soft.org

ANALYZER: auCDtect: CD records authenticity detector, version 0.8.2
Copyright (c) 2004 Oleg Berngardt. All rights reserved.
Copyright (c) 2004 Alexander Djourik. All rights reserved.

FILE: 04. Trépied.flac
Size: 34754138 Hash: 934DEEDA64D8351295DDE09426B2A5B1 Accuracy: -m0
Conclusion: CDDA 100%
Signature: BDFA5A2CF931887D3278F909D5233F46D7DC13C9
FILE: 03. Fonction.flac
Size: 44555907 Hash: E0DEA72B5507526A1ADAC6BA4E22CB84 Accuracy: -m0
Conclusion: CDDA 100%
Signature: 612B5F4ACEDB42DC98E4C6188D6EF62C050C33B9
FILE: 02. Ensemble D'Esprit.flac
Size: 18196135 Hash: 446741F2FC5CB895CF88562DCC4F6735 Accuracy: -m0
Conclusion: CDDA 100%
Signature: 71D5445CE492FB3F4C0CA126770AFADE6F359171
FILE: 01. Fusée.flac
Size: 31139285 Hash: 2C3BF4721754369A0E8FB9787018BDC2 Accuracy: -m0
Conclusion: CDDA 100%
Signature: DFE740781528FEC0CCB9891DCC1C3D517B74DC91

Год выпуска: 2006
Продолжительность: 00:20:09
Треклист:

01. Shecompdist (06:06)
02. Augmented Conclusion (05:41)
03. Sleeping Mass (08:22)

-----------------------

DON'T MODIFY THIS FILE

-----------------------

PERFORMER: auCDtect Task Manager, ver. 1.6.0 RC1 build 1.6.0.1
Copyright (c) 2008-2010 y-soft. All rights reserved
http://y-soft.org

ANALYZER: auCDtect: CD records authenticity detector, version 0.8.2
Copyright (c) 2004 Oleg Berngardt. All rights reserved.
Copyright (c) 2004 Alexander Djourik. All rights reserved.

FILE: 03. Nautilis - Sleeping Mass.flac
Size: 57569799 Hash: 63742865591FA271B4E157CDFFE9FA57 Accuracy: -m0
Conclusion: MPEG 95%
Signature: 4EA0D16EBD45F6245249F84F0FDCA4EC504588EE
FILE: 02. Nautilis - Augmented Conclusion.flac
Size: 39003095 Hash: A123200DF7FF403123A4456C501AD3AC Accuracy: -m0
Conclusion: MPEG 100%
Signature: C980E27BE09D8AA7A4E5F185BEFF2E77E2C655D1
FILE: 01. Nautilis - Shecompdist.flac
Size: 39358478 Hash: 6EB27343E1B20874847D74E04B0DEAAE Accuracy: -m0
Conclusion: MPEG 99%
Signature: 0F2C46F94E7E5C263CDB296A4DA8A46F4D512E40

Год выпуска: 2006
Продолжительность: 00:20:57
Треклист:

01. Plastic Stains [Hard] (03:59)
02. After Ants (03:38)
03. Uki Reflection [Long] (05:33)
04. Matmilk (03:56)
05. Early Morning Dusts (03:51)

-----------------------

DON'T MODIFY THIS FILE

-----------------------

PERFORMER: auCDtect Task Manager, ver. 1.6.0 RC1 build 1.6.0.1
Copyright (c) 2008-2010 y-soft. All rights reserved
http://y-soft.org

ANALYZER: auCDtect: CD records authenticity detector, version 0.8.2
Copyright (c) 2004 Oleg Berngardt. All rights reserved.
Copyright (c) 2004 Alexander Djourik. All rights reserved.

FILE: 05. Early Morning Dusts.flac
Size: 22197191 Hash: FCD657392C63DDCB90E0DB312A5F0D8C Accuracy: -m0
Conclusion: CDDA 99%
Signature: AEC579B6E2667771D5D4D74AD876FA0AEF8EF961
FILE: 04. Matmilk.flac
Size: 21468145 Hash: 24523D52B7F9035F98C07E2EBE881164 Accuracy: -m0
Conclusion: CDDA 100%
Signature: 29AFED2434ECD6888C10A31A87ADCC92ABE4E8BF
FILE: 03. Uki Reflection [Long].flac
Size: 33103695 Hash: B59D4142A6A476E34E215C8D364F203D Accuracy: -m0
Conclusion: CDDA 100%
Signature: 93E0E0F23A8B7801DE26066B5E5A64863884C4D3
FILE: 02. After Ants.flac
Size: 23955165 Hash: 3B6EC09EB051F45AC8B828CF99043A52 Accuracy: -m0
Conclusion: CDDA 100%
Signature: DAC360B7FA887F1143EB6EB05F5795436A83BEC2
FILE: 01. Plastic Stains [Hard].flac
Size: 22450856 Hash: B41395FB138B1A4FEDFA58E1D6EA282B Accuracy: -m0
Conclusion: CDDA 100%
Signature: EA48568B7D948C8297D20AFF7E18A7738F795F21

Год выпуска: 2006
Продолжительность: 00:23:33
Треклист:

01. Hadajuda (04:12)
02. Speculum (05:42)
03. Vertu (04:03)
04. Gusty (03:30)
05. Rootfire (Bonus) (06:06)

-----------------------

DON'T MODIFY THIS FILE

-----------------------

PERFORMER: auCDtect Task Manager, ver. 1.6.0 RC1 build 1.6.0.1
Copyright (c) 2008-2010 y-soft. All rights reserved
http://y-soft.org

ANALYZER: auCDtect: CD records authenticity detector, version 0.8.2
Copyright (c) 2004 Oleg Berngardt. All rights reserved.
Copyright (c) 2004 Alexander Djourik. All rights reserved.

FILE: 05. Rootfire (Bonus).flac
Size: 36695698 Hash: 4EFEA71DDC85019FC583F84A8CA6F8BE Accuracy: -m0
Conclusion: CDDA 100%
Signature: 799BCF5CB59045ACB0620D9D49BC292BAB90E33C
FILE: 04. Gusty.flac
Size: 21755259 Hash: 0035554E2FD39147917588B1BB5B80B9 Accuracy: -m0
Conclusion: CDDA 100%
Signature: 46A05D015F32C04DBCB1F6E485D3A1211F493D75
FILE: 03. Vertu.flac
Size: 26722988 Hash: 875F28CB6AA5CF76F3ADE802DD1FC6DE Accuracy: -m0
Conclusion: CDDA 94%
Signature: 7F9504E961E39DBA0D7EFE51E86D97511F36370F
FILE: 02. Speculum.flac
Size: 29351660 Hash: B6FEF1C1942BA29F88B51D10210FE6C0 Accuracy: -m0
Conclusion: CDDA 49%
Signature: 263A37681CBD0F88883A90134EF3CB721C74CDAB
FILE: 01. Hadajuda.flac
Size: 27445708 Hash: 31954F813420233F5A091E0678F84210 Accuracy: -m0
Conclusion: CDDA 100%
Signature: 66FB6F25E155C3EF22374F5CCEC4C5FE853F9447

Год выпуска: 2006
Продолжительность: 00:19:59
Треклист:

01. Charge (04:34)
02. Jellygraphic (04:36)
03. Magnka (05:02)
04. Phxone (05:47)

-----------------------

DON'T MODIFY THIS FILE

-----------------------

PERFORMER: auCDtect Task Manager, ver. 1.6.0 RC1 build 1.6.0.1
Copyright (c) 2008-2010 y-soft. All rights reserved
http://y-soft.org

ANALYZER: auCDtect: CD records authenticity detector, version 0.8.2
Copyright (c) 2004 Oleg Berngardt. All rights reserved.
Copyright (c) 2004 Alexander Djourik. All rights reserved.

FILE: 04. Phxone.flac
Size: 37903613 Hash: 88F94DCEE159F6336503D94EE8DFB62C Accuracy: -m0
Conclusion: CDDA 100%
Signature: 11AFC8DCC44F01515FE9467B898DFBE6532DA1D3
FILE: 03. Magnka.flac
Size: 28349318 Hash: 6E8C46213E36C9FE4B55E7A234AECE74 Accuracy: -m0
Conclusion: CDDA 100%
Signature: 30A0EA592CDD759A22A8B596324876D827CD7764
FILE: 02. Jellygraphic.flac
Size: 27021760 Hash: 4DD7EF1C697ED5B62FFC8C09DDD0DE48 Accuracy: -m0
Conclusion: CDDA 100%
Signature: 27542A88620EBDF79048CE04F292B537A1060600
FILE: 01. Charge.flac
Size: 27296226 Hash: 4E97DF4F5B9B6E54C8F154951EF3CDA7 Accuracy: -m0
Conclusion: CDDA 99%
Signature: 8293B2252978C46F985AAB1A872ED57C5F8432B9

Год выпуска: 2006
Продолжительность: 00:20:28
Треклист:

01. Headphone Mambo (03:01)
02. Aquarious (05:08)
03. Booby Trap (03:18)
04. Cuchy Frito (05:04)
05. Group Sex (03:57)

-----------------------

DON'T MODIFY THIS FILE

-----------------------

PERFORMER: auCDtect Task Manager, ver. 1.6.0 RC1 build 1.6.0.1
Copyright (c) 2008-2010 y-soft. All rights reserved
http://y-soft.org

ANALYZER: auCDtect: CD records authenticity detector, version 0.8.2
Copyright (c) 2004 Oleg Berngardt. All rights reserved.
Copyright (c) 2004 Alexander Djourik. All rights reserved.

FILE: 05. Group Sex.flac
Size: 21049582 Hash: A8401EF91ADCE4DEFD926E59BFC1DAD0 Accuracy: -m0
Conclusion: CDDA 100%
Signature: 3C164D610BEEF18EAD40901D1524CF41FC3AEE5A
FILE: 04. Cuchy Frito.flac
Size: 31116853 Hash: B332343343A3B2F0564F9B6F219239DB Accuracy: -m0
Conclusion: CDDA 100%
Signature: 2A4B4CDC5045CAE882F69007BB04E9A640124E80
FILE: 03. Booby Trap.flac
Size: 21835166 Hash: 9856A2478F5E1386D09FE0411FAE0E75 Accuracy: -m0
Conclusion: CDDA 100%
Signature: AF7EF2BE249A826E963D4AE50E2E12A776038124
FILE: 02. Aquarious.flac
Size: 31274829 Hash: 99F670F58FC5B14DC21B62CF19B43D25 Accuracy: -m0
Conclusion: CDDA 100%
Signature: 937300B80186CE8BD04FA600ADD4D6FBAC025DC5
FILE: 01. Headphone Mambo.flac
Size: 16018421 Hash: BE810644A9C0D015097F2D8B69890DA7 Accuracy: -m0
Conclusion: CDDA 100%
Signature: 70058DC16044E6BAD668B7D923A264777508C15E

Год выпуска: 2006
Продолжительность: 00:20:38
Треклист:

01. Selches (02:12)
02. Gyttja (02:26)
03. Seismicrophone (04:01)
04. Air Eddy (02:00)
05. Frowzy Wool (03:51)
06. Abeam (03:10)
07. Ablution (02:58)

-----------------------

DON'T MODIFY THIS FILE

-----------------------

PERFORMER: auCDtect Task Manager, ver. 1.6.0 RC1 build 1.6.0.1
Copyright (c) 2008-2010 y-soft. All rights reserved
http://y-soft.org

ANALYZER: auCDtect: CD records authenticity detector, version 0.8.2
Copyright (c) 2004 Oleg Berngardt. All rights reserved.
Copyright (c) 2004 Alexander Djourik. All rights reserved.

FILE: 07. Ablution.flac
Size: 14412616 Hash: CE188003A29318CAF01203A4E80C3807 Accuracy: -m0
Conclusion: CDDA 100%
Signature: 7909B1D2B8D183250D77B317B29CE5E31BCC486D
FILE: 06. Abeam.flac
Size: 17806755 Hash: 5E39EC4F5DE2EE7826832B7BBB036C17 Accuracy: -m0
Conclusion: CDDA 100%
Signature: 1CAE1FC05725A5C8814B2F62D5DDEE6A11E491C1
FILE: 05. Frowzy Wool.flac
Size: 11983073 Hash: 4EBE436DC7FC0F162C4159539F893659 Accuracy: -m0
Conclusion: CDDA 100%
Signature: 50C7BA35265AAC6BEF92D7B91191DE6E43CCF178
FILE: 04. Air Eddy.flac
Size: 8404004 Hash: 91641F5559829C3496F506A3A94C42F0 Accuracy: -m0
Conclusion: CDDA 100%
Signature: 13730702079693C11B625DCB158103E093640CE3
FILE: 03. Seismicrophone.flac
Size: 17652762 Hash: 8761C7ECE4588CD78329261C0E2B0E90 Accuracy: -m0
Conclusion: CDDA 100%
Signature: DE5E1A2186C341F931D9DE440EB79CE6239F1B44
FILE: 02. Gyttja.flac
Size: 10122961 Hash: E3424E12E259E1DA3C0B6DA8C722C4F2 Accuracy: -m0
Conclusion: CDDA 100%
Signature: 6008A6B09FD04511922C5DD67670D844F20D31A1
FILE: 01. Selches.flac
Size: 12995680 Hash: C0F795FFA9542778E376D664962B2577 Accuracy: -m0
Conclusion: CDDA 100%
Signature: 3BBE5499E8F16EC668AE8AA2108ACA3951BDCBE2

Год выпуска: 2007
Продолжительность: 01:07:07
Треклист:

01. Quiroga - Colpo Rovente (03:31)
02. Tammetoru - Tonis (04:16)
03. soundhacker - O.R. (04:20)
04. Virculum - Apartment 15 (02:51)
05. ISAN - Amber Button (Live) (05:29)
06. Digitonal - Antares (05:26)
07. Sabi - Music For Stones (06:00)
08. Vain Foam - Photo Memories (01:39)
09. Bichi - It Begins (05:12)
10. Slemper - Sneak (04:15)
11. Yvat - Frozen Grass (04:18)
12. Poborsk - Femfliq (03:36)
13. Joel Tammik - Around (05:27)
14. Maps And Diagrams - Paisajes Polares (02:54)
15. Malota - Frosted Wiggle (02:45)
16. Weave - Rootfire (Edit) (05:08)

Exact Audio Copy V0.99 prebeta 3 from 28. July 2007

EAC extraction logfile from 19. July 2009, 9:53

Various / Brittle Behaviour [cact 023]

Used drive : SONY DVD RW DRU-840A Adapter: 1 ID: 0

Read mode : Secure
Utilize accurate stream : Yes
Defeat audio cache : Yes
Make use of C2 pointers : No

Read offset correction : 6
Overread into Lead-In and Lead-Out : No
Fill up missing offset samples with silence : Yes
Delete leading and trailing silent blocks : No
Null samples used in CRC calculations : Yes
Used interface : Native Win32 interface for Win NT & 2000
Gap handling : Appended to previous track

Used output format : User Defined Encoder
Selected bitrate : 1024 kBit/s
Quality : High
Add ID3 tag : No
Command line compressor : C:\Program Files\Exact Audio Copy\FLAC\FLAC.EXE
Additional command line options : -V -8 -T "artist=%a" -T "title=%t" -T "album=%g" -T "date=%y" -T "tracknumber=%n" -T "genre=%m" %s

TOC of the extracted CD

Track | Start | Length | Start sector | End sector
---------------------------------------------------------
1 | 0:00.00 | 3:30.70 | 0 | 15819
2 | 3:30.70 | 4:15.59 | 15820 | 35003
3 | 7:46.54 | 4:20.00 | 35004 | 54503
4 | 12:06.54 | 2:50.60 | 54504 | 67313
5 | 14:57.39 | 5:28.38 | 67314 | 91951
6 | 20:26.02 | 5:26.27 | 91952 | 116428
7 | 25:52.29 | 6:00.00 | 116429 | 143428
8 | 31:52.29 | 1:39.00 | 143429 | 150853
9 | 33:31.29 | 5:12.37 | 150854 | 174290
10 | 38:43.66 | 4:15.21 | 174291 | 193436
11 | 42:59.12 | 4:17.52 | 193437 | 212763
12 | 47:16.64 | 3:35.45 | 212764 | 228933
13 | 50:52.34 | 5:27.20 | 228934 | 253478
14 | 56:19.54 | 2:54.37 | 253479 | 266565
15 | 59:14.16 | 2:44.42 | 266566 | 278907
16 | 61:58.58 | 5:07.62 | 278908 | 301994

Track 1

Filename E:\EAO rips\Brittle Behaviour [cact 023] - 2006\(01) Quiroga - Colpo Rovente.wav

Pre-gap length 0:00:02.00

Peak level 87.9 %
Track quality 100.0 %
Test CRC A5A707F0
Copy CRC A5A707F0
Track not present in AccurateRip database
Copy OK

Track 2

Filename E:\EAO rips\Brittle Behaviour [cact 023] - 2006\(02) Tammetхru - Tхnis.wav

Peak level 97.7 %
Track quality 100.0 %
Test CRC 2CCB3B75
Copy CRC 2CCB3B75
Track not present in AccurateRip database
Copy OK

Track 3

Filename E:\EAO rips\Brittle Behaviour [cact 023] - 2006\(03) Soundhacker - O.R..wav

Peak level 97.7 %
Track quality 99.9 %
Test CRC 3FCE25EF
Copy CRC 3FCE25EF
Track not present in AccurateRip database
Copy OK

Track 4

Filename E:\EAO rips\Brittle Behaviour [cact 023] - 2006\(04) Virculum - Apartment 15.wav

Peak level 72.4 %
Track quality 100.0 %
Test CRC A34BD1D1
Copy CRC A34BD1D1
Track not present in AccurateRip database
Copy OK

Track 5

Filename E:\EAO rips\Brittle Behaviour [cact 023] - 2006\(05) I S A N - Amber Button [Live].wav

Peak level 97.7 %
Track quality 100.0 %
Test CRC 3F2F5494
Copy CRC 3F2F5494
Track not present in AccurateRip database
Copy OK

Track 6

Filename E:\EAO rips\Brittle Behaviour [cact 023] - 2006\(06) Digitonal - Antares.wav

Peak level 96.5 %
Track quality 100.0 %
Test CRC 00EE72DF
Copy CRC 00EE72DF
Track not present in AccurateRip database
Copy OK

Track 7

Filename E:\EAO rips\Brittle Behaviour [cact 023] - 2006\(07) Sabi - Music For Stones.wav

Peak level 97.7 %
Track quality 100.0 %
Test CRC A15621A0
Copy CRC A15621A0
Track not present in AccurateRip database
Copy OK

Track 8

Filename E:\EAO rips\Brittle Behaviour [cact 023] - 2006\(08) Vain Foam - Photo Memories.wav

Peak level 97.7 %
Track quality 100.0 %
Test CRC C059EC71
Copy CRC C059EC71
Track not present in AccurateRip database
Copy OK

Track 9

Filename E:\EAO rips\Brittle Behaviour [cact 023] - 2006\(09) Bichi - It Begins.wav

Peak level 97.7 %
Track quality 99.9 %
Test CRC 5AD0D1FF
Copy CRC 5AD0D1FF
Track not present in AccurateRip database
Copy OK

Track 10

Filename E:\EAO rips\Brittle Behaviour [cact 023] - 2006\(10) Slemper - Sneak.wav

Peak level 97.7 %
Track quality 100.0 %
Test CRC E29D9B1F
Copy CRC E29D9B1F
Track not present in AccurateRip database
Copy OK

Track 11

Filename E:\EAO rips\Brittle Behaviour [cact 023] - 2006\(11) Yvat - Frozen Grass.wav

Peak level 97.7 %
Track quality 99.9 %
Test CRC 9E674669
Copy CRC 9E674669
Track not present in AccurateRip database
Copy OK

Track 12

Filename E:\EAO rips\Brittle Behaviour [cact 023] - 2006\(12) Poborsk - Femfliq.wav

Peak level 97.7 %
Track quality 100.0 %
Test CRC 2DED2E33
Copy CRC 2DED2E33
Track not present in AccurateRip database
Copy OK

Track 13

Filename E:\EAO rips\Brittle Behaviour [cact 023] - 2006\(13) Joel Tammik - Around.wav

Peak level 97.7 %
Track quality 100.0 %
Test CRC 488E963D
Copy CRC 488E963D
Track not present in AccurateRip database
Copy OK

Track 14

Filename E:\EAO rips\Brittle Behaviour [cact 023] - 2006\(14) Maps & Diagrams - Paisajes Polares.wav

Peak level 79.9 %
Track quality 100.0 %
Test CRC 602EF921
Copy CRC 602EF921
Track not present in AccurateRip database
Copy OK

Track 15

Filename E:\EAO rips\Brittle Behaviour [cact 023] - 2006\(15) Malota - Frosted Wiggle.wav

Peak level 97.7 %
Track quality 100.0 %
Test CRC 5FAED408
Copy CRC 5FAED408
Track not present in AccurateRip database
Copy OK

Track 16

Filename E:\EAO rips\Brittle Behaviour [cact 023] - 2006\(16) Weave - Rootfire [edit].wav

Peak level 97.7 %
Track quality 99.9 %
Test CRC 81C1C4BF
Copy CRC 81C1C4BF
Track not present in AccurateRip database
Copy OK

None of the tracks are present in the AccurateRip database

No errors occurred

End of status report


REM GENRE IDM
REM DATE 2006
REM DISCID E00FBA10
REM COMMENT "ExactAudioCopy v0.99pb3"
PERFORMER Various
TITLE "Brittle Behaviour"
FILE "01. Quiroga - Colpo Rovente.flac" WAVE
TRACK 1 AUDIO
TITLE "Colpo Rovente"
PERFORMER Quiroga
INDEX 01 00:00:00
FILE "02. Tammetõru - Tõnis.flac" WAVE
TRACK 2 AUDIO
TITLE Tõnis
PERFORMER Tammetõru
INDEX 01 00:00:00
FILE "03. soundhacker - O.R..flac" WAVE
TRACK 3 AUDIO
TITLE O.R.
PERFORMER Soundhacker
INDEX 01 00:00:00
FILE "04. Virculum - Apartment 15.flac" WAVE
TRACK 4 AUDIO
TITLE "Apartment 15"
PERFORMER Virculum
INDEX 01 00:00:00
FILE "05. ISAN - Amber Button (Live).flac" WAVE
TRACK 5 AUDIO
TITLE "Amber Button (Live)"
PERFORMER Isan
INDEX 01 00:00:00
FILE "06. Digitonal - Antares.flac" WAVE
TRACK 6 AUDIO
TITLE Antares
PERFORMER Digitonal
INDEX 01 00:00:00
FILE "07. Sabi - Music For Stones.flac" WAVE
TRACK 7 AUDIO
TITLE "Music For Stones"
PERFORMER Sabi
INDEX 01 00:00:00
FILE "08. Vain Foam - Photo Memories.flac" WAVE
TRACK 8 AUDIO
TITLE "Photo Memories"
PERFORMER "Vain Foam"
INDEX 01 00:00:00
FILE "09. Bichi - It Begins.flac" WAVE
TRACK 9 AUDIO
TITLE "It Begins"
PERFORMER Bichi
INDEX 01 00:00:00
FILE "10. Slemper - Sneak.flac" WAVE
TRACK 10 AUDIO
TITLE Sneak
PERFORMER Slemper
INDEX 01 00:00:00
FILE "11. Yvat - Frozen Grass.flac" WAVE
TRACK 11 AUDIO
TITLE "Frozen Grass"
PERFORMER Yvat
INDEX 01 00:00:00
FILE "12. Poborsk - Femfliq.flac" WAVE
TRACK 12 AUDIO
TITLE Femfliq
PERFORMER Poborsk
INDEX 01 00:00:00
FILE "13. Joel Tammik - Around.flac" WAVE
TRACK 13 AUDIO
TITLE Around
PERFORMER "Joel Tammik"
INDEX 01 00:00:00
FILE "14. Maps And Diagrams - Paisajes Polares.flac" WAVE
TRACK 14 AUDIO
TITLE "Paisajes Polares"
PERFORMER "Maps And Diagrams"
INDEX 01 00:00:00
FILE "15. Malota - Frosted Wiggle.flac" WAVE
TRACK 15 AUDIO
TITLE "Frosted Wiggle"
PERFORMER Malota
INDEX 01 00:00:00
FILE "16. Weave - Rootfire (Edit).flac" WAVE
TRACK 16 AUDIO
TITLE "Rootfire (Edit)"
PERFORMER Weave
INDEX 01 00:00:00
Год выпуска: 2006
Продолжительность: 00:19:18
Треклист:

01. ººloOº (04:37)
02. Reelizdimdumb (04:41)
03. Wonkeebiz (04:59)
04. Fausbuild (05:01)

-----------------------

DON'T MODIFY THIS FILE

-----------------------

PERFORMER: auCDtect Task Manager, ver. 1.6.0 RC1 build 1.6.0.1
Copyright (c) 2008-2010 y-soft. All rights reserved
http://y-soft.org

ANALYZER: auCDtect: CD records authenticity detector, version 0.8.2
Copyright (c) 2004 Oleg Berngardt. All rights reserved.
Copyright (c) 2004 Alexander Djourik. All rights reserved.

FILE: 04. Fausbuild.flac
Size: 34855026 Hash: C6582C95004D512D389D53CEEA332F3F Accuracy: -m0
Conclusion: CDDA 100%
Signature: AEE29BD2E3CBEC23F1A58CF4910BE59C7F7DDD9B
FILE: 03. Wonkeebiz.flac
Size: 30305106 Hash: 5C80526A2753E7954576105AFCFAD0A8 Accuracy: -m0
Conclusion: CDDA 42%
Signature: 3A3BB15511D3271F7CF0649AC2BA3C0651254310
FILE: 02. Reelizdimdumb.flac
Size: 27810824 Hash: FC37ED48712062DF8F38462AB3271E6A Accuracy: -m0
Conclusion: CDDA 100%
Signature: BB9709AEF76CF4B001CD998D2152FB046EF68613
FILE: 01. ººloOº.flac
Size: 24115480 Hash: EB110A9C8B5D71CD997E09461F80E2A4 Accuracy: -m0
Conclusion: CDDA 100%
Signature: 5BE747AC09493BA0308A3F9AFB47B1A970269F0A

Год выпуска: 2007
Продолжительность: 00:15:40
Треклист:

01. When (02:58)
02. Go (04:28)
03. Rust (05:57)
04. Hill (02:17)

-----------------------

DON'T MODIFY THIS FILE

-----------------------

PERFORMER: auCDtect Task Manager, ver. 1.6.0 RC1 build 1.6.0.1
Copyright (c) 2008-2010 y-soft. All rights reserved
http://y-soft.org

ANALYZER: auCDtect: CD records authenticity detector, version 0.8.2
Copyright (c) 2004 Oleg Berngardt. All rights reserved.
Copyright (c) 2004 Alexander Djourik. All rights reserved.

FILE: 04. Hill.flac
Size: 11208197 Hash: D2A3954EC5420906BE79FFEF8A97AF25 Accuracy: -m0
Conclusion: CDDA 100%
Signature: 3403206C4C9D0E3D555594971C4AD4EB505E12D7
FILE: 03. Rust.flac
Size: 35859132 Hash: 487395656A3465CD9AAF9CB1980CDF22 Accuracy: -m0
Conclusion: CDDA 100%
Signature: A6524B0006E1018B77DA15B8661CC160CE3C5015
FILE: 02. Go.flac
Size: 29721552 Hash: 3ED00C6929F3858166FB9F835267CAB7 Accuracy: -m0
Conclusion: CDDA 100%
Signature: A7CDD147C0125BDF3A3CDF30EADC780472EDEE52
FILE: 01. When.flac
Size: 16326130 Hash: 5EA1E543FA4E5F6C41D1D57286C83215 Accuracy: -m0
Conclusion: CDDA 100%
Signature: 0FD1B3A7273674AD410A402C9577BC045A966765

Год выпуска: 2008
Продолжительность: 00:21:11
Треклист:

01. Erobreren (03:32)
02. Drommeren (04:10)
03. T?nkeren (05:24)
04. Forforeren (04:43)
05. Broen (03:22)

-----------------------

DON'T MODIFY THIS FILE

-----------------------

PERFORMER: auCDtect Task Manager, ver. 1.6.0 RC1 build 1.6.0.1
Copyright (c) 2008-2010 y-soft. All rights reserved
http://y-soft.org

ANALYZER: auCDtect: CD records authenticity detector, version 0.8.2
Copyright (c) 2004 Oleg Berngardt. All rights reserved.
Copyright (c) 2004 Alexander Djourik. All rights reserved.

FILE: 05. Broen.flac
Size: 23395208 Hash: A781D409C7AE18E8D0BBC7087B4E7CA4 Accuracy: -m0
Conclusion: CDDA 100%
Signature: A498282C7FE8EFDFDB7E3745327A1C1DCF7D448B
FILE: 04. Forføreren.flac
Size: 31452242 Hash: 7F839C435DD665F5618423EBDFBF3AB5 Accuracy: -m0
Conclusion: CDDA 100%
Signature: 5F2608A77A8088C5A8725F29850E45645EB22B0D
FILE: 03. Tœnkeren.flac
Size: 30157093 Hash: D93C70D353509A0B8A176B157EB659FC Accuracy: -m0
Conclusion: CDDA 100%
Signature: 79C14C5FB7196762E2175C12AD66DCFC18E7155E
FILE: 02. Drømmeren.flac
Size: 22664056 Hash: C5D6EB9A2E0B3713B8FAC70D12F5A7A4 Accuracy: -m0
Conclusion: CDDA 100%
Signature: 82078519DD6E20373DB1003D2D4EDC8B16C5AA73
FILE: 01. Erobreren.flac
Size: 20415995 Hash: 61F7A4AA9F64AD598AA4E9A0F6A2A8D7 Accuracy: -m0
Conclusion: CDDA 100%
Signature: 4D398BF0A021A5C69F42CE58A5F599FFC034BE0F

Год выпуска: 2007
Продолжительность: 00:48:36
Треклист:

01. Malm (03:51)
02. Palp (04:43)
03. Seiches 2 (03:03)
04. Tracery (01:56)
05. Neume (03:23)
06. Graft (05:34)
07. Preen (04:38)
08. Ablution (Gouche Remix) (02:55)
09. Facet (05:11)
10. Arch (05:47)
11. Abeam (Side Trip Remix) (03:37)
12. Tear Duct (03:58)

-----------------------

DON'T MODIFY THIS FILE

-----------------------

PERFORMER: auCDtect Task Manager, ver. 1.6.0 RC1 build 1.6.0.1
Copyright (c) 2008-2010 y-soft. All rights reserved
http://y-soft.org

ANALYZER: auCDtect: CD records authenticity detector, version 0.8.2
Copyright (c) 2004 Oleg Berngardt. All rights reserved.
Copyright (c) 2004 Alexander Djourik. All rights reserved.

FILE: 12. Tear Duct.flac
Size: 22018407 Hash: 391074DB93F6FE12539DDAC64D4F5442 Accuracy: -m0
Conclusion: CDDA 99%
Signature: 705B78EBBAAB302616D00936D331BC51DD3C3AC3
FILE: 11. Abeam (Side Trip Remix).flac
Size: 22496965 Hash: 249F9175DDF78A6FFFCD20868EFE9B75 Accuracy: -m0
Conclusion: CDDA 100%
Signature: E479829DA8BE422F1A09BDDD6D0F77795237AB84
FILE: 10. Arch.flac
Size: 23555309 Hash: 14F69B25A8011529D4FAE6DE2C09D318 Accuracy: -m0
Conclusion: CDDA 100%
Signature: 0A410A21680B1BB5DC1E4A85B9A5950A4108C1FB
FILE: 09. Facet.flac
Size: 27932882 Hash: FB3C35A1D85B3381687C740AD24C5830 Accuracy: -m0
Conclusion: CDDA 100%
Signature: 7AF43664416E6F6FB50491C6ABDB069E4EAE7405
FILE: 08. Ablution (Gouche Remix).flac
Size: 16468868 Hash: AEF861DCA440F2012217ADD4411410D5 Accuracy: -m0
Conclusion: CDDA 100%
Signature: BF28EB0B1E3FD3E913A596C503F71AEA9A3FAAA9
FILE: 07. Preen.flac
Size: 24095354 Hash: A7F62584CFA7D7845B93819FE17B0A7A Accuracy: -m0
Conclusion: CDDA 100%
Signature: 2BCCDFAE2A8F15777986DD8977609D8BA722A224
FILE: 06. Graft.flac
Size: 23712191 Hash: AB92C5E12D78AC42A2DCCF2C02F0BB1F Accuracy: -m0
Conclusion: CDDA 100%
Signature: 95B88141667A7D464ED5E9FAF41FC4C260A140C8
FILE: 05. Neume.flac
Size: 17090904 Hash: 2F4E68B07AB3BED8511891DC5BE8A063 Accuracy: -m0
Conclusion: CDDA 100%
Signature: B5CBC8860B04DC47F0DD9B40091D080A771DEB3E
FILE: 04. Tracery.flac
Size: 5951552 Hash: C07650E18599542A05A4E3BC7F416894 Accuracy: -m0
Conclusion: CDDA 99%
Signature: 49E650376D8AF4ACA01FCC43002F6A2338D1E56C
FILE: 03. Seiches 2.flac
Size: 18468406 Hash: AC8BB820CB4B76B57D7AD3E2A4E559D3 Accuracy: -m0
Conclusion: CDDA 100%
Signature: 9CDDC554DD0AD7ECB25EF1F4714992CE6FFEB625
FILE: 02. Palp.flac
Size: 27472410 Hash: AEF27C38162FB7CF0E0326CB3F787D9F Accuracy: -m0
Conclusion: CDDA 100%
Signature: E1AE22E66171B3926D7CEA81A82C77197AE12BCC
FILE: 01. Malm.flac
Size: 21546854 Hash: 1BF6072B3690DE42FF5CE539D2C44695 Accuracy: -m0
Conclusion: MPEG 95%
Signature: E2D54998AA481066BE547487C983DA8BA8A4560C

Год выпуска: 2008
Продолжительность: 00:57:35
Треклист:

01. Fcuarelas (01:24)
02. Henna (05:08)
03. Kuahaa (06:30)
04. Quad Felt (05:51)
05. Back To Mono (04:35)
06. Meak (06:10)
07. Phone Addict (03:00)
08. Northern Sleeping (04:52)
09. Walnut Creek (05:02)
10. Polymer Tunnel (05:46)
11. Lomographic (04:25)
12. Flank (04:52)

-----------------------

DON'T MODIFY THIS FILE

-----------------------

PERFORMER: auCDtect Task Manager, ver. 1.6.0 RC1 build 1.6.0.1
Copyright (c) 2008-2010 y-soft. All rights reserved
http://y-soft.org

ANALYZER: auCDtect: CD records authenticity detector, version 0.8.2
Copyright (c) 2004 Oleg Berngardt. All rights reserved.
Copyright (c) 2004 Alexander Djourik. All rights reserved.

FILE: 12. Flank.flac
Size: 36328804 Hash: 00D1BD5A089C312367643C465A542041 Accuracy: -m0
Conclusion: CDDA 100%
Signature: 32EA1CCAE738440B20EC8365A1BFF5D87262742D
FILE: 11. Lomographic.flac
Size: 27555050 Hash: 30BB1B7697A41FD0AEA3CBB7DC54DFCB Accuracy: -m0
Conclusion: CDDA 58%
Signature: 22B8201BF37657B2A58440FC0F71DED33C783166
FILE: 10. Polymer Tunnel.flac
Size: 39395372 Hash: C3B5794A020CF40162938EE930ADDC9E Accuracy: -m0
Conclusion: CDDA 100%
Signature: 3554C1241F819D8451B98A13796CF349CA3D6351
FILE: 09. Walnut Creek.flac
Size: 33300231 Hash: 65EF875C377361232A676CDDFCC8C3E4 Accuracy: -m0
Conclusion: MPEG 95%
Signature: D29666C23FA2A8198955B12603DB223717923C4C
FILE: 08. Northern Sleeping.flac
Size: 32193632 Hash: 6ED23615321B67C792D18575C127279E Accuracy: -m0
Conclusion: MPEG 95%
Signature: BB1FDC322DD3AF6E3083BD9158D6DBFAA4E8421B
FILE: 07. Phone Addict.flac
Size: 22109400 Hash: 2A89EFEF1D25922289B4AF8ADF4BC74C Accuracy: -m0
Conclusion: CDDA 100%
Signature: 09CE0F4D07D055F203FB55F897DC26580315A134
FILE: 06. Meak.flac
Size: 42034881 Hash: 30686B0E0BEE379650FB8B7A5A53796E Accuracy: -m0
Conclusion: CDDA 100%
Signature: CF0F2EFD29AB0580771D09DD0EE656DE5EA8E25A
FILE: 05. Back To Mono.flac
Size: 31030442 Hash: 69EC39C0261BFF3FA3DB036B97780BE6 Accuracy: -m0
Conclusion: CDDA 100%
Signature: EEA08187F691B4C7F71139FCB0DDA3544C8E6E6C
FILE: 04. Quad Felt.flac
Size: 42164647 Hash: 513806033FACAD9EBE2481B1218F561D Accuracy: -m0
Conclusion: CDDA 100%
Signature: E69E0CACFC19D36EDF8645CF83997EB3F7B5F910
FILE: 03. Kuahaa.flac
Size: 47652746 Hash: F8FA1F6BF1A1EE707B3A84D5E2FC20AB Accuracy: -m0
Conclusion: CDDA 100%
Signature: 0A45AC0AB73CF8CDC26737B26D69D0DB72AB320C
FILE: 02. Henna.flac
Size: 34855065 Hash: C2E4AB97805AA773EB0AD8703800DA61 Accuracy: -m0
Conclusion: CDDA 100%
Signature: 83A2964C50C3912BBB73B17C89B5BD348B92161F
FILE: 01. Fcuarelas.flac
Size: 9828102 Hash: 4A2CB0A059B7378ED79F5DF90BC162E3 Accuracy: -m0
Conclusion: CDDA 100%
Signature: 3C2E1B27849BAA51FEC59CA841D46B140CB03F3A

Год выпуска: 2008
Продолжительность: 00:43:09
Треклист:

01. Eec (04:19)
02. Some Inspires Soul (02:24)
03. Easy Cat (03:58)
04. Kidnap Syndicate (03:17)
05. Ultimo Treno (03:38)
06. Sognandounacosa (03:25)
07. Lovogliomorto (04:17)
08. Potts County (03:30)
09. Tropical Dementia (02:37)
10. Mitch Allison (03:16)
11. Holdownshift (04:09)
12. Space Trap (04:19)

-----------------------

DON'T MODIFY THIS FILE

-----------------------

PERFORMER: auCDtect Task Manager, ver. 1.6.0 RC1 build 1.6.0.1
Copyright (c) 2008-2010 y-soft. All rights reserved
http://y-soft.org

ANALYZER: auCDtect: CD records authenticity detector, version 0.8.2
Copyright (c) 2004 Oleg Berngardt. All rights reserved.
Copyright (c) 2004 Alexander Djourik. All rights reserved.

FILE: 12. Space Trap.flac
Size: 30054715 Hash: 17A1C60BA6FA3EC9FB050EA6EA2A6285 Accuracy: -m0
Conclusion: CDDA 100%
Signature: 539A856D1A1F91F2C9C4DE531D80CEA7304ADC45
FILE: 11. Holdownshift.flac
Size: 23315909 Hash: D85B7227630B747B192DD902A104FD75 Accuracy: -m0
Conclusion: CDDA 100%
Signature: 44A107FD79C49EC30E34437EB4520EBACE9085B1
FILE: 10. Mitch Allison.flac
Size: 21498961 Hash: 813C11E227868CCDCD2C3CDF0AC44098 Accuracy: -m0
Conclusion: CDDA 100%
Signature: 8634651F7A663A03F4F96E70F70468053E5FD9A1
FILE: 09. Tropical Dementia.flac
Size: 15914539 Hash: C0C7F0B3058A7819B284D0E313A2D307 Accuracy: -m0
Conclusion: CDDA 100%
Signature: 1504B482F5D4832F509922B5FC842EE5B1E20871
FILE: 08. Potts County.flac
Size: 19936817 Hash: 22EB719628B87964E17C0D0334E5F6D9 Accuracy: -m0
Conclusion: MPEG 95%
Signature: 74976F0B29A0527C69B9EE1DA835E1C9CBCD3660
FILE: 07. Lovogliomorto.flac
Size: 27021588 Hash: 9E08F950249376D890E909AD2519B186 Accuracy: -m0
Conclusion: CDDA 100%
Signature: 46F39B203FE5712E271CA847322D22E2913F95C0
FILE: 06. Sognandounacosa.flac
Size: 18160368 Hash: CB4BCB9D5DECC30D061871A1767EFA1E Accuracy: -m0
Conclusion: CDDA 100%
Signature: D43A915B0D118AE5AF1FA4796613F0F97C16D130
FILE: 05. Ultimo Treno.flac
Size: 18352539 Hash: FD6A1AA73F3C8D263A8DE8436A801D7B Accuracy: -m0
Conclusion: CDDA 100%
Signature: 4FD2325D5D5CE9985F44A9FE337E7E7BAE4A6A2B
FILE: 04. Kidnap Syndicate.flac
Size: 19741543 Hash: 664A45DC103B05D93DDED472866A0D14 Accuracy: -m0
Conclusion: CDDA 99%
Signature: D310E2741A3ACAF086AFD41E65BC65281B7F8992
FILE: 03. Easy Cat.flac
Size: 23015840 Hash: A2586A4F368BC27BEC4F708EDEE90A24 Accuracy: -m0
Conclusion: CDDA 100%
Signature: EB6138C29359F26CF935C69945645075938B5C8F
FILE: 02. Some Inspires Soul.flac
Size: 11648448 Hash: 38432F506AC893DF0C56C4B5AF098C72 Accuracy: -m0
Conclusion: CDDA 100%
Signature: 25D96A0EDC16385129B1C137B94D42E6D1C324A5
FILE: 01. Eec.flac
Size: 27260721 Hash: C5B6E9D68800ADC0E7CED093CC96E28F Accuracy: -m0
Conclusion: CDDA 99%
Signature: 77FE4DB9350AF8177B588AB113D4569007136D06

Год выпуска: 2009
Продолжительность: 00:31:26
Треклист:

01. Alp (06:10)
02. Wisdow Tooth (05:30)
03. Little Insect Bag (05:06)
04. Sooth (05:19)
05. Tuneldrop (04:38)
06. Gloqend (04:43)

-----------------------

DON'T MODIFY THIS FILE

-----------------------

PERFORMER: auCDtect Task Manager, ver. 1.6.0 RC1 build 1.6.0.1
Copyright (c) 2008-2010 y-soft. All rights reserved
http://y-soft.org

ANALYZER: auCDtect: CD records authenticity detector, version 0.8.2
Copyright (c) 2004 Oleg Berngardt. All rights reserved.
Copyright (c) 2004 Alexander Djourik. All rights reserved.

FILE: 06. Gloqend.flac
Size: 32777287 Hash: 6D50E275887F387CD29EC2302F9BE075 Accuracy: -m0
Conclusion: CDDA 100%
Signature: 8011F7DE3908AC36EEDB0422F7ED5A0B6328DE0B
FILE: 05. Tuneldrop.flac
Size: 29899792 Hash: 1D474BA297E9CB5C98C50727ECA76262 Accuracy: -m0
Conclusion: CDDA 100%
Signature: 7E60E10C21F72282847534CA3031A0AF6475AC9B
FILE: 04. Sooth.flac
Size: 33849948 Hash: B60E2BE9983463110C7089FE0814489A Accuracy: -m0
Conclusion: CDDA 100%
Signature: D93D95BF984D24B44D713DC2DCA2ECCC49C30691
FILE: 03. Little Insect Bag.flac
Size: 33289742 Hash: 09F4233EDAF43300201A064AA0A3270A Accuracy: -m0
Conclusion: CDDA 100%
Signature: 036FCB00B117458CA3CB765E2B6288DEE834C9F7
FILE: 02. Wisdow Tooth.flac
Size: 34428984 Hash: 16591AE2DAECF6F9FABF10789BBD1A6E Accuracy: -m0
Conclusion: CDDA 100%
Signature: 6AF84837E3C5C867A3A96D2F20874530F12CD9C2
FILE: 01. Alp.flac
Size: 35290190 Hash: 256229168262CD4604F29BCC7E7AC7EC Accuracy: -m0
Conclusion: CDDA 100%
Signature: 9F67249129F19AF7DC362F9852A76A74A33C0FC1

Год выпуска: 2009
Продолжительность: 00:22:36
Треклист:

01. Cola Jeff (06:39)
02. Tandoori Tentacle (03:51)
03. Swup (07:36)
04. Silk Office (04:30)

-----------------------

DON'T MODIFY THIS FILE

-----------------------

PERFORMER: auCDtect Task Manager, ver. 1.6.0 RC1 build 1.6.0.1
Copyright (c) 2008-2010 y-soft. All rights reserved
http://y-soft.org

ANALYZER: auCDtect: CD records authenticity detector, version 0.8.2
Copyright (c) 2004 Oleg Berngardt. All rights reserved.
Copyright (c) 2004 Alexander Djourik. All rights reserved.

FILE: 04. Silk Office.flac
Size: 25551636 Hash: 6D35C27E289D4C6A6FE1A9DE33EF3A26 Accuracy: -m0
Conclusion: CDDA 100%
Signature: DB0A909F5A791F910382B13413549F433200334E
FILE: 03. Swup.flac
Size: 40205300 Hash: 5CBBFB25596000AE0D9B4FC5B020888B Accuracy: -m0
Conclusion: CDDA 100%
Signature: D75A6AB025871D54C18981F6C96EAFE4DD5D797B
FILE: 02. Tandoori Tentacle.flac
Size: 21939331 Hash: 76DEB04BE1A8723959C8186769BA1075 Accuracy: -m0
Conclusion: CDDA 100%
Signature: EFA14C1B97FF834CD3BA2E1F75EE1A4ADB0587C6
FILE: 01. Cola Jeff.flac
Size: 38640114 Hash: 2468A1ADA058DCE5B8DD015D3AE99957 Accuracy: -m0
Conclusion: CDDA 100%
Signature: 4A9785C76EAA39D6032E07D8860BC3E000355000

Год выпуска: 2004
Продолжительность: 01:01:21
Треклист:

01. Station - Coco Myalore (03:44)
02. Frank Murder - Last Nerve (04:00)
03. Ylid - I Am Ready To Let Winter In (03:49)
04. Michael Idehall - Comp 4.2 (03:41)
05. Pushkin vs. Broca - Silo (03:46)
06. Bauri - Morgondagg (Remix) (06:10)
07. Maps and Diagrams - Fiord (05:38)
08. Darkhammer - A Girl And A Guitar (02:19)
09. Broca - Vakuum (05:02)
10. Tammetoru - Aastaringid (03:26)
11. Sense - Saturday Night (05:51)
12. Opea - Hand Stitched (05:20)
13. Hulk - We Ran (03:19)
14. Matthew Rozeik - Oh Lord, Please Give Me Another Brain (05:16)

-----------------------

DON'T MODIFY THIS FILE

-----------------------

PERFORMER: auCDtect Task Manager, ver. 1.6.0 RC1 build 1.6.0.1
Copyright (c) 2008-2010 y-soft. All rights reserved
http://y-soft.org

ANALYZER: auCDtect: CD records authenticity detector, version 0.8.2
Copyright (c) 2004 Oleg Berngardt. All rights reserved.
Copyright (c) 2004 Alexander Djourik. All rights reserved.

FILE: 14. Matthew Rozeik - Oh Lord, Please Give Me Another Brain.flac
Size: 30542226 Hash: 5439309FC62499D039A83F2291CCF078 Accuracy: -m0
Conclusion: MPEG 95%
Signature: B52CC53516C0EDF2504011DAC9AF993D0CCEC210
FILE: 13. Hulk - We Ran.flac
Size: 16600754 Hash: E037D8F6D198EA130E87F0199EE1BD20 Accuracy: -m0
Conclusion: MPEG 95%
Signature: 2AFF794EB8663FB3A67386219652A4DB29ECCF37
FILE: 12. Opea - Hand Stitched.flac
Size: 28888959 Hash: 854C439CE95D1415DEE01A17A80AC130 Accuracy: -m0
Conclusion: MPEG 95%
Signature: 1376171378D0DFEF35E55C5C53D72ED32C3CABEC
FILE: 11. Sense - Saturday Night.flac
Size: 35321098 Hash: 0FD88CE891DA0075E6AB92BA213A453A Accuracy: -m0
Conclusion: MPEG 95%
Signature: EC742D3FE443281A0E893F2B67A4D244B5A60124
FILE: 10. Tammetõru - Aastaringid.flac
Size: 15172186 Hash: 8B6B23B6FCB85A5E1B8D4475B29C0BB4 Accuracy: -m0
Conclusion: MPEG 95%
Signature: 726FEE41D3E8BB408C11515B42FAB0632505BD29
FILE: 09. Broca - Vakuum.flac
Size: 35468958 Hash: 84EB0D6DAF10EAEAC5736A14AC88D16E Accuracy: -m0
Conclusion: MPEG 95%
Signature: 2CB59CFD80F5EA070B51D4F8426AA1C3FEB08527
FILE: 08. Darkhammer - A Girl And A Guitar.flac
Size: 13432370 Hash: 3E8BFB9CC0393C5757391574858D6851 Accuracy: -m0
Conclusion: MPEG 95%
Signature: 004533EC5CA5C134FD6A575DD15A14A89017A53D
FILE: 07. Maps and Diagrams - Fiord.flac
Size: 30402029 Hash: 628E6C09AD462965A3C3CAEB267313B0 Accuracy: -m0
Conclusion: MPEG 95%
Signature: 033C9E31C8BB75CFF8204F04E25C9A03700B19CF
FILE: 06. Bauri - Morgondagg (Remix).flac
Size: 39684286 Hash: C929952EAD3A763F71B84C54497C22C7 Accuracy: -m0
Conclusion: MPEG 95%
Signature: 3CB7E4E87AFE4F81FC95616F1152BD430ECBFCD7
FILE: 05. Pushkin vs. Broca - Silo.flac
Size: 20478722 Hash: 4F3035A06B3F7201B575EAD0970FFD32 Accuracy: -m0
Conclusion: MPEG 95%
Signature: BD3C1DC6EB8A52C841D11AC0CF347B43F6B3EB2E
FILE: 04. Michael Idehall - Comp 4.2.flac
Size: 15565309 Hash: 10523BDB94F2808903BF48D95A11DDA0 Accuracy: -m0
Conclusion: MPEG 95%
Signature: 38613A2F23240DAEAB80F57B94BC81609F84A81F
FILE: 03. Ylid - I Am Ready To Let Winter In.flac
Size: 19536703 Hash: 9408FC9082C3E1121994199E8AB690EA Accuracy: -m0
Conclusion: MPEG 95%
Signature: 0EB4005A8EF7BB4099687C91ED5261DB30957060
FILE: 02. Frank Murder - Last Nerve.flac
Size: 24515289 Hash: C67E4B6A031E9776D2D849D5AA6F111A Accuracy: -m0
Conclusion: MPEG 95%
Signature: DA2E5BBEBD98B9A504276637558D365597C3B0CB
FILE: 01. Station - Coco Myalore.flac
Size: 23675955 Hash: 2C1B49EA26F77D082BADB12BB9CF4FB1 Accuracy: -m0
Conclusion: MPEG 95%
Signature: 983E7B46EA60BFCB10AB281D84EEF0D2FF09181D

Год выпуска: 2005
Продолжительность: 00:48:54
Треклист:

01. Bury & Disinter - Parting Way (04:35)
02. Bury & Disinter - Duffle (03:29)
03. Bury & Disinter - Moments After A Yawn (03:15)
04. Bury & Disinter - Yuki (03:56)
05. Somme - Collision With A Pigeon (B&D Mix) (05:01)
06. Somme - The Water Cycle (04:20)
07. Somme - Gluten Socket (02:12)
08. Somme - Collision With A Pigeon (04:06)
09. Somme - Marketint (04:49)
10. Somme - Puls Miuns (01:32)
11. Somme - Trailor Rape (04:24)
12. Somme - Hundred Waves (03:22)
13. Bury & Disinter - Duffle (Somme Dial-Up Mix) (03:53)

-----------------------

DON'T MODIFY THIS FILE

-----------------------

PERFORMER: auCDtect Task Manager, ver. 1.6.0 RC1 build 1.6.0.1
Copyright (c) 2008-2010 y-soft. All rights reserved
http://y-soft.org

ANALYZER: auCDtect: CD records authenticity detector, version 0.8.2
Copyright (c) 2004 Oleg Berngardt. All rights reserved.
Copyright (c) 2004 Alexander Djourik. All rights reserved.

FILE: 13. Bury & Disinter - Duffle (Somme Dial-Up Mix).flac
Size: 18179443 Hash: 9A9B2550ACEC22AFF93926234C3FE9BE Accuracy: -m0
Conclusion: CDDA 100%
Signature: D446B098141B2EC6CFC1E57D434C8B7BD94F8F1D
FILE: 12. Somme - Hundred Waves.flac
Size: 20487961 Hash: 72ACBE58F030A54F60448691BCAD16A8 Accuracy: -m0
Conclusion: MPEG 85%
Signature: 95A5716716F54B953D3E85F271A101E9F3F1C5FE
FILE: 11. Somme - Trailor Rape.flac
Size: 27241067 Hash: 1038FC4CE77F1FDD1799290B804AFEAA Accuracy: -m0
Conclusion: CDDA 100%
Signature: 85DCEC875B4FB09A9F3A3091901B98C60621304A
FILE: 10. Somme - Puls Miuns.flac
Size: 8057037 Hash: EAF9D5BAEA8D7994445DA59C435F58F9 Accuracy: -m0
Conclusion: MPEG 100%
Signature: A3B9CD2A7555904CCA98CB93CC6DBCE4CBF7A1D6
FILE: 09. Somme - Marketint.flac
Size: 32010985 Hash: FE10A355C490078C4822A7BD63E763DC Accuracy: -m0
Conclusion: MPEG 95%
Signature: 4C47DDF995F82129C08BDB33D808E4891926CA17
FILE: 08. Somme - Collision With A Pigeon.flac
Size: 21449043 Hash: A6518FAFDF412F6F13F3C2DFA9F82DFE Accuracy: -m0
Conclusion: MPEG 92%
Signature: 297016F8DE23D39544A14D3531666B90666570B2
FILE: 07. Somme - Gluten Socket.flac
Size: 12961740 Hash: AC6BA44C90F5A371415056F11B74A09B Accuracy: -m0
Conclusion: CDDA 100%
Signature: C88751D8D52506BD657BFD7AB0CC47D3948B893E
FILE: 06. Somme - The Water Cycle.flac
Size: 22462034 Hash: 3479D86D461EE9492D2BEC1F1536F10A Accuracy: -m0
Conclusion: MPEG 95%
Signature: DFFE729C6E3644F441856628DFC6647253AE2660
FILE: 05. Somme - Collision With A Pigeon (B&D Mix).flac
Size: 13829163 Hash: AA31FBE6C4FDCED0460D00A5FBE8C0BF Accuracy: -m0
Conclusion: CDDA 100%
Signature: A6682C1E51587AAEF89D4AFBC423C35C1F7EC276
FILE: 04. Bury & Disinter - Yuki.flac
Size: 12781129 Hash: 3D3FF7D1DA1B220A3E0A26C476AE1323 Accuracy: -m0
Conclusion: CDDA 87%
Signature: C2058CE6A8E263B7CF3C13615989CE7DB82C46D6
FILE: 03. Bury & Disinter - Moments After A Yawn.flac
Size: 9424202 Hash: D4C93CFFF06CB1D3D80540A8E2975D93 Accuracy: -m0
Conclusion: MPEG 100%
Signature: C63EE762BA741865585DFCAEFD0D06674A381BFA
FILE: 02. Bury & Disinter - Duffle.flac
Size: 16659098 Hash: E5CF57188D5580CF44A7659C96F9E5D4 Accuracy: -m0
Conclusion: CDDA 100%
Signature: 0A1B581CA0C391DD3D3F1F6D6BAFA0578CD16CCF
FILE: 01. Bury & Disinter - Parting Way.flac
Size: 11562154 Hash: 6FDFCF88CA501049DB8DF20B412FE64F Accuracy: -m0
Conclusion: CDDA 99%
Signature: F1C8F0F80A2413C41A49823169B41BAC0F3F2CA7

Год выпуска: 2010
Продолжительность: 00:22:05
Треклист:

01. Crystal Coins (04:51)
02. Invader (05:18)
03. Glucken (03:27)
04. Troy Nelson (03:34)
05. Space 2267 (04:55)

-----------------------

DON'T MODIFY THIS FILE

-----------------------

PERFORMER: auCDtect Task Manager, ver. 1.6.0 RC1 build 1.6.0.1
Copyright (c) 2008-2010 y-soft. All rights reserved
http://y-soft.org

ANALYZER: auCDtect: CD records authenticity detector, version 0.8.2
Copyright (c) 2004 Oleg Berngardt. All rights reserved.
Copyright (c) 2004 Alexander Djourik. All rights reserved.

FILE: 05. Space 2267.flac
Size: 30207745 Hash: 88A20954569C553DD0AB4BFE02164231 Accuracy: -m0
Conclusion: CDDA 100%
Signature: 2A2B5E5F7F8017DEA638CDC25AEBEBCAC3BD8B79
FILE: 04. Troy Nelson.flac
Size: 24189673 Hash: 5E6004CFD6A42B392125DEB7EC92204D Accuracy: -m0
Conclusion: CDDA 100%
Signature: CF7363D253810532C340828A69DFC7CC0B2126DE
FILE: 03. Glucken.flac
Size: 23077478 Hash: 4B81CD84DC69381E2F35F48EC4A13D2B Accuracy: -m0
Conclusion: CDDA 100%
Signature: 7EEA83C29A6C4D3631C32E7C83CDD863253E262D
FILE: 02. Invader.flac
Size: 37002964 Hash: D5C73209FFBC39EFD2728692C96ABBEB Accuracy: -m0
Conclusion: CDDA 99%
Signature: 89C88B9F03090F45AC14F8F3076960AB6560BE78
FILE: 01. Crystal Coins.flac
Size: 31608612 Hash: 1E94119383C6152F3EB87E64559BF6F1 Accuracy: -m0
Conclusion: CDDA 100%
Signature: 16A422EF1508ACB169A278CA5211AF1B22E28D58

Время раздачи: 12/7
[NNMClub.to]_Cactus Island Recordings FLAC.torrent
 Торрент: Золотая раздача  Зарегистрирован
 
Примагнититься
Free Leech
Зарегистрируйтесь и скачайте торрент!
60,4 KB
 Зарегистрирован:   08 Фев 2017 08:28:24
 Размер:   5,31 GB  (
 Рейтинг:    (Голосов: 8)
 Поблагодарили:   27
 Проверка:   Оформление проверено модератором 08 Фев 2017 08:28:41
Как cкачать  ·  Как раздать  ·  Правильно оформить  ·  Поднять ратио!  
Показать сообщения:   
Начать новую тему   Ответить на тему    Торрент-трекер NNM-Club -> Electronic -> IDM (Lossless) Часовой пояс: GMT + 3
Страница 1 из 1