Интеллигентный торрент-трекер
canvas not supported
Нас вместе: 4 263 804

Юрий Петухов | Вторжение из ада (2015) [M4B|AAC]


 
 
RSS
Начать новую тему   Ответить на тему    Торрент-трекер NNM-Club -> Аудио и Видео -> Аудиокниги (AAC)
Автор Сообщение
trybag ®

Online
Стаж: 3 года 11 мес.
Сообщений: 62
Ratio: 16,66
Поблагодарили: 1268
78.11%
Юрий Петухов | Вторжение из ада
Автор: Юрий Петухов
Год: 2015
Жанр: Фантастика
Продолжительность: 19:16:42
Читает: BIGBAG
Издательство: Аудиокнига своими руками

Описание: Понимая, что земные правители все это время готовили почву для захватчиков из Системы, Иван предпринимает попытку их свержения. Европа и Америка полыхают в огне. Жертвы чудовищны. Верный присяге альфакорпус и части земного космофлота переходят на сторону повстанцев и стягиваются к планете. Иван мобилизует всю оставшуюся мощь землян, ведь вторжение должно начаться со дня на день. И оно начинается, но совсем не оттуда, откуда его ждали...

Формат: M4B
Аудиокодек: AAC
Битрейт: 192 kbps
Частота: 48,0 KHz
Разбивка на главы: есть
Разбивка на части: есть
Вшитая обложка: есть
Музыкальное сопровождение: нет

1. Ангел Возмездия
2. Бунт вурдалаков
3. Погружение во Мрак
4. Вторжение из Ада
5. Меч Вседержителя

Код: выделить все
Общее
Полное имя                               : Вторжение из ада 1.m4b
Формат                                   : MPEG-4
Профиль формата                          : Apple audio with iTunes position
Идентификатор кодека                     : M4B  (M4B /mp42)
Размер файла                             : 530 Мбайт
Продолжительность                        : 6 ч. 22 м.
Режим общего битрейта                    : Переменный
Общий поток                              : 194 Кбит/сек
Альбом                                   : Звездная месть
Альбом/Исполнитель                       : Юрий Петухов
Часть/Положение                          : 4
Часть/Всего                              : 5
Трек                                     : Вторжение из ада 1
Трек/Положение                           : 1
Трек/Всего                               : 3
Исполнитель                              : Юрий Петухов
Композитор                               : BIGBAG
Издатель                                 : Аудиокнига своими руками
Жанр                                     : Фантастика
Дата записи                              : 2015
Дата кодирования                         : UTC 2017-02-08 19:00:20
Дата пометки                             : UTC 2017-02-09 07:22:45
Обложка                                  : Yes
©art                                     : Юрий Петухов

Аудио
Идентификатор                            : 1
Формат                                   : AAC
Формат/Информация                        : Advanced Audio Codec
Профиль формата                          : LC
Идентификатор кодека                     : 40
Продолжительность                        : 6 ч. 22 м.
Вид битрейта                             : Переменный
Битрейт                                  : 192 Кбит/сек
Максимальный битрейт                     : 196 Кбит/сек
Каналы                                   : 2 канала
Расположение каналов                     : Front: L R
Частота                                  : 48,0 КГц
Частота кадров                           : 46,875 кадров/сек (1024 spf)
Метод сжатия                             : С потерями
Размер потока                            : 526 Мбайт (99%)
Дата кодирования                         : UTC 2017-02-08 19:00:20
Дата пометки                             : UTC 2017-02-09 07:22:45
Menus                                    : 2

Меню
Идентификатор                            : 2
Идентификатор кодека                     : text
Продолжительность                        : 6 ч. 22 м.
Язык                                     : English
Дата кодирования                         : UTC 2017-02-09 07:19:41
Дата пометки                             : UTC 2017-02-09 07:19:41
Menu For                                 : 1
Duration_FirstFrame                      : -14518677
00:00:00.000                             : Пролог. ОТЧАЯНЬЕ
01:10:23.167                             : Часть первая. СКИТАЛЕЦ
Вид битрейта                             : VBR

Общее
Полное имя                               : Вторжение из ада 2.m4b
Формат                                   : MPEG-4
Профиль формата                          : Apple audio with iTunes position
Идентификатор кодека                     : M4B  (M4B /mp42)
Размер файла                             : 620 Мбайт
Продолжительность                        : 7 ч. 27 м.
Режим общего битрейта                    : Переменный
Общий поток                              : 194 Кбит/сек
Альбом                                   : Звездная месть
Альбом/Исполнитель                       : Юрий Петухов
Часть/Положение                          : 4
Часть/Всего                              : 5
Трек                                     : Вторжение из ада 2
Трек/Положение                           : 2
Трек/Всего                               : 3
Исполнитель                              : Юрий Петухов
Композитор                               : BIGBAG
Издатель                                 : Аудиокнига своими руками
Жанр                                     : Фантастика
Дата записи                              : 2015
Дата кодирования                         : UTC 2017-02-08 19:02:23
Дата пометки                             : UTC 2017-02-09 07:22:55
Обложка                                  : Yes
©art                                     : Юрий Петухов

Аудио
Идентификатор                            : 1
Формат                                   : AAC
Формат/Информация                        : Advanced Audio Codec
Профиль формата                          : LC
Идентификатор кодека                     : 40
Продолжительность                        : 7 ч. 27 м.
Вид битрейта                             : Переменный
Битрейт                                  : 192 Кбит/сек
Максимальный битрейт                     : 196 Кбит/сек
Каналы                                   : 2 канала
Расположение каналов                     : Front: L R
Частота                                  : 48,0 КГц
Частота кадров                           : 46,875 кадров/сек (1024 spf)
Метод сжатия                             : С потерями
Размер потока                            : 615 Мбайт (99%)
Дата кодирования                         : UTC 2017-02-08 19:02:23
Дата пометки                             : UTC 2017-02-09 07:22:55
Menus                                    : 2

Меню
Идентификатор                            : 2
Идентификатор кодека                     : text
Продолжительность                        : 7 ч. 27 м.
Язык                                     : English
Дата кодирования                         : UTC 2017-02-09 07:20:36
Дата пометки                             : UTC 2017-02-09 07:20:36
Menu For                                 : 1
00:00:00.000                             : Часть вторая. СВЕРЖЕНИЕ ИЗВЕРГОВ
Вид битрейта                             : VBR

Общее
Полное имя                               : Вторжение из ада 3.m4b
Формат                                   : MPEG-4
Профиль формата                          : Apple audio with iTunes position
Идентификатор кодека                     : M4B  (M4B /mp42)
Размер файла                             : 452 Мбайт
Продолжительность                        : 5 ч. 26 м.
Режим общего битрейта                    : Переменный
Общий поток                              : 194 Кбит/сек
Альбом                                   : Звездная месть
Альбом/Исполнитель                       : Юрий Петухов
Часть/Положение                          : 4
Часть/Всего                              : 5
Трек                                     : Вторжение из ада 3
Трек/Положение                           : 3
Трек/Всего                               : 3
Исполнитель                              : Юрий Петухов
Композитор                               : BIGBAG
Издатель                                 : Аудиокнига своими руками
Жанр                                     : Фантастика
Дата записи                              : 2015
Дата кодирования                         : UTC 2017-02-08 19:23:48
Дата пометки                             : UTC 2017-02-09 07:23:04
Обложка                                  : Yes
©art                                     : Юрий Петухов

Аудио
Идентификатор                            : 1
Формат                                   : AAC
Формат/Информация                        : Advanced Audio Codec
Профиль формата                          : LC
Идентификатор кодека                     : 40
Продолжительность                        : 5 ч. 26 м.
Вид битрейта                             : Переменный
Битрейт                                  : 192 Кбит/сек
Максимальный битрейт                     : 196 Кбит/сек
Каналы                                   : 2 канала
Расположение каналов                     : Front: L R
Частота                                  : 48,0 КГц
Частота кадров                           : 46,875 кадров/сек (1024 spf)
Метод сжатия                             : С потерями
Размер потока                            : 448 Мбайт (99%)
Дата кодирования                         : UTC 2017-02-08 19:23:48
Дата пометки                             : UTC 2017-02-09 07:23:04
Menus                                    : 2

Меню
Идентификатор                            : 2
Идентификатор кодека                     : text
Продолжительность                        : 5 ч. 26 м.
Язык                                     : English
Дата кодирования                         : UTC 2017-02-09 07:21:32
Дата пометки                             : UTC 2017-02-09 07:21:32
Menu For                                 : 1
Duration_FirstFrame                      : 14894848
00:00:00.000                             : Часть третья. ВОИН
04:47:13.322                             : Эпилог. УХОД
Вид битрейта                             : VBR

[NNMClub.to]_Vtorzhenie iz ada.torrent
 Торрент:   Зарегистрирован
 
Примагнититься
Free Leech
Зарегистрируйтесь и скачайте торрент!
16 KB
 Зарегистрирован:   09 Фев 2017 21:40:53
 Размер:   1,56 GB  (
 Рейтинг:    (Голосов: 9)
 Поблагодарили:   32
 Проверка:   Оформление проверено модератором 10 Фев 2017 12:31:47
Как cкачать  ·  Как раздать  ·  Правильно оформить  ·  Поднять ратио!  
Shalrath
Стаж: 2 года
Сообщений: 1
Ratio: 8,11
0%
Качать обязательно. Админы! Где первая часть комента?!!!


Последний раз редактировалось: Shalrath (10 Фев 2017 20:42:34), всего редактировалось 2 раз(а)
DAO5

Online
Стаж: 1 год
Сообщений: 315
Ratio: 12,737
Поблагодарили: 323
97.29%
Спасибо за прекрасную аудио-книгу!
trybag ®

Online
Стаж: 3 года 11 мес.
Сообщений: 62
Ratio: 16,66
Поблагодарили: 1268
78.11%
Shalrath писал(а): Перейти к сообщению
Качать обязательно. Админы! Где первая часть комента?!!!

Удивлен не меньше вашего. Отрицательные комментарии тоже комментарии. Это вопрос не ко мне, я редактировать комментарии не могу. А человек высказался, со временем и он начнет читать между строк, и думаю изменится.
trybag ®

Online
Стаж: 3 года 11 мес.
Сообщений: 62
Ratio: 16,66
Поблагодарили: 1268
78.11%
Для Вас, для тех кто ИЩЕТ
Секретов никаких нет, книгу читал в журнальном варианте, потом выписал сборник произведений Ю.Петухова, но с развалом государства получил не весь комплект. На данный момент интернет расширился и произведения Ю.Петухова стали доступны. Повторюсь, что в своё время просил Геннадия Коршунова озвучить роман "Звёздная месть" но увы. Потом появилась озвучка от BIGBAG, стал слушать но что-то не по мне. Поэтому потратил несколько ночей изменил скорость и тон (не в обиду к BIGBAG) из моно сделал псевдостерео, что более приятнее слушать в наушниках, из старых журналов нашёл иллюстрации сфотожопил это все хозяйство, теперь слушаю и наслаждаюсь. Выложил на любимом NoNaMe ClUb , можно сказать Эксклюзив, в формате M4B я не нашел (может плохо искал), если кому-то не нравится проходите мимо, или пишите модератору пускай удалит мои релизы. Не забывайте,что Издательство: Аудиокнига своими руками, и думаю вы не смотрели спектрограмму оригинала озвучки в mp3 (это я наверно отвлекся ). Всем спасибо.
Показать сообщения:   
Начать новую тему   Ответить на тему    Торрент-трекер NNM-Club -> Аудио и Видео -> Аудиокниги (AAC) Часовой пояс: GMT + 3
Страница 1 из 1