Интеллигентный торрент-трекер
canvas not supported
Нас вместе: 4 307 923

Юрий Петухов | Меч вседержителя (2015) [M4B|AAC]


 
 
RSS
Начать новую тему   Ответить на тему    Торрент-трекер NNM-Club -> Аудио и Видео -> Аудиокниги (AAC)
Автор Сообщение
trybag ®
Стаж: 4 года
Сообщений: 71
Ratio: 16,889
Поблагодарили: 1538
100%
Юрий Петухов | Меч вседержителя
Автор: Юрий Петухов
Год: 2015
Жанр: Фантастика
Продолжительность: 17:41:30
Читает: BIGBAG
Издательство: Аудиокнига своими руками

Описание: Земля и все планеты Земной Федерации порабощены порождениями Тьмы из Пристанища, десятки миллиардов людей уничтожены, миллионы используются под землей в качестве рабов и биомассы для выращивания сверхсуществ. Земля окружена инфернополями, в которых люди обречены на вечные страдания без возможности умереть. Земной флот разгромлен вторгшимися из Системы армадами. Цивилизация погибла. Остались лишь горстка бывших космодесантников и каторжников, которые, теперь уже без Ивана, продолжают безнадежную борьбу с захватчиками. Но может быть, не все еще потеряно, ведь настоящие герои не умирают..?
Заключительная книга романа-эпопеи Юрия Петухова «Звездная месть».

Формат: M4B
Аудиокодек: AAC
Битрейт: 192 kbps
Частота: 48,0 KHz
Разбивка на главы: есть
Разбивка на части: есть
Вшитая обложка: есть
Музыкальное сопровождение: нет

1. Ангел Возмездия
2. Бунт вурдалаков
3. Погружение во Мрак
4. Вторжение из Ада
5. Меч Вседержителя Общее

Код: выделить все
Полное имя                               : Меч Вседержителя 1.m4b
Формат                                   : MPEG-4
Профиль формата                          : Apple audio with iTunes position
Идентификатор кодека                     : M4B  (M4B /mp42)
Размер файла                             : 820 Мбайт
Продолжительность                        : 9 ч. 52 м.
Режим общего битрейта                    : Переменный
Общий поток                              : 194 Кбит/сек
Альбом                                   : Звёздная месть
Альбом/Исполнитель                       : Юрий Петухов
Часть/Положение                          : 5
Часть/Всего                              : 5
Трек                                     : Меч Вседержителя 1
Трек/Положение                           : 1
Трек/Всего                               : 2
Исполнитель                              : Юрий Петухов
Композитор                               : BIGBAG
Издатель                                 : Аудиокнига своими руками
Жанр                                     : Фантастика
Дата записи                              : 2015
Дата кодирования                         : UTC 2017-02-10 15:00:00
Дата пометки                             : UTC 2017-02-10 18:42:08
Обложка                                  : Yes
©art                                     : Юрий Петухов

Аудио
Идентификатор                            : 1
Формат                                   : AAC
Формат/Информация                        : Advanced Audio Codec
Профиль формата                          : LC
Идентификатор кодека                     : 40
Продолжительность                        : 9 ч. 52 м.
Вид битрейта                             : Переменный
Битрейт                                  : 192 Кбит/сек
Максимальный битрейт                     : 196 Кбит/сек
Каналы                                   : 2 канала
Расположение каналов                     : Front: L R
Частота                                  : 48,0 КГц
Частота кадров                           : 46,875 кадров/сек (1024 spf)
Метод сжатия                             : С потерями
Размер потока                            : 813 Мбайт (99%)
Дата кодирования                         : UTC 2017-02-10 15:00:00
Дата пометки                             : UTC 2017-02-10 18:42:08
Menus                                    : 2

Меню
Идентификатор                            : 2
Идентификатор кодека                     : text
Продолжительность                        : 9 ч. 52 м.
Язык                                     : English
Дата кодирования                         : UTC 2017-02-10 18:40:10
Дата пометки                             : UTC 2017-02-10 18:40:10
Menu For                                 : 1
Duration_FirstFrame                      : -4289344
Duration_LastFrame                       : 7808854
00:00:00.000                             : Пролог. ОПУСТОШЕНИЕ
01:46:18.432                             : Часть первая. ВОСКРЕШЕНИЕ ИЗ МЕРТВЫХ
04:44:06.207                             : Часть вторая. ОЧИЩЕНИЕ
Вид битрейта                             : VBR

Общее
Полное имя                               : Меч Вседержителя 2.m4b
Формат                                   : MPEG-4
Профиль формата                          : Apple audio with iTunes position
Идентификатор кодека                     : M4B  (M4B /mp42)
Размер файла                             : 650 Мбайт
Продолжительность                        : 7 ч. 49 м.
Режим общего битрейта                    : Переменный
Общий поток                              : 194 Кбит/сек
Альбом                                   : Звёздная месть
Альбом/Исполнитель                       : Юрий Петухов
Часть/Положение                          : 5
Часть/Всего                              : 5
Трек                                     : Меч Вседержителя 2
Трек/Положение                           : 2
Трек/Всего                               : 2
Исполнитель                              : Юрий Петухов
Композитор                               : BIGBAG
Издатель                                 : Аудиокнига своими руками
Жанр                                     : Фантастика
Дата записи                              : 2015
Дата кодирования                         : UTC 2017-02-10 15:17:06
Дата пометки                             : UTC 2017-02-10 18:42:14
Обложка                                  : Yes
©art                                     : Юрий Петухов

Аудио
Идентификатор                            : 1
Формат                                   : AAC
Формат/Информация                        : Advanced Audio Codec
Профиль формата                          : LC
Идентификатор кодека                     : 40
Продолжительность                        : 7 ч. 49 м.
Вид битрейта                             : Переменный
Битрейт                                  : 192 Кбит/сек
Максимальный битрейт                     : 196 Кбит/сек
Каналы                                   : 2 канала
Расположение каналов                     : Front: L R
Частота                                  : 48,0 КГц
Частота кадров                           : 46,875 кадров/сек (1024 spf)
Метод сжатия                             : С потерями
Размер потока                            : 645 Мбайт (99%)
Дата кодирования                         : UTC 2017-02-10 15:17:06
Дата пометки                             : UTC 2017-02-10 18:42:14
Menus                                    : 2

Меню
Идентификатор                            : 2
Идентификатор кодека                     : text
Продолжительность                        : 7 ч. 49 м.
Язык                                     : English
Дата кодирования                         : UTC 2017-02-10 18:41:27
Дата пометки                             : UTC 2017-02-10 18:41:27
Menu For                                 : 1
Duration_FirstFrame                      : -1905344
Duration_LastFrame                       : -12100629
00:00:00.000                             : Часть третья. СТАРЫЙ МИР
03:22:32.618                             : Часть четвертая. ПРЕОДОЛЕНИЕ ЧЕРТЫ
07:16:50.581                             : Эпилог. НА КРУГИ СВОЯ
Вид битрейта                             : VBR
[NNMClub.to]_Mech Vsederzhitelya.torrent
 Торрент:   Зарегистрирован
 
Примагнититься
Free Leech
Зарегистрируйтесь и скачайте торрент!
14,7 KB
 Зарегистрирован:   10 Фев 2017 23:44:58
 Размер:   1,44 GB  (
 Рейтинг:   3,7 (Голосов: 10)
 Поблагодарили:   41
 Проверка:   Оформление проверено модератором 11 Фев 2017 01:49:38
Как cкачать  ·  Как раздать  ·  Правильно оформить  ·  Поднять ратио!  
cc81cc
Стаж: 6 мес. 1 день
Сообщений: 1
Ratio: 72,647
0%
Еще бы дождаться "Приземленный Ад. или Вам привет от Сатаны"
Dazdr​anago​n​
Стаж: 6 лет 6 мес.
Сообщений: 15
Ratio: 1,423
88.66%
cc81cc писал(а): Перейти к сообщению
Еще бы дождаться "Приземленный Ад. или Вам привет от Сатаны"


Не то?
Б. Липов, С. Ящук | Приземленный Ад, или Вам привет от Сатаны (2017) [MP3]
Astor08
Стаж: 6 лет 5 мес.
Сообщений: 1
Ratio: 14,015
0%
russia.gif
Любимый автор. Всего перечитал. И ребята из его издательской конторы - супер !!!
DAO5
Стаж: 1 год 1 мес.
Сообщений: 342
Ratio: 13,926
Поблагодарили: 330
98.38%
Спасибо за труды, коллега!
trybag ®
Стаж: 4 года
Сообщений: 71
Ratio: 16,889
Поблагодарили: 1538
100%
Для Вас, для тех кто ИЩЕТ
Секретов никаких нет, книгу читал в журнальном варианте, потом выписал сборник произведений Ю.Петухова, но с развалом государства получил не весь комплект. На данный момент интернет расширился и произведения Ю.Петухова стали доступны. Повторюсь, что в своё время просил Геннадия Коршунова озвучить роман "Звёздная месть" но увы. Потом появилась озвучка от BIGBAG, стал слушать но что-то не по мне. Поэтому потратил несколько ночей изменил скорость и тон (не в обиду к BIGBAG) из моно сделал псевдостерео, что более приятнее слушать в наушниках, из старых журналов нашёл иллюстрации сфотожопил это все хозяйство, теперь слушаю и наслаждаюсь. Выложил на любимом NoNaMe ClUb , можно сказать Эксклюзив, в формате M4B я не нашел (может плохо искал), если кому-то не нравится проходите мимо, или пишите модератору пускай удалит мои релизы. Не забывайте,что Издательство: Аудиокнига своими руками, и думаю вы не смотрели спектрограмму оригинала озвучки в mp3 (это я наверно отвлекся ). Всем спасибо.
Показать сообщения:   
Начать новую тему   Ответить на тему    Торрент-трекер NNM-Club -> Аудио и Видео -> Аудиокниги (AAC) Часовой пояс: GMT + 3
Страница 1 из 1