Интеллигентный торрент-трекер
canvas not supported
Нас вместе: 4 339 783

Б. Липов, С. Ящук | Приземленный Ад, или Вам привет от Сатаны (2017) [M4B|AAC]


 
 
RSS
Начать новую тему   Ответить на тему    Торрент-трекер NNM-Club -> Аудио и Видео -> Аудиокниги (AAC)
Автор Сообщение
trybag ®
Стаж: 4 года 1 мес.
Сообщений: 76
Ratio: 18,082
Поблагодарили: 1682
100%
Б. Липов, С. Ящук | Приземленный Ад, или Вам привет от Сатаны
Автор: Б. Липов, С. Ящук
Год: 2017
Жанр: Фантастика
Продолжительность: 14:57:01
Читает: Сергей Ларионов (babay7)
Издательство: "Abcool" free book

Описание: Писатель фантаст инспектирующий круги Ада по просьбе самого Сатаны. Вскрываются интересные вещи происходящие с грешниками и самим обслуживающим персоналом. Черти, грешники, инопланетяне - все есть в фантасмогорическом мире. Все подправлено юмором, аналогиями земной жизни и иронией.

Формат: M4B
Аудиокодек: AAC
Битрейт: 128 kbps
Частота: 44,1 KHz
Разбивка на главы: есть
Разбивка на части: есть
Вшитая обложка: есть
Музыкальное сопровождение: нет

Обложка сделана из иллюстраций журнала Метагалактика 1995 № 3, где напечатано это произведение.

Код: выделить все
Общее
Полное имя                               : Приземленный Ад, или Вам привет от Сатаны 1.m4b
Формат                                   : MPEG-4
Профиль формата                          : Apple audio with iTunes position
Идентификатор кодека                     : M4B  (M4B /mp42)
Размер файла                             : 399 Мбайт
Продолжительность                        : 7 ч. 10 м.
Режим общего битрейта                    : Переменный
Общий поток                              : 130 Кбит/сек
Альбом                                   : Приземленный Ад, или Вам привет от Сатаны
Альбом/Исполнитель                       : Б. Липов, С. Ящук
Трек                                     : Приземленный Ад, или Вам привет от Сатаны 1
Трек/Положение                           : 1
Трек/Всего                               : 2
Исполнитель                              : Б. Липов, С. Ящук
Композитор                               : Сергей Ларионов
Издатель                                 : "Abcool" free book
Жанр                                     : Фантастика
Дата записи                              : 2017
Дата кодирования                         : UTC 2017-02-14 11:10:25
Дата пометки                             : UTC 2017-02-14 15:59:48
Обложка                                  : Yes
©art                                     : Б. Липов, С. Ящук

Аудио
Идентификатор                            : 1
Формат                                   : AAC
Формат/Информация                        : Advanced Audio Codec
Профиль формата                          : LC
Идентификатор кодека                     : 40
Продолжительность                        : 7 ч. 10 м.
Вид битрейта                             : Переменный
Битрейт                                  : 128 Кбит/сек
Максимальный битрейт                     : 138 Кбит/сек
Каналы                                   : 2 канала
Расположение каналов                     : Front: L R
Частота                                  : 44,1 КГц
Частота кадров                           : 43,066 кадра/сек (1024 spf)
Метод сжатия                             : С потерями
Размер потока                            : 394 Мбайт (99%)
Дата кодирования                         : UTC 2017-02-14 11:10:25
Дата пометки                             : UTC 2017-02-14 15:59:48
Menus                                    : 2

Меню
Идентификатор                            : 2
Идентификатор кодека                     : text
Продолжительность                        : 7 ч. 10 м.
Язык                                     : English
Дата кодирования                         : UTC 2017-02-14 15:58:06
Дата пометки                             : UTC 2017-02-14 15:58:06
Menu For                                 : 1
00:00:00.000                             : 1
00:14:27.125                             : 2
00:24:57.269                             : 3
00:36:09.905                             : 4
00:51:35.429                             : 5
01:06:31.045                             : 6
01:29:44.893                             : 7
02:01:36.545                             : 8
02:13:35.412                             : 9
02:33:21.534                             : 10
03:10:48.645                             : 11
03:33:27.291                             : 12
03:50:29.921                             : 13
04:14:49.318                             : 14
04:33:48.164                             : 15
04:56:33.312                             : 16
05:26:04.971                             : 17
05:35:21.437                             : 18
06:01:08.582                             : 19
06:21:17.715                             : 20
06:44:05.301                             : 21
Вид битрейта                             : VBR

Общее
Полное имя                               : Приземленный Ад, или Вам привет от Сатаны 2.m4b
Формат                                   : MPEG-4
Профиль формата                          : Apple audio with iTunes position
Идентификатор кодека                     : M4B  (M4B /mp42)
Размер файла                             : 432 Мбайт
Продолжительность                        : 7 ч. 46 м.
Режим общего битрейта                    : Переменный
Общий поток                              : 130 Кбит/сек
Альбом                                   : Приземленный Ад, или Вам привет от Сатаны
Альбом/Исполнитель                       : Б. Липов, С. Ящук
Трек                                     : Приземленный Ад, или Вам привет от Сатаны 2
Трек/Положение                           : 2
Трек/Всего                               : 2
Исполнитель                              : Б. Липов, С. Ящук
Композитор                               : Сергей Ларионов
Издатель                                 : "Abcool" free book
Жанр                                     : Фантастика
Дата записи                              : 2017
Дата кодирования                         : UTC 2017-02-14 11:22:51
Дата пометки                             : UTC 2017-02-14 15:59:58
Обложка                                  : Yes
©art                                     : Б. Липов, С. Ящук

Аудио
Идентификатор                            : 1
Формат                                   : AAC
Формат/Информация                        : Advanced Audio Codec
Профиль формата                          : LC
Идентификатор кодека                     : 40
Продолжительность                        : 7 ч. 46 м.
Вид битрейта                             : Переменный
Битрейт                                  : 128 Кбит/сек
Максимальный битрейт                     : 137 Кбит/сек
Каналы                                   : 2 канала
Расположение каналов                     : Front: L R
Частота                                  : 44,1 КГц
Частота кадров                           : 43,066 кадра/сек (1024 spf)
Метод сжатия                             : С потерями
Размер потока                            : 427 Мбайт (99%)
Дата кодирования                         : UTC 2017-02-14 11:22:51
Дата пометки                             : UTC 2017-02-14 15:59:58
Menus                                    : 2

Меню
Идентификатор                            : 2
Идентификатор кодека                     : text
Продолжительность                        : 7 ч. 46 м.
Язык                                     : English
Дата кодирования                         : UTC 2017-02-14 15:59:06
Дата пометки                             : UTC 2017-02-14 15:59:06
Menu For                                 : 1
00:00:00.000                             : 22
00:22:17.840                             : 23
00:49:29.646                             : 24
01:10:38.105                             : 25
01:39:35.260                             : 26
02:02:15.392                             : 27
02:29:38.599                             : 28
02:56:35.543                             : 29
03:26:13.031                             : 30
03:45:02.589                             : 31
04:11:30.555                             : 32
04:38:56.664                             : 33
05:14:21.777                             : 34
05:42:56.130                             : 35
06:21:16.995                             : 36
06:48:03.073                             : 37
07:10:36.657                             : 38
Вид битрейта                             : CBR

[NNMClub.to]_Prizemlennyiy Ad, ili Vam privet ot Satanyi.torrent
 Торрент: Платиновая раздача  Зарегистрирован
 
Примагнититься

Скачать
 Зарегистрирован:   15 Фев 2017 23:01:19
 Размер:   831 MB  (
 Рейтинг:    (Голосов: 7)
 Поблагодарили:   33
 Проверка:   Оформление проверено модератором 16 Фев 2017 12:29:23
Как cкачать  ·  Как раздать  ·  Правильно оформить  ·  Поднять ратио!  
Загрузка...
Trixxxy
Стаж: 3 года 3 мес.
Сообщений: 1033
Ratio: 8,426
100%
paraguay.gif
Удивительно малограмотное описание. Даже ошибки считать не хочется. Да и книгу уже характеризует вполне.

_________________
Никогда
trybag ®
Стаж: 4 года 1 мес.
Сообщений: 76
Ratio: 18,082
Поблагодарили: 1682
100%
Trixxxy писал(а): Перейти к сообщению
Удивительно малограмотное описание. Даже ошибки считать не хочется. Да и книгу уже характеризует вполне.

Всего-то одна ошибка, не надо на этом зацикливаться, книга ведь прикольная. :клево:
Показать сообщения:   
Начать новую тему   Ответить на тему    Торрент-трекер NNM-Club -> Аудио и Видео -> Аудиокниги (AAC) Часовой пояс: GMT + 3
Страница 1 из 1

День смеха и юмора отмечается 1 апреля. В этот день принято шутить и разыгрывать друзей, коллег по работе, домашних, словом всех, с кем Вам предстоит увидеться в этот праздник – первое апреля. Первоапрельские розыгрыши, приколы на 1 апреля, первоапрельские шутки должны быть веселыми и безобидными. Приколы на 1 апреля, как правило, удаются в том случае, если человек забыл какой сегодня месяц и день, словом, забыл про 1 апреля – день смеха, шуток, день дурака.

Желаем Вам много улыбок и хорошего настроения в этот день!
С Уважением, администрация NNM-Club :)