Интеллигентный торрент-трекер
canvas not supported
Нас вместе: 4 253 571

Autoclav1.1 (Autoclav 1.1) - Discography 12 Releases (2005-2016) [FLAC|Lossless|tracks+.cue, tracks] <IDM, Industrial, Breakcore, Ambient>


 
 
RSS
Начать новую тему   Ответить на тему    Торрент-трекер NNM-Club -> Electronic -> IDM (Lossless)
Автор Сообщение
vilator ®
Модератор Музыки
RG Музыки
 
Стаж: 7 лет 10 мес.
Сообщений: 5587
Ratio: 117,763
Поблагодарили: 108981
100%
Откуда: Minsk
pirates.png


Autoclav1.1 - музыкальный проект Тони Янга (Tony Young), человека, который известен своей работой (Sentry Music) в продвижении IDM/Noise/Industrial сцены, позднее нашедший свою собственную нишу среди тех, кому он так долго помогал. Смешивая элементы IDM, brokenbeat, рока, эмбиента, индастриала и альтернативной эклектроники, Autoclav1.1 как проект следует цели передавать одинаковые эмоции как на сцене живьем, так и на своих альбомах.
Жанр: IDM, Industrial, Breakcore, Experimental, Modern Classical, Ambient • Страна: UK • Год издания: 2005-2016 • Тип издания: CD, Web
Аудиокодек: FLAC (*.flac) • Тип рипа: tracks+.cue, tracks • Продолжительность: 09:17:38 • Источник: What, PTH, bandcamp • Наличие сканов: Да
Треклист:
Год выпуска: 2005
Продолжительность: 01:10:09
Треклист:

01. Headspatial (03:44)
02. This Is The Hollow Point (04:57)
03. White Cover (03:51)
04. Letter From Miki City (04:22)
05. Meet Me Halfway (04:03)
06. Tell Me When To Care (04:11)
07. Tomorrow It Rains (05:28)
08. The Same Hole As Yesterday (04:45)
09. August Sunday Afternoon (04:37)
10. When To Care (vs JEYE) (05:14)
11. White Cover (Pneumautoclavic Poison Mix By Pneumatic Detach) (05:06)
12. Meet Me Halfway (How Fast Can You Mix By Slacknote) (04:19)
13. White Cover (Heaven Likes It Dirty Mix By Iszoloscope) (05:20)
14. Tell Me When To Care (For What Its Worth Mix BY Eva/3) (05:56)
15. Meet Me Halfway (Meet Me Halfway To Hell Mix By Noise/Girl) (04:16)

Exact Audio Copy V0.99 prebeta 5 from 4. May 2009

EAC extraction logfile from 29. November 2009, 16:20

Autoclav1.1 / You Are My All and More

Used drive : TSSTcorpCDDVDW SH-S223F Adapter: 1 ID: 1

Read mode : Secure
Utilize accurate stream : Yes
Defeat audio cache : Yes
Make use of C2 pointers : No

Read offset correction : 6
Overread into Lead-In and Lead-Out : No
Fill up missing offset samples with silence : Yes
Delete leading and trailing silent blocks : No
Null samples used in CRC calculations : Yes
Used interface : Native Win32 interface for Win NT & 2000
Gap handling : Appended to previous track

Used output format : User Defined Encoder
Selected bitrate : 128 kBit/s
Quality : High
Add ID3 tag : No
Command line compressor : C:\Program Files (x86)\Exact Audio Copy\Flac\flac.exe
Additional command line options : -V -8 -T "artist=%a" -T "title=%t" -T "album=%g" -T "date=%y" -T "tracknumber=%n" -T "genre=%m" %s

TOC of the extracted CD

Track | Start | Length | Start sector | End sector
---------------------------------------------------------
1 | 0:00.00 | 3:44.33 | 0 | 16832
2 | 3:44.33 | 4:57.22 | 16833 | 39129
3 | 8:41.55 | 3:50.46 | 39130 | 56425
4 | 12:32.26 | 4:22.19 | 56426 | 76094
5 | 16:54.45 | 4:03.17 | 76095 | 94336
6 | 20:57.62 | 4:11.18 | 94337 | 113179
7 | 25:09.05 | 5:28.03 | 113180 | 137782
8 | 30:37.08 | 4:45.18 | 137783 | 159175
9 | 35:22.26 | 4:36.49 | 159176 | 179924
10 | 39:59.00 | 5:13.65 | 179925 | 203464
11 | 45:12.65 | 5:05.63 | 203465 | 226402
12 | 50:18.53 | 4:19.33 | 226403 | 245860
13 | 54:38.11 | 5:20.31 | 245861 | 269891
14 | 59:58.42 | 5:55.40 | 269892 | 296556
15 | 65:54.07 | 4:15.45 | 296557 | 315726

Track 1

Filename Z:\music\a\Autoclav1.1\2005 You Are My All and More [flac]\Autoclav1.1 - 01 - Headspatial.wav

Pre-gap length 0:00:02.00

Peak level 96.6 %
Track quality 99.9 %
Test CRC A8C622E2
Copy CRC A8C622E2
Accurately ripped (confidence 1) [3A5E8B59]
Copy OK

Track 2

Filename Z:\music\a\Autoclav1.1\2005 You Are My All and More [flac]\Autoclav1.1 - 02 - This is the Hollow Point.wav

Peak level 91.2 %
Track quality 100.0 %
Test CRC D2E3E07D
Copy CRC D2E3E07D
Accurately ripped (confidence 1) [56E74F90]
Copy OK

Track 3

Filename Z:\music\a\Autoclav1.1\2005 You Are My All and More [flac]\Autoclav1.1 - 03 - White Cover.wav

Peak level 96.6 %
Track quality 100.0 %
Test CRC B769E537
Copy CRC B769E537
Accurately ripped (confidence 1) [68C38372]
Copy OK

Track 4

Filename Z:\music\a\Autoclav1.1\2005 You Are My All and More [flac]\Autoclav1.1 - 04 - Letter from Miki City.wav

Peak level 89.0 %
Track quality 100.0 %
Test CRC 39D3B35E
Copy CRC 39D3B35E
Accurately ripped (confidence 1) [FE207458]
Copy OK

Track 5

Filename Z:\music\a\Autoclav1.1\2005 You Are My All and More [flac]\Autoclav1.1 - 05 - Meet Me Halfway.wav

Peak level 97.3 %
Track quality 100.0 %
Test CRC 2AC395E9
Copy CRC 2AC395E9
Accurately ripped (confidence 1) [325D6565]
Copy OK

Track 6

Filename Z:\music\a\Autoclav1.1\2005 You Are My All and More [flac]\Autoclav1.1 - 06 - Tell Me When to Care.wav

Peak level 80.5 %
Track quality 100.0 %
Test CRC F027E80D
Copy CRC F027E80D
Accurately ripped (confidence 1) [EB9EF606]
Copy OK

Track 7

Filename Z:\music\a\Autoclav1.1\2005 You Are My All and More [flac]\Autoclav1.1 - 07 - Tomorrow It Rains.wav

Peak level 96.6 %
Track quality 100.0 %
Test CRC 6A969839
Copy CRC 6A969839
Accurately ripped (confidence 1) [3AAEC258]
Copy OK

Track 8

Filename Z:\music\a\Autoclav1.1\2005 You Are My All and More [flac]\Autoclav1.1 - 08 - The Same Hole as Yesterday (additional ambience by DJ Squeakypete).wav

Peak level 99.8 %
Track quality 99.9 %
Test CRC EBCF7692
Copy CRC EBCF7692
Accurately ripped (confidence 1) [C01B17B1]
Copy OK

Track 9

Filename Z:\music\a\Autoclav1.1\2005 You Are My All and More [flac]\Autoclav1.1 - 09 - August Sunday Afternoon.wav

Peak level 96.6 %
Track quality 100.0 %
Test CRC ED536A2A
Copy CRC ED536A2A
Accurately ripped (confidence 1) [7CC01A17]
Copy OK

Track 10

Filename Z:\music\a\Autoclav1.1\2005 You Are My All and More [flac]\Autoclav1.1 - 10 - When to Care (vs JEYE).wav

Peak level 91.6 %
Track quality 100.0 %
Test CRC B0FCBB5D
Copy CRC B0FCBB5D
Accurately ripped (confidence 1) [07735456]
Copy OK

Track 11

Filename Z:\music\a\Autoclav1.1\2005 You Are My All and More [flac]\Autoclav1.1 - 11 - White Cover (Pneumautoclavic Poison mix by Pneumatic Detach).wav

Peak level 96.6 %
Track quality 99.9 %
Test CRC 2A13DB70
Copy CRC 2A13DB70
Accurately ripped (confidence 1) [B3BB6547]
Copy OK

Track 12

Filename Z:\music\a\Autoclav1.1\2005 You Are My All and More [flac]\Autoclav1.1 - 12 - Meet Me Halfway (How Fast Can You Mix by Slacknote).wav

Peak level 99.9 %
Track quality 100.0 %
Test CRC 6A8BE335
Copy CRC 6A8BE335
Accurately ripped (confidence 1) [2E3A86B2]
Copy OK

Track 13

Filename Z:\music\a\Autoclav1.1\2005 You Are My All and More [flac]\Autoclav1.1 - 13 - White Cover (Heaven Likes It Dirty mix by Iszoloscope).wav

Peak level 93.3 %
Track quality 100.0 %
Test CRC 2F45F014
Copy CRC 2F45F014
Accurately ripped (confidence 1) [BFB7B303]
Copy OK

Track 14

Filename Z:\music\a\Autoclav1.1\2005 You Are My All and More [flac]\Autoclav1.1 - 14 - Tell Me When to Care (For What Its Worth mix by Eva,3).wav

Peak level 96.7 %
Track quality 100.0 %
Test CRC 4C88A289
Copy CRC 4C88A289
Accurately ripped (confidence 1) [8FD3F279]
Copy OK

Track 15

Filename Z:\music\a\Autoclav1.1\2005 You Are My All and More [flac]\Autoclav1.1 - 15 - Meet Me Halfway (Meet Me Halfway to Hell mix by Noise,Girl).wav

Peak level 46.5 %
Track quality 100.0 %
Test CRC 6EBE84F4
Copy CRC 6EBE84F4
Accurately ripped (confidence 1) [9C22C4E5]
Copy OK

All tracks accurately ripped

No errors occurred

End of status report


REM GENRE IDM
REM DATE 2005
REM DISCID AC10710F
REM COMMENT "ExactAudioCopy v0.99pb5"
FILE "01 - Headspatial.wav" WAVE
TRACK 01 AUDIO
INDEX 01 00:00:00
FILE "02 - This is the Hollow Point.wav" WAVE
TRACK 02 AUDIO
INDEX 01 00:00:00
FILE "03 - White Cover.wav" WAVE
TRACK 03 AUDIO
INDEX 01 00:00:00
FILE "04 - Letter from Miki City.wav" WAVE
TRACK 04 AUDIO
INDEX 01 00:00:00
FILE "05 - Meet Me Halfway.wav" WAVE
TRACK 05 AUDIO
INDEX 01 00:00:00
FILE "06 - Tell Me When to Care.wav" WAVE
TRACK 06 AUDIO
INDEX 01 00:00:00
FILE "07 - Tomorrow It Rains.wav" WAVE
TRACK 07 AUDIO
INDEX 01 00:00:00
FILE "08 - The Same Hole as Yesterday (additional ambience by DJ Squeakypete).wav" WAVE
TRACK 08 AUDIO
INDEX 01 00:00:00
FILE "09 - August Sunday Afternoon.wav" WAVE
TRACK 09 AUDIO
INDEX 01 00:00:00
FILE "10 - When to Care (vs JEYE).wav" WAVE
TRACK 10 AUDIO
INDEX 01 00:00:00
FILE "11 - White Cover (Pneumautoclavic Poison mix by Pneumatic Detach).wav" WAVE
TRACK 11 AUDIO
INDEX 01 00:00:00
FILE "12 - Meet Me Halfway (How Fast Can You Mix by Slacknote).wav" WAVE
TRACK 12 AUDIO
INDEX 01 00:00:00
FILE "13 - White Cover (Heaven Likes It Dirty mix by Iszoloscope).wav" WAVE
TRACK 13 AUDIO
INDEX 01 00:00:00
FILE "14 - Tell Me When to Care (For What Its Worth mix by Eva,3).wav" WAVE
TRACK 14 AUDIO
INDEX 01 00:00:00
FILE "15 - Meet Me Halfway (Meet Me Halfway to Hell mix by Noise,Girl).wav" WAVE
TRACK 15 AUDIO
INDEX 01 00:00:00

Год выпуска: 2006
Продолжительность: 00:58:40
Треклист:

01. Small Days (05:03)
02. Fault (03:46)
03. By My Own Admission (04:03)
04. This Is Untitled (04:06)
05. Obligatory Interlude Pt1 (03:46)
06. All Unwired And Behind You (03:38)
07. Nothing But Pillow Teeth (03:55)
08. Miags (feat. Pneumatic Detach & It-Clings) (03:41)
09. Dead Sea Tears (03:42)
10. We All Have A Window (04:33)
11. By My Own Admission (Ritual Mix By Unter Null) (05:27)
12. Small Days (Minute By Minute Mix By Stendeck) (04:05)
13. Fault (Detrimental Mix By Detritus) (04:23)
14. Small Days (Big Nights Mix By Displacer) (04:32)

Exact Audio Copy V0.99 prebeta 5 from 4. May 2009

EAC extraction logfile from 29. November 2009, 15:01

Autoclav1.1 / Visitor Attractions

Used drive : TSSTcorpCDDVDW SH-S223F Adapter: 1 ID: 1

Read mode : Secure
Utilize accurate stream : Yes
Defeat audio cache : Yes
Make use of C2 pointers : No

Read offset correction : 6
Overread into Lead-In and Lead-Out : No
Fill up missing offset samples with silence : Yes
Delete leading and trailing silent blocks : No
Null samples used in CRC calculations : Yes
Used interface : Native Win32 interface for Win NT & 2000
Gap handling : Appended to previous track

Used output format : User Defined Encoder
Selected bitrate : 128 kBit/s
Quality : High
Add ID3 tag : No
Command line compressor : C:\Program Files (x86)\Exact Audio Copy\Flac\flac.exe
Additional command line options : -V -8 -T "artist=%a" -T "title=%t" -T "album=%g" -T "date=%y" -T "tracknumber=%n" -T "genre=%m" %s

TOC of the extracted CD

Track | Start | Length | Start sector | End sector
---------------------------------------------------------
1 | 0:00.00 | 5:03.30 | 0 | 22754
2 | 5:03.30 | 3:46.01 | 22755 | 39705
3 | 8:49.31 | 4:03.37 | 39706 | 57967
4 | 12:52.68 | 4:06.17 | 57968 | 76434
5 | 16:59.10 | 3:46.15 | 76435 | 93399
6 | 20:45.25 | 3:38.12 | 93400 | 109761
7 | 24:23.37 | 3:54.38 | 109762 | 127349
8 | 28:18.00 | 3:41.04 | 127350 | 143928
9 | 31:59.04 | 3:41.54 | 143929 | 160557
10 | 35:40.58 | 4:32.59 | 160558 | 181016
11 | 40:13.42 | 5:27.19 | 181017 | 205560
12 | 45:40.61 | 4:04.67 | 205561 | 223927
13 | 49:45.53 | 4:22.63 | 223928 | 243640
14 | 54:08.41 | 4:31.73 | 243641 | 264038

Track 1

Filename Z:\music\a\Autoclav1.1\2006 Visitor Attractions [flac]\Autoclav1.1 - 01 - Small Days.wav

Pre-gap length 0:00:02.00

Peak level 96.5 %
Track quality 100.0 %
Test CRC F4A5AFF5
Copy CRC F4A5AFF5
Accurately ripped (confidence 1) [FD2DB517]
Copy OK

Track 2

Filename Z:\music\a\Autoclav1.1\2006 Visitor Attractions [flac]\Autoclav1.1 - 02 - Fault.wav

Peak level 96.6 %
Track quality 100.0 %
Test CRC 4BAD3D81
Copy CRC 4BAD3D81
Accurately ripped (confidence 1) [DC7D8F59]
Copy OK

Track 3

Filename Z:\music\a\Autoclav1.1\2006 Visitor Attractions [flac]\Autoclav1.1 - 03 - By My Own Admission.wav

Peak level 96.6 %
Track quality 100.0 %
Test CRC C43C12E1
Copy CRC C43C12E1
Accurately ripped (confidence 1) [D92B58AB]
Copy OK

Track 4

Filename Z:\music\a\Autoclav1.1\2006 Visitor Attractions [flac]\Autoclav1.1 - 04 - This is Untitled.wav

Peak level 84.4 %
Track quality 100.0 %
Test CRC EE8D24C8
Copy CRC EE8D24C8
Accurately ripped (confidence 1) [92AA1BC8]
Copy OK

Track 5

Filename Z:\music\a\Autoclav1.1\2006 Visitor Attractions [flac]\Autoclav1.1 - 05 - Obligatory Interlude pt1.wav

Peak level 96.5 %
Track quality 100.0 %
Test CRC 699D01C1
Copy CRC 699D01C1
Accurately ripped (confidence 1) [3FED2275]
Copy OK

Track 6

Filename Z:\music\a\Autoclav1.1\2006 Visitor Attractions [flac]\Autoclav1.1 - 06 - All Unwired and Behind You.wav

Peak level 96.6 %
Track quality 99.9 %
Test CRC 950C0AF1
Copy CRC 950C0AF1
Accurately ripped (confidence 1) [BCF85DC1]
Copy OK

Track 7

Filename Z:\music\a\Autoclav1.1\2006 Visitor Attractions [flac]\Autoclav1.1 - 07 - Nothing but Pillow Teeth.wav

Peak level 84.9 %
Track quality 100.0 %
Test CRC D832AE5B
Copy CRC D832AE5B
Accurately ripped (confidence 1) [5FB63D30]
Copy OK

Track 8

Filename Z:\music\a\Autoclav1.1\2006 Visitor Attractions [flac]\Autoclav1.1 - 08 - Miags (feat Pneumatic Detach & It-Clings).wav

Peak level 96.6 %
Track quality 100.0 %
Test CRC 6D9E2871
Copy CRC 6D9E2871
Accurately ripped (confidence 1) [706366F8]
Copy OK

Track 9

Filename Z:\music\a\Autoclav1.1\2006 Visitor Attractions [flac]\Autoclav1.1 - 09 - Dead Sea Tears.wav

Peak level 96.6 %
Track quality 100.0 %
Test CRC 51F02B29
Copy CRC 51F02B29
Accurately ripped (confidence 1) [6CAFCE9F]
Copy OK

Track 10

Filename Z:\music\a\Autoclav1.1\2006 Visitor Attractions [flac]\Autoclav1.1 - 10 - We All Have a Window.wav

Peak level 96.5 %
Track quality 100.0 %
Test CRC 09675FF7
Copy CRC 09675FF7
Accurately ripped (confidence 1) [FEF1BC49]
Copy OK

Track 11

Filename Z:\music\a\Autoclav1.1\2006 Visitor Attractions [flac]\Autoclav1.1 - 11 - By My Own Admission (Ritual mix by Unter Null).wav

Peak level 96.6 %
Track quality 100.0 %
Test CRC 8B628140
Copy CRC 8B628140
Accurately ripped (confidence 1) [F28389F6]
Copy OK

Track 12

Filename Z:\music\a\Autoclav1.1\2006 Visitor Attractions [flac]\Autoclav1.1 - 12 - Small Days (Minute by Minute mix by Stendeck).wav

Peak level 83.2 %
Track quality 100.0 %
Test CRC 72320B5C
Copy CRC 72320B5C
Accurately ripped (confidence 1) [4BFB4775]
Copy OK

Track 13

Filename Z:\music\a\Autoclav1.1\2006 Visitor Attractions [flac]\Autoclav1.1 - 13 - Fault (Detrimental mix by Detritus).wav

Peak level 93.6 %
Track quality 100.0 %
Test CRC 0D79E571
Copy CRC 0D79E571
Accurately ripped (confidence 1) [BE07921A]
Copy OK

Track 14

Filename Z:\music\a\Autoclav1.1\2006 Visitor Attractions [flac]\Autoclav1.1 - 14 - Small Days (Big Nights mix by Displacer).wav

Peak level 100.0 %
Track quality 99.9 %
Test CRC E3A276DD
Copy CRC E3A276DD
Accurately ripped (confidence 1) [3615F056]
Copy OK

All tracks accurately ripped

No errors occurred

End of status report


REM GENRE Electronic
REM DATE 2006
REM DISCID A40DC00E
REM COMMENT "ExactAudioCopy v0.99pb5"
FILE "Autoclav1.1 - 01 - Small Days.wav" WAVE
TRACK 01 AUDIO
INDEX 01 00:00:00
FILE "Autoclav1.1 - 02 - Fault.wav" WAVE
TRACK 02 AUDIO
INDEX 01 00:00:00
FILE "Autoclav1.1 - 03 - By My Own Admission.wav" WAVE
TRACK 03 AUDIO
INDEX 01 00:00:00
FILE "Autoclav1.1 - 04 - This is Untitled.wav" WAVE
TRACK 04 AUDIO
INDEX 01 00:00:00
FILE "Autoclav1.1 - 05 - Obligatory Interlude pt1.wav" WAVE
TRACK 05 AUDIO
INDEX 01 00:00:00
FILE "Autoclav1.1 - 06 - All Unwired and Behind You.wav" WAVE
TRACK 06 AUDIO
INDEX 01 00:00:00
FILE "Autoclav1.1 - 07 - Nothing but Pillow Teeth.wav" WAVE
TRACK 07 AUDIO
INDEX 01 00:00:00
FILE "Autoclav1.1 - 08 - Miags (feat Pneumatic Detach & It-Clings).wav" WAVE
TRACK 08 AUDIO
INDEX 01 00:00:00
FILE "Autoclav1.1 - 09 - Dead Sea Tears.wav" WAVE
TRACK 09 AUDIO
INDEX 01 00:00:00
FILE "Autoclav1.1 - 10 - We All Have a Window.wav" WAVE
TRACK 10 AUDIO
INDEX 01 00:00:00
FILE "Autoclav1.1 - 11 - By My Own Admission (Ritual mix by Unter Null).wav" WAVE
TRACK 11 AUDIO
INDEX 01 00:00:00
FILE "Autoclav1.1 - 12 - Small Days (Minute by Minute mix by Stendeck).wav" WAVE
TRACK 12 AUDIO
INDEX 01 00:00:00
FILE "Autoclav1.1 - 13 - Fault (Detrimental mix by Detritus).wav" WAVE
TRACK 13 AUDIO
INDEX 01 00:00:00
FILE "Autoclav1.1 - 14 - Small Days (Big Nights mix by Displacer).wav" WAVE
TRACK 14 AUDIO
INDEX 01 00:00:00

Год выпуска: 2008
Продолжительность: 01:14:05
Треклист:

01. Fault (Broken By Oil 10) (04:52)
02. All Unwired And Behind You (Broken By ESA) (05:39)
03. Small Days (Broken By DJ Hidden) (04:49)
04. By My Own Admission (Broken By C-Drone-Defect) (07:46)
05. This Is Untitled (Broken By Wast3) (05:09)
06. White Cover (Broken By Cervello Elettronico) (04:01)
07. Small Days (Broken By Keef Baker) (05:24)
08. Obligatory Interlude Part 2 (Broken By Iszoloscope) (05:04)
09. Fault (Broken By Eva/3) (05:27)
10. This Is Untitled (Broken By Synnack) (03:48)
11. Nothing But Pillow Teeth (Broken By Alter Der Ruine) (05:22)
12. All Unwired And Behind You (Broken By Lith) (03:47)
13. White Cover (Broken By Slacknote) (04:24)
14. We All Have A Window (Broken By Mothboy) (08:33)

Exact Audio Copy V0.99 prebeta 3 from 28. July 2007

EAC extraction logfile from 14. February 2008, 11:47

Autoclav1.1 / Broken Beats for Broken Hearts

Used drive : TSSTcorpCDDVDW SH-S203B Adapter: 2 ID: 2

Read mode : Secure
Utilize accurate stream : Yes
Defeat audio cache : No
Make use of C2 pointers : No

Read offset correction : 6
Overread into Lead-In and Lead-Out : No
Fill up missing offset samples with silence : Yes
Delete leading and trailing silent blocks : No
Null samples used in CRC calculations : Yes
Used interface : Native Win32 interface for Win NT & 2000
Gap handling : Appended to previous track

Used output format : User Defined Encoder
Selected bitrate : 128 kBit/s
Quality : High
Add ID3 tag : No
Command line compressor : C:\Program Files\Exact Audio Copy\bin\flac.exe
Additional command line options : -8 -A tukey(0.25) -A gauss(0.1875) -b 4096 -V -T "artist=%a" -T "title=%t" -T "album=%g" -T "date=%y" -T "tracknumber=%n" -T "genre=%m" %s --sector-align

TOC of the extracted CD

Track | Start | Length | Start sector | End sector
---------------------------------------------------------
1 | 0:00.00 | 4:52.21 | 0 | 21920
2 | 4:52.21 | 5:38.54 | 21921 | 47324
3 | 10:31.00 | 4:49.03 | 47325 | 69002
4 | 15:20.03 | 7:45.51 | 69003 | 103928
5 | 23:05.54 | 5:09.27 | 103929 | 127130
6 | 28:15.06 | 4:00.71 | 127131 | 145201
7 | 32:16.02 | 5:24.27 | 145202 | 169528
8 | 37:40.29 | 5:04.30 | 169529 | 192358
9 | 42:44.59 | 5:27.05 | 192359 | 216888
10 | 48:11.64 | 3:48.08 | 216889 | 233996
11 | 51:59.72 | 5:22.06 | 233997 | 258152
12 | 57:22.03 | 3:46.67 | 258153 | 275169
13 | 61:08.70 | 4:24.24 | 275170 | 294993
14 | 65:33.19 | 8:32.72 | 294994 | 333465

Track 1

Filename C:\Unsorted\(0000--Uploads\Autoclav 1.1 - Broken Beats for Broken Hearts (2008)\01 - Autoclav1.1 - Fault (Oil 10 remix).wav

Pre-gap length 0:00:02.00

Peak level 93.1 %
Track quality 100.0 %
Test CRC AB937771
Copy CRC AB937771
Track not present in AccurateRip database
Copy OK

Track 2

Filename C:\Unsorted\(0000--Uploads\Autoclav 1.1 - Broken Beats for Broken Hearts (2008)\02 - Autoclav1.1 - All Unwired and Behind You (ESA remix).wav

Pre-gap length 0:00:01.70

Peak level 96.6 %
Track quality 99.9 %
Test CRC 59DF1320
Copy CRC 59DF1320
Track not present in AccurateRip database
Copy OK

Track 3

Filename C:\Unsorted\(0000--Uploads\Autoclav 1.1 - Broken Beats for Broken Hearts (2008)\03 - Autoclav1.1 - Small Days (DJ Hidden remix).wav

Pre-gap length 0:00:01.74

Peak level 93.2 %
Track quality 100.0 %
Test CRC CA857C05
Copy CRC CA857C05
Track not present in AccurateRip database
Copy OK

Track 4

Filename C:\Unsorted\(0000--Uploads\Autoclav 1.1 - Broken Beats for Broken Hearts (2008)\04 - Autoclav1.1 - By My Own Admission (C-Drone-Defect remix).wav

Pre-gap length 0:00:01.77

Peak level 96.6 %
Track quality 100.0 %
Test CRC 377491D2
Copy CRC 377491D2
Track not present in AccurateRip database
Copy OK

Track 5

Filename C:\Unsorted\(0000--Uploads\Autoclav 1.1 - Broken Beats for Broken Hearts (2008)\05 - Autoclav1.1 - This is Untitled (Wast3 remix).wav

Pre-gap length 0:00:01.88

Peak level 96.6 %
Track quality 100.0 %
Test CRC E7B414E3
Copy CRC E7B414E3
Track not present in AccurateRip database
Copy OK

Track 6

Filename C:\Unsorted\(0000--Uploads\Autoclav 1.1 - Broken Beats for Broken Hearts (2008)\06 - Autoclav1.1 - White Cover (Cervello Elettronico remix).wav

Pre-gap length 0:00:01.92

Peak level 96.6 %
Track quality 100.0 %
Test CRC 4313EA1C
Copy CRC 4313EA1C
Track not present in AccurateRip database
Copy OK

Track 7

Filename C:\Unsorted\(0000--Uploads\Autoclav 1.1 - Broken Beats for Broken Hearts (2008)\07 - Autoclav1.1 - Small Days (Keef Baker remix).wav

Pre-gap length 0:00:02.02

Peak level 96.6 %
Track quality 100.0 %
Test CRC 820F7AE4
Copy CRC 820F7AE4
Track not present in AccurateRip database
Copy OK

Track 8

Filename C:\Unsorted\(0000--Uploads\Autoclav 1.1 - Broken Beats for Broken Hearts (2008)\08 - Autoclav1.1 - Obligatory Interlude part 2 (Iszoloscope remix).wav

Pre-gap length 0:00:01.66

Peak level 96.6 %
Track quality 100.0 %
Test CRC 06B6DFE7
Copy CRC 06B6DFE7
Track not present in AccurateRip database
Copy OK

Track 9

Filename C:\Unsorted\(0000--Uploads\Autoclav 1.1 - Broken Beats for Broken Hearts (2008)\09 - Autoclav1.1 - Fault (Eva,3 remix).wav

Pre-gap length 0:00:01.78

Peak level 93.1 %
Track quality 99.9 %
Test CRC 308692C3
Copy CRC 308692C3
Track not present in AccurateRip database
Copy OK

Track 10

Filename C:\Unsorted\(0000--Uploads\Autoclav 1.1 - Broken Beats for Broken Hearts (2008)\10 - Autoclav1.1 - This is Untitled (Synnack remix).wav

Pre-gap length 0:00:01.70

Peak level 96.6 %
Track quality 99.9 %
Test CRC 573FEEC7
Copy CRC 573FEEC7
Track not present in AccurateRip database
Copy OK

Track 11

Filename C:\Unsorted\(0000--Uploads\Autoclav 1.1 - Broken Beats for Broken Hearts (2008)\11 - Autoclav1.1 - Nothing but Pillow Teeth (Alter Der Ruine remix).wav

Pre-gap length 0:00:01.70

Peak level 86.8 %
Track quality 99.9 %
Test CRC 6A8EB54B
Copy CRC 6A8EB54B
Track not present in AccurateRip database
Copy OK

Track 12

Filename C:\Unsorted\(0000--Uploads\Autoclav 1.1 - Broken Beats for Broken Hearts (2008)\12 - Autoclav1.1 - All Unwired and Behind You (Lith remix).wav

Pre-gap length 0:00:01.61

Peak level 95.5 %
Track quality 100.0 %
Test CRC 570D9C12
Copy CRC 570D9C12
Track not present in AccurateRip database
Copy OK

Track 13

Filename C:\Unsorted\(0000--Uploads\Autoclav 1.1 - Broken Beats for Broken Hearts (2008)\13 - Autoclav1.1 - White Cover (Slacknote remix).wav

Pre-gap length 0:00:01.68

Peak level 96.6 %
Track quality 99.9 %
Test CRC C7707E9B
Copy CRC C7707E9B
Track not present in AccurateRip database
Copy OK

Track 14

Filename C:\Unsorted\(0000--Uploads\Autoclav 1.1 - Broken Beats for Broken Hearts (2008)\14 - Autoclav1.1 - We All Have a Window (Mothboy remix).wav

Pre-gap length 0:00:01.56

Peak level 100.0 %
Track quality 100.0 %
Test CRC DAB7549C
Copy CRC DAB7549C
Track not present in AccurateRip database
Copy OK

None of the tracks are present in the AccurateRip database

No errors occurred

End of status report


REM GENRE Industrial
REM DATE 2008
REM DISCID D8115E0E
REM COMMENT "ExactAudioCopy v0.99pb3"
PERFORMER "Autoclav1.1"
TITLE "Broken Beats for Broken Hearts"
FILE "01 - Autoclav1.1 - Fault (Oil 10 remix).wav" WAVE
TRACK 01 AUDIO
TITLE "Fault (Oil 10 remix)"
PERFORMER "Autoclav1.1"
INDEX 01 00:00:00
TRACK 02 AUDIO
TITLE "All Unwired and Behind You (ESA remix)"
PERFORMER "Autoclav1.1"
INDEX 00 04:50:43
FILE "02 - Autoclav1.1 - All Unwired and Behind You (ESA remix).wav" WAVE
INDEX 01 00:00:00
TRACK 03 AUDIO
TITLE "Small Days (DJ Hidden remix)"
PERFORMER "Autoclav1.1"
INDEX 00 05:36:73
FILE "03 - Autoclav1.1 - Small Days (DJ Hidden remix).wav" WAVE
INDEX 01 00:00:00
TRACK 04 AUDIO
TITLE "By My Own Admission (C-Drone-Defect remix)"
PERFORMER "Autoclav1.1"
INDEX 00 04:47:20
FILE "04 - Autoclav1.1 - By My Own Admission (C-Drone-Defect remix).wav" WAVE
INDEX 01 00:00:00
TRACK 05 AUDIO
TITLE "This is Untitled (Wast3 remix)"
PERFORMER "Autoclav1.1"
INDEX 00 07:43:60
FILE "05 - Autoclav1.1 - This is Untitled (Wast3 remix).wav" WAVE
INDEX 01 00:00:00
TRACK 06 AUDIO
TITLE "White Cover (Cervello Elettronico remix)"
PERFORMER "Autoclav1.1"
INDEX 00 05:07:33
FILE "06 - Autoclav1.1 - White Cover (Cervello Elettronico remix).wav" WAVE
INDEX 01 00:00:00
TRACK 07 AUDIO
TITLE "Small Days (Keef Baker remix)"
PERFORMER "Autoclav1.1"
INDEX 00 03:58:69
FILE "07 - Autoclav1.1 - Small Days (Keef Baker remix).wav" WAVE
INDEX 01 00:00:00
TRACK 08 AUDIO
TITLE "Obligatory Interlude part 2 (Iszoloscope remix)"
PERFORMER "Autoclav1.1"
INDEX 00 05:22:52
FILE "08 - Autoclav1.1 - Obligatory Interlude part 2 (Iszoloscope remix).wav" WAVE
INDEX 01 00:00:00
TRACK 09 AUDIO
TITLE "Fault (Eva/3 remix)"
PERFORMER "Autoclav1.1"
INDEX 00 05:02:46
FILE "09 - Autoclav1.1 - Fault (Eva,3 remix).wav" WAVE
INDEX 01 00:00:00
TRACK 10 AUDIO
TITLE "This is Untitled (Synnack remix)"
PERFORMER "Autoclav1.1"
INDEX 00 05:25:27
FILE "10 - Autoclav1.1 - This is Untitled (Synnack remix).wav" WAVE
INDEX 01 00:00:00
TRACK 11 AUDIO
TITLE "Nothing but Pillow Teeth (Alter Der Ruine remix)"
PERFORMER "Autoclav1.1"
INDEX 00 03:46:30
FILE "11 - Autoclav1.1 - Nothing but Pillow Teeth (Alter Der Ruine remix).wav" WAVE
INDEX 01 00:00:00
TRACK 12 AUDIO
TITLE "All Unwired and Behind You (Lith remix)"
PERFORMER "Autoclav1.1"
INDEX 00 05:20:35
FILE "12 - Autoclav1.1 - All Unwired and Behind You (Lith remix).wav" WAVE
INDEX 01 00:00:00
TRACK 13 AUDIO
TITLE "White Cover (Slacknote remix)"
PERFORMER "Autoclav1.1"
INDEX 00 03:45:16
FILE "13 - Autoclav1.1 - White Cover (Slacknote remix).wav" WAVE
INDEX 01 00:00:00
TRACK 14 AUDIO
TITLE "We All Have a Window (Mothboy remix)"
PERFORMER "Autoclav1.1"
INDEX 00 04:22:57
FILE "14 - Autoclav1.1 - We All Have a Window (Mothboy remix).wav" WAVE
INDEX 01 00:00:00

Год выпуска: 2008
Продолжительность: 00:53:33
Треклист:

01. Casually Losing Selected Memories (04:26)
02. All For You (04:21)
03. The Essential Condition (04:29)
04. All Long Black Spirals (04:47)
05. We Shatter Sometimes (04:40)
06. Tiny Matters (04:02)
07. It's Indifference (05:38)
08. Hell Is The Face Of Love (04:22)
09. This Stranger Hope (05:42)
10. Trails Without Pathways (05:06)
11. Six Minutes To Live (06:00)

Syrup 0.9.9.44, Track.cfg v.0992
Exact Audio Copy V0.99 prebeta 3 from 28. July 2007

EAC extraction logfile from 16. July 2008, 20:03

Autoclav 1.1 / Love No Longer Lives Here

Used drive : TSSTcorpCDDVDW SH-S203B Adapter: 2 ID: 2

Read mode : Secure
Utilize accurate stream : Yes
Defeat audio cache : Yes
Make use of C2 pointers : No

Read offset correction : 6
Overread into Lead-In and Lead-Out : No
Fill up missing offset samples with silence : Yes
Delete leading and trailing silent blocks : No
Null samples used in CRC calculations : Yes
Used interface : Native Win32 interface for Win NT & 2000
Gap handling : Appended to previous track

Used output format : User Defined Encoder
Selected bitrate : 128 kBit/s
Quality : High
Add ID3 tag : No
Command line compressor : C:\Program Files\Exact Audio Copy\Syrup\Syrup.exe
Additional command line options : REACT %o %s %d "%a" "%g" "%t" "%n" "%x" "%y" "%m" "%e" "%f" "%b" %r

TOC of the extracted CD

Track | Start | Length | Start sector | End sector
---------------------------------------------------------
1 | 0:00.00 | 4:26.00 | 0 | 19949
2 | 4:26.00 | 4:21.00 | 19950 | 39524
3 | 8:47.00 | 4:29.36 | 39525 | 59735
4 | 13:16.36 | 4:46.38 | 59736 | 81223
5 | 18:02.74 | 4:40.00 | 81224 | 102223
6 | 22:42.74 | 4:02.00 | 102224 | 120373
7 | 26:44.74 | 5:38.00 | 120374 | 145723
8 | 32:22.74 | 4:22.37 | 145724 | 165410
9 | 36:45.36 | 5:42.00 | 165411 | 191060
10 | 42:27.36 | 5:06.00 | 191061 | 214010
11 | 47:33.36 | 6:00.00 | 214011 | 241010

Track 1

Filename C:\DOCUME~1\teh\LOCALS~1\Temp\Syrup\Autoclav 1.1 - Love No Longer Lives Here - 01 - Casually Losing Selected Memories.wav

Pre-gap length 0:00:02.00

Peak level 99.8 %
Track quality 100.0 %
Test CRC 75552483
Copy CRC 75552483
Track not present in AccurateRip database
Copy OK

Track 2

Filename C:\DOCUME~1\teh\LOCALS~1\Temp\Syrup\Autoclav 1.1 - Love No Longer Lives Here - 02 - All For You.wav

Peak level 99.9 %
Track quality 99.9 %
Test CRC EDA4BF5A
Copy CRC EDA4BF5A
Track not present in AccurateRip database
Copy OK

Track 3

Filename C:\DOCUME~1\teh\LOCALS~1\Temp\Syrup\Autoclav 1.1 - Love No Longer Lives Here - 03 - The Essential Condition.wav

Peak level 99.9 %
Track quality 100.0 %
Test CRC 4B5EE899
Copy CRC 4B5EE899
Track not present in AccurateRip database
Copy OK

Track 4

Filename C:\DOCUME~1\teh\LOCALS~1\Temp\Syrup\Autoclav 1.1 - Love No Longer Lives Here - 04 - All Long Black Spirals.wav

Peak level 99.9 %
Track quality 100.0 %
Test CRC 9E58537A
Copy CRC 9E58537A
Track not present in AccurateRip database
Copy OK

Track 5

Filename C:\DOCUME~1\teh\LOCALS~1\Temp\Syrup\Autoclav 1.1 - Love No Longer Lives Here - 05 - We Shatter Sometimes.wav

Peak level 99.9 %
Track quality 100.0 %
Test CRC 03CD715E
Copy CRC 03CD715E
Track not present in AccurateRip database
Copy OK

Track 6

Filename C:\DOCUME~1\teh\LOCALS~1\Temp\Syrup\Autoclav 1.1 - Love No Longer Lives Here - 06 - Tiny Matters.wav

Peak level 99.8 %
Track quality 100.0 %
Test CRC A95AE27A
Copy CRC A95AE27A
Track not present in AccurateRip database
Copy OK

Track 7

Filename C:\DOCUME~1\teh\LOCALS~1\Temp\Syrup\Autoclav 1.1 - Love No Longer Lives Here - 07 - It's Indifference.wav

Peak level 99.8 %
Track quality 100.0 %
Test CRC EAC4D7EA
Copy CRC EAC4D7EA
Track not present in AccurateRip database
Copy OK

Track 8

Filename C:\DOCUME~1\teh\LOCALS~1\Temp\Syrup\Autoclav 1.1 - Love No Longer Lives Here - 08 - Hell Is The Face Of Love.wav

Peak level 99.9 %
Track quality 100.0 %
Test CRC D5127B6D
Copy CRC D5127B6D
Track not present in AccurateRip database
Copy OK

Track 9

Filename C:\DOCUME~1\teh\LOCALS~1\Temp\Syrup\Autoclav 1.1 - Love No Longer Lives Here - 09 - This Stranger Hope.wav

Peak level 99.9 %
Track quality 100.0 %
Test CRC F44D4C3B
Copy CRC F44D4C3B
Track not present in AccurateRip database
Copy OK

Track 10

Filename C:\DOCUME~1\teh\LOCALS~1\Temp\Syrup\Autoclav 1.1 - Love No Longer Lives Here - 10 - Trails Without Pathways.wav

Peak level 99.9 %
Track quality 100.0 %
Test CRC 5BC89FDD
Copy CRC 5BC89FDD
Track not present in AccurateRip database
Copy OK

Track 11

Filename C:\DOCUME~1\teh\LOCALS~1\Temp\Syrup\Autoclav 1.1 - Love No Longer Lives Here - 11 - Six Minutes To Live.wav

Peak level 99.8 %
Track quality 100.0 %
Test CRC 09BA99DB
Copy CRC 09BA99DB
Track not present in AccurateRip database
Copy OK

None of the tracks are present in the AccurateRip database

No errors occurred

End of status report


REM DISCNUMBER 1
REM TOTALDISCS 1
REM GENRE IDM
REM DATE 2008
REM DISCID A70C8D0B
REM COMMENT "ExactAudioCopy v0.99pb3"
PERFORMER "Autoclav 1.1"
TITLE "Love No Longer Lives Here"
FILE "01 - Autoclav 1.1 - Casually Losing Selected Memories.flac" WAVE
TRACK 01 AUDIO
TITLE "Casually Losing Selected Memories"
PERFORMER "Autoclav 1.1"
INDEX 01 00:00:00
FILE "02 - Autoclav 1.1 - All For You.flac" WAVE
TRACK 02 AUDIO
TITLE "All For You"
PERFORMER "Autoclav 1.1"
INDEX 01 00:00:00
FILE "03 - Autoclav 1.1 - The Essential Condition.flac" WAVE
TRACK 03 AUDIO
TITLE "The Essential Condition"
PERFORMER "Autoclav 1.1"
INDEX 01 00:00:00
FILE "04 - Autoclav 1.1 - All Long Black Spirals.flac" WAVE
TRACK 04 AUDIO
TITLE "All Long Black Spirals"
PERFORMER "Autoclav 1.1"
INDEX 01 00:00:00
FILE "05 - Autoclav 1.1 - We Shatter Sometimes.flac" WAVE
TRACK 05 AUDIO
TITLE "We Shatter Sometimes"
PERFORMER "Autoclav 1.1"
INDEX 01 00:00:00
FILE "06 - Autoclav 1.1 - Tiny Matters.flac" WAVE
TRACK 06 AUDIO
TITLE "Tiny Matters"
PERFORMER "Autoclav 1.1"
INDEX 01 00:00:00
FILE "07 - Autoclav 1.1 - It's Indifference.flac" WAVE
TRACK 07 AUDIO
TITLE "It's Indifference"
PERFORMER "Autoclav 1.1"
INDEX 01 00:00:00
FILE "08 - Autoclav 1.1 - Hell Is The Face Of Love.flac" WAVE
TRACK 08 AUDIO
TITLE "Hell Is The Face Of Love"
PERFORMER "Autoclav 1.1"
INDEX 01 00:00:00
FILE "09 - Autoclav 1.1 - This Stranger Hope.flac" WAVE
TRACK 09 AUDIO
TITLE "This Stranger Hope"
PERFORMER "Autoclav 1.1"
INDEX 01 00:00:00
FILE "10 - Autoclav 1.1 - Trails Without Pathways.flac" WAVE
TRACK 10 AUDIO
TITLE "Trails Without Pathways"
PERFORMER "Autoclav 1.1"
INDEX 01 00:00:00
FILE "11 - Autoclav 1.1 - Six Minutes To Live.flac" WAVE
TRACK 11 AUDIO
TITLE "Six Minutes To Live"
PERFORMER "Autoclav 1.1"
INDEX 01 00:00:00

Год выпуска: 2009
Продолжительность: 00:49:42
Треклист:

01. When We Woke Up (04:29)
02. Walk On Empty (04:48)
03. Taking Blood (04:12)
04. Do You Feel Disposable? (03:56)
05. If Not Something, Anything (04:16)
06. Tomorrow (04:54)
07. Falling Over Ghosts (04:27)
08. These Walls Have Seen All (04:05)
09. An Idiosyncratic Oath (04:42)
10. Those Opening Hours (04:14)
11. Summer (05:39)

Exact Audio Copy V0.99 prebeta 4 from 23. January 2008

EAC extraction logfile from 11. September 2009, 21:59

Autoclav1.1 / Where Once Were Exit Wounds

Used drive : SATA TSSTcorpCDDVDW S Adapter: 4 ID: 0

Read mode : Secure
Utilize accurate stream : Yes
Defeat audio cache : Yes
Make use of C2 pointers : No

Read offset correction : 6
Overread into Lead-In and Lead-Out : No
Fill up missing offset samples with silence : Yes
Delete leading and trailing silent blocks : No
Null samples used in CRC calculations : Yes
Used interface : Native Win32 interface for Win NT & 2000
Gap handling : Appended to previous track

Used output format : User Defined Encoder
Selected bitrate : 128 kBit/s
Quality : High
Add ID3 tag : No
Command line compressor : C:\Program Files\Exact Audio Copy\Flac\flac.exe
Additional command line options : -V -8 -T "artist=%a" -T "title=%t" -T "album=%g" -T "date=%y" -T "tracknumber=%n" -T "genre=%m" %s

TOC of the extracted CD

Track | Start | Length | Start sector | End sector
---------------------------------------------------------
1 | 0:00.00 | 4:29.34 | 0 | 20208
2 | 4:29.34 | 4:47.45 | 20209 | 41778
3 | 9:17.04 | 4:12.12 | 41779 | 60690
4 | 13:29.16 | 3:55.50 | 60691 | 78365
5 | 17:24.66 | 4:16.12 | 78366 | 97577
6 | 21:41.03 | 4:54.10 | 97578 | 119637
7 | 26:35.13 | 4:27.10 | 119638 | 139672
8 | 31:02.23 | 4:04.74 | 139673 | 158046
9 | 35:07.22 | 4:42.12 | 158047 | 179208
10 | 39:49.34 | 4:14.10 | 179209 | 198268
11 | 44:03.44 | 5:38.56 | 198269 | 223674

Track 1

Filename Z:\music\a\Autoclav1.1\2009 Where Once Were Exit Wounds [FLAC]\Autoclav1.1 - 01 - When We Woke Up.wav

Pre-gap length 0:00:02.00

Peak level 90.9 %
Track quality 100.0 %
Test CRC 5B6A259E
Copy CRC 5B6A259E
Track not present in AccurateRip database
Copy OK

Track 2

Filename Z:\music\a\Autoclav1.1\2009 Where Once Were Exit Wounds [FLAC]\Autoclav1.1 - 02 - Walk on Empty.wav

Pre-gap length 0:00:02.00

Peak level 91.1 %
Track quality 100.0 %
Test CRC 0DB5E653
Copy CRC 0DB5E653
Track not present in AccurateRip database
Copy OK

Track 3

Filename Z:\music\a\Autoclav1.1\2009 Where Once Were Exit Wounds [FLAC]\Autoclav1.1 - 03 - Taking Blood.wav

Pre-gap length 0:00:02.00

Peak level 96.6 %
Track quality 100.0 %
Test CRC 47851562
Copy CRC 47851562
Track not present in AccurateRip database
Copy OK

Track 4

Filename Z:\music\a\Autoclav1.1\2009 Where Once Were Exit Wounds [FLAC]\Autoclav1.1 - 04 - Do You Feel Disposable .wav

Pre-gap length 0:00:02.00

Peak level 96.6 %
Track quality 100.0 %
Test CRC F6074F8F
Copy CRC F6074F8F
Track not present in AccurateRip database
Copy OK

Track 5

Filename Z:\music\a\Autoclav1.1\2009 Where Once Were Exit Wounds [FLAC]\Autoclav1.1 - 05 - If Not Something, Anything.wav

Pre-gap length 0:00:02.00

Peak level 81.1 %
Track quality 100.0 %
Test CRC 2D3309F7
Copy CRC 2D3309F7
Track not present in AccurateRip database
Copy OK

Track 6

Filename Z:\music\a\Autoclav1.1\2009 Where Once Were Exit Wounds [FLAC]\Autoclav1.1 - 06 - Tomorrow.wav

Pre-gap length 0:00:02.00

Peak level 96.7 %
Track quality 100.0 %
Test CRC 31FB7265
Copy CRC 31FB7265
Track not present in AccurateRip database
Copy OK

Track 7

Filename Z:\music\a\Autoclav1.1\2009 Where Once Were Exit Wounds [FLAC]\Autoclav1.1 - 07 - Falling Over Ghosts.wav

Pre-gap length 0:00:02.00

Peak level 90.9 %
Track quality 100.0 %
Test CRC 704CF7ED
Copy CRC 704CF7ED
Track not present in AccurateRip database
Copy OK

Track 8

Filename Z:\music\a\Autoclav1.1\2009 Where Once Were Exit Wounds [FLAC]\Autoclav1.1 - 08 - These Walls Have Seen All.wav

Pre-gap length 0:00:02.00

Peak level 94.4 %
Track quality 100.0 %
Test CRC 89D293A2
Copy CRC 89D293A2
Track not present in AccurateRip database
Copy OK

Track 9

Filename Z:\music\a\Autoclav1.1\2009 Where Once Were Exit Wounds [FLAC]\Autoclav1.1 - 09 - An Idiosyncratic Oath.wav

Pre-gap length 0:00:02.00

Peak level 91.1 %
Track quality 100.0 %
Test CRC 955AAF91
Copy CRC 955AAF91
Track not present in AccurateRip database
Copy OK

Track 10

Filename Z:\music\a\Autoclav1.1\2009 Where Once Were Exit Wounds [FLAC]\Autoclav1.1 - 10 - Those Opening Hours.wav

Pre-gap length 0:00:02.00

Peak level 86.1 %
Track quality 100.0 %
Test CRC DC78A479
Copy CRC DC78A479
Track not present in AccurateRip database
Copy OK

Track 11

Filename Z:\music\a\Autoclav1.1\2009 Where Once Were Exit Wounds [FLAC]\Autoclav1.1 - 11 - Summer.wav

Pre-gap length 0:00:02.00

Peak level 83.9 %
Track quality 100.0 %
Test CRC 499AF2B8
Copy CRC 499AF2B8
Track not present in AccurateRip database
Copy OK

None of the tracks are present in the AccurateRip database

No errors occurred

End of status report


REM GENRE Electronic
REM DATE 2009
REM DISCID 900BA60B
REM COMMENT "ExactAudioCopy v0.99pb4"
PERFORMER "Autoclav1.1"
TITLE "Where Once Were Exit Wounds"
FILE "Autoclav1.1 - 01 - When We Woke Up.wav" WAVE
TRACK 01 AUDIO
TITLE "When We Woke Up"
PERFORMER "Autoclav1.1"
INDEX 01 00:00:00
TRACK 02 AUDIO
TITLE "Walk on Empty"
PERFORMER "Autoclav1.1"
INDEX 00 04:27:34
FILE "Autoclav1.1 - 02 - Walk on Empty.wav" WAVE
INDEX 01 00:00:00
TRACK 03 AUDIO
TITLE "Taking Blood"
PERFORMER "Autoclav1.1"
INDEX 00 04:45:45
FILE "Autoclav1.1 - 03 - Taking Blood.wav" WAVE
INDEX 01 00:00:00
TRACK 04 AUDIO
TITLE "Do You Feel Disposable"
PERFORMER "Autoclav1.1"
INDEX 00 04:10:12
FILE "Autoclav1.1 - 04 - Do You Feel Disposable .wav" WAVE
INDEX 01 00:00:00
TRACK 05 AUDIO
TITLE "If Not Something, Anything"
PERFORMER "Autoclav1.1"
INDEX 00 03:53:50
FILE "Autoclav1.1 - 05 - If Not Something, Anything.wav" WAVE
INDEX 01 00:00:00
TRACK 06 AUDIO
TITLE "Tomorrow"
PERFORMER "Autoclav1.1"
INDEX 00 04:14:12
FILE "Autoclav1.1 - 06 - Tomorrow.wav" WAVE
INDEX 01 00:00:00
TRACK 07 AUDIO
TITLE "Falling Over Ghosts"
PERFORMER "Autoclav1.1"
INDEX 00 04:52:10
FILE "Autoclav1.1 - 07 - Falling Over Ghosts.wav" WAVE
INDEX 01 00:00:00
TRACK 08 AUDIO
TITLE "These Walls Have Seen All"
PERFORMER "Autoclav1.1"
INDEX 00 04:25:10
FILE "Autoclav1.1 - 08 - These Walls Have Seen All.wav" WAVE
INDEX 01 00:00:00
TRACK 09 AUDIO
TITLE "An Idiosyncratic Oath"
PERFORMER "Autoclav1.1"
INDEX 00 04:02:74
FILE "Autoclav1.1 - 09 - An Idiosyncratic Oath.wav" WAVE
INDEX 01 00:00:00
TRACK 10 AUDIO
TITLE "Those Opening Hours"
PERFORMER "Autoclav1.1"
INDEX 00 04:40:12
FILE "Autoclav1.1 - 10 - Those Opening Hours.wav" WAVE
INDEX 01 00:00:00
TRACK 11 AUDIO
TITLE "Summer"
PERFORMER "Autoclav1.1"
INDEX 00 04:12:10
FILE "Autoclav1.1 - 11 - Summer.wav" WAVE
INDEX 01 00:00:00

Год выпуска: 2010
Продолжительность: 00:49:12
Треклист:

01. Waxing (04:53)
02. Sealed Envelope (05:00)
03. Conquer This Perception (04:36)
04. The In Road (04:31)
05. Saturday's Steps (04:14)
06. Let Me Sleep (Somewhere) (04:02)
07. There's No More Isolation (04:40)
08. This Town (03:51)
09. Some Subtle Inebriation (04:35)
10. Alleine In Der Dunkelheit (04:49)
11. This Is For Love (04:01)

Exact Audio Copy V0.99 prebeta 5 from 4. May 2009

EAC extraction logfile from 15. November 2010, 17:19

Autoclav1.1 / All Standing Room in the Goodnight Saloon

Used drive : TSSTcorpCDDVDW SH-S223L Adapter: 1 ID: 0

Read mode : Secure
Utilize accurate stream : Yes
Defeat audio cache : Yes
Make use of C2 pointers : No

Read offset correction : 6
Overread into Lead-In and Lead-Out : No
Fill up missing offset samples with silence : Yes
Delete leading and trailing silent blocks : No
Null samples used in CRC calculations : Yes
Used interface : Native Win32 interface for Win NT & 2000
Gap handling : Appended to previous track

Used output format : User Defined Encoder
Selected bitrate : 128 kBit/s
Quality : High
Add ID3 tag : No
Command line compressor : C:\Program Files (x86)\Exact Audio Copy\Flac\flac.exe
Additional command line options : -V -8 -T "artist=%a" -T "title=%t" -T "album=%g" -T "date=%y" -T "tracknumber=%n" -T "genre=%m" %s

TOC of the extracted CD

Track | Start | Length | Start sector | End sector
---------------------------------------------------------
1 | 0:00.00 | 4:52.74 | 0 | 21973
2 | 4:52.74 | 5:00.37 | 21974 | 44510
3 | 9:53.36 | 4:36.37 | 44511 | 65247
4 | 14:29.73 | 4:30.74 | 65248 | 85571
5 | 19:00.72 | 4:13.48 | 85572 | 104594
6 | 23:14.45 | 4:02.08 | 104595 | 122752
7 | 27:16.53 | 4:40.37 | 122753 | 143789
8 | 31:57.15 | 3:50.42 | 143790 | 161081
9 | 35:47.57 | 4:34.71 | 161082 | 181702
10 | 40:22.53 | 4:48.57 | 181703 | 203359
11 | 45:11.35 | 4:00.38 | 203360 | 221397

Track 1

Filename D:\fresh\2010 All Standing Room in the Goodnight Saloon [flac]\Autoclav1.1 - 01 - Waxing.wav

Pre-gap length 0:00:02.00

Peak level 97.1 %
Track quality 100.0 %
Test CRC 9541371E
Copy CRC 9541371E
Track not present in AccurateRip database
Copy OK

Track 2

Filename D:\fresh\2010 All Standing Room in the Goodnight Saloon [flac]\Autoclav1.1 - 02 - Sealed Envelope.wav

Peak level 97.1 %
Track quality 99.9 %
Test CRC EE855F7D
Copy CRC EE855F7D
Track not present in AccurateRip database
Copy OK

Track 3

Filename D:\fresh\2010 All Standing Room in the Goodnight Saloon [flac]\Autoclav1.1 - 03 - Conquer This Perception.wav

Peak level 97.1 %
Track quality 100.0 %
Test CRC 20776381
Copy CRC 20776381
Track not present in AccurateRip database
Copy OK

Track 4

Filename D:\fresh\2010 All Standing Room in the Goodnight Saloon [flac]\Autoclav1.1 - 04 - The In Road.wav

Pre-gap length 0:00:01.98

Peak level 97.2 %
Track quality 99.9 %
Test CRC 4531FABE
Copy CRC 4531FABE
Track not present in AccurateRip database
Copy OK

Track 5

Filename D:\fresh\2010 All Standing Room in the Goodnight Saloon [flac]\Autoclav1.1 - 05 - Saturday's Steps.wav

Pre-gap length 0:00:00.97

Peak level 97.1 %
Track quality 100.0 %
Test CRC F7F8EBC7
Copy CRC F7F8EBC7
Track not present in AccurateRip database
Copy OK

Track 6

Filename D:\fresh\2010 All Standing Room in the Goodnight Saloon [flac]\Autoclav1.1 - 06 - Let Me Sleep (Somewhere).wav

Pre-gap length 0:00:01.98

Peak level 98.7 %
Track quality 100.0 %
Test CRC 07D419D0
Copy CRC 07D419D0
Track not present in AccurateRip database
Copy OK

Track 7

Filename D:\fresh\2010 All Standing Room in the Goodnight Saloon [flac]\Autoclav1.1 - 07 - There's No More Isolation.wav

Pre-gap length 0:00:01.98

Peak level 97.2 %
Track quality 100.0 %
Test CRC 088EA9D2
Copy CRC 088EA9D2
Track not present in AccurateRip database
Copy OK

Track 8

Filename D:\fresh\2010 All Standing Room in the Goodnight Saloon [flac]\Autoclav1.1 - 08 - This Town.wav

Pre-gap length 0:00:00.48

Peak level 97.1 %
Track quality 100.0 %
Test CRC CCD40CA8
Copy CRC CCD40CA8
Track not present in AccurateRip database
Copy OK

Track 9

Filename D:\fresh\2010 All Standing Room in the Goodnight Saloon [flac]\Autoclav1.1 - 09 - Some Subtle Inebriation.wav

Peak level 97.1 %
Track quality 99.9 %
Test CRC B9F463F2
Copy CRC B9F463F2
Track not present in AccurateRip database
Copy OK

Track 10

Filename D:\fresh\2010 All Standing Room in the Goodnight Saloon [flac]\Autoclav1.1 - 10 - Alleine In Der Dunkelheit.wav

Pre-gap length 0:00:00.94

Peak level 98.7 %
Track quality 100.0 %
Test CRC 45C80388
Copy CRC 45C80388
Track not present in AccurateRip database
Copy OK

Track 11

Filename D:\fresh\2010 All Standing Room in the Goodnight Saloon [flac]\Autoclav1.1 - 11 - This Is For Love.wav

Peak level 97.9 %
Track quality 100.0 %
Test CRC 7733E9D2
Copy CRC 7733E9D2
Track not present in AccurateRip database
Copy OK

None of the tracks are present in the AccurateRip database

No errors occurred

End of status report


REM GENRE Electronic
REM DATE 2010
REM DISCID 9E0B870B
REM COMMENT "ExactAudioCopy v0.99pb5"
FILE "01. Waxing.wav" WAVE
TRACK 01 AUDIO
INDEX 01 00:00:00
FILE "02. Sealed Envelope.wav" WAVE
TRACK 02 AUDIO
INDEX 01 00:00:00
FILE "03. Conquer This Perception.wav" WAVE
TRACK 03 AUDIO
INDEX 01 00:00:00
TRACK 04 AUDIO
INDEX 00 04:34:38
FILE "04. The In Road.wav" WAVE
INDEX 01 00:00:00
TRACK 05 AUDIO
INDEX 00 04:30:01
FILE "05. Saturday's Steps.wav" WAVE
INDEX 01 00:00:00
TRACK 06 AUDIO
INDEX 00 04:11:49
FILE "06. Let Me Sleep (Somewhere).wav" WAVE
INDEX 01 00:00:00
TRACK 07 AUDIO
INDEX 00 04:00:09
FILE "07. There's No More Isolation.wav" WAVE
INDEX 01 00:00:00
TRACK 08 AUDIO
INDEX 00 04:40:01
FILE "08. This Town.wav" WAVE
INDEX 01 00:00:00
FILE "09. Some Subtle Inebriation.wav" WAVE
TRACK 09 AUDIO
INDEX 01 00:00:00
TRACK 10 AUDIO
INDEX 00 04:34:00
FILE "10. Alleine In Der Dunkelheit.wav" WAVE
INDEX 01 00:00:00
FILE "11. This Is For Love.wav" WAVE
TRACK 11 AUDIO
INDEX 01 00:00:00

Год выпуска: 2012
Продолжительность: 00:51:44
Треклист:

01. Lights Out (04:20)
02. This Could Be You (04:48)
03. Nine (04:21)
04. Recent Conversation (03:57)
05. Tick.Tock (04:21)
06. Scars (04:36)
07. Inhale/Exhale (04:23)
08. No Running Away From This (03:53)
09. Foolishly Sentimental (03:45)
10. Three Hours (04:18)
11. Today Is The Day (04:48)
12. Stop The Clock (04:14)

-----------------------

DON'T MODIFY THIS FILE

-----------------------

PERFORMER: auCDtect Task Manager, ver. 1.5.1RC6 build 1.5.1.7
Copyright (c) 2008-2010 y-soft. All rights reserved
http://y-soft.org

ANALYZER: auCDtect: CD records authenticity detector, version 0.8.2
Copyright (c) 2004 Oleg Berngardt. All rights reserved.
Copyright (c) 2004 Alexander Djourik. All rights reserved.

FILE: 12. Stop The Clock.flac
Size: 29170731 Hash: B144ADE237E403CCC15B2A8609B6B757 Accuracy: -m0
Conclusion: CDDA 54%
Signature: 429B9FB8629D0A534C6B47C7C211C43BDE02FEAC
FILE: 11. Today Is The Day.flac
Size: 32392164 Hash: A07BC0AB0FDB1007707EF92166D33D76 Accuracy: -m0
Conclusion: CDDA 100%
Signature: 179593A06B85EE6F88A31D188941C2C694270596
FILE: 10. Three Hours.flac
Size: 27494717 Hash: 8D7FEFD22C03561C3F8D1B96ABFF9C85 Accuracy: -m0
Conclusion: CDDA 87%
Signature: CCAD4EFCB13BC36E4AA032D4F59BFF1E3BE9EE64
FILE: 09. Foolishly Sentimental.flac
Size: 27136114 Hash: 1AC9416DB3F4170764D714C81F6DA0B9 Accuracy: -m0
Conclusion: CDDA 76%
Signature: 6C4443E90A6421A8417B89AEB22E4945CDBB9A42
FILE: 08. No Running Away From This.flac
Size: 28330895 Hash: 3088617CF7EC00B90A62989D5FF5C620 Accuracy: -m0
Conclusion: CDDA 100%
Signature: DFA179B67BBAB42B52513B2276CC373D7B45F103
FILE: 07. Inhale,Exhale.flac
Size: 33310595 Hash: DC3CDEEF4BE8016227BE2E5197EA0D5B Accuracy: -m0
Conclusion: CDDA 100%
Signature: B607FE35EFB4C5B93662C8B2F56C754EC9527CC1
FILE: 06. Scars.flac
Size: 36412752 Hash: 2F490B6086E3654CE7EE8268DE66D9A8 Accuracy: -m0
Conclusion: CDDA 100%
Signature: 630CF7B113D085B26FD0309CA8EBF2FCE2386F8B
FILE: 05. Tick.Tock.flac
Size: 30633775 Hash: 3F8A8F238C97F820D6B24887867CA5B1 Accuracy: -m0
Conclusion: CDDA 100%
Signature: 247B932CC269E299A859DC8D776DD85BF1435349
FILE: 04. Recent Conversation.flac
Size: 30148005 Hash: 694129795057236797F27F8830278141 Accuracy: -m0
Conclusion: CDDA 100%
Signature: 9919A2C00D958B67741555DE6AEACD3ECA5B2566
FILE: 03. Nine.flac
Size: 26259653 Hash: 4FA3621099784CE7D773A03A12F07DBF Accuracy: -m0
Conclusion: CDDA 100%
Signature: C4986DAD324DF0493A9C63B729EBA34839234546
FILE: 02. This Could Be You.flac
Size: 38496886 Hash: 12B0B0BA38555C87424E2504B34419F8 Accuracy: -m0
Conclusion: CDDA 100%
Signature: 4D295702475308465AC7FAE4F65921BAF8DC51D8
FILE: 01. Lights Out.flac
Size: 30607316 Hash: B4D47E7FAD6C3C69B42432AD5E114EB6 Accuracy: -m0
Conclusion: CDDA 100%
Signature: 98E56A19EFCE66CC54C35A23CEB12D3E8BBC6704

Год выпуска: 2013
Продолжительность: 00:52:05
Треклист:

01. The Pledge (04:19)
02. Zoff Elemental (04:26)
03. Black Powder (05:22)
04. Wafer Skin (04:06)
05. Big Lighter (04:03)
06. Interweb Pugilism (04:23)
07. Home Made Stratus (04:34)
08. Odersfelt (02:37)
09. Curiosity Missions (04:09)
10. The Currency Stone (04:06)
11. Erbowl (02:02)
12. Walking Walls (04:01)
13. Descending West (03:57)

-----------------------

DON'T MODIFY THIS FILE

-----------------------

PERFORMER: auCDtect Task Manager, ver. 1.5.1RC6 build 1.5.1.7
Copyright (c) 2008-2010 y-soft. All rights reserved
http://y-soft.org

ANALYZER: auCDtect: CD records authenticity detector, version 0.8.2
Copyright (c) 2004 Oleg Berngardt. All rights reserved.
Copyright (c) 2004 Alexander Djourik. All rights reserved.

FILE: 13. Descending West.flac
Size: 23697475 Hash: 9CA0C1AA3AE82D95927D33CC17782CD9 Accuracy: -m0
Conclusion: CDDA 100%
Signature: E6A5D8E94FA063A24016BA05B5880C157592F791
FILE: 12. Walking Walls.flac
Size: 30747570 Hash: E35A675DC82A1ADD89EF78C538234F79 Accuracy: -m0
Conclusion: CDDA 99%
Signature: A1B3C2AB2C123A22EE8D4AF383F2E73DE20D0427
FILE: 11. Erbowl.flac
Size: 7585270 Hash: 42194A20385B456741B319645007D6B6 Accuracy: -m0
Conclusion: CDDA 100%
Signature: 992B693503F9250521A52F268A68D0270C95E96A
FILE: 10. The Currency Stone.flac
Size: 29732425 Hash: A6D0FD3716E00B61D7B38D18C75CD300 Accuracy: -m0
Conclusion: CDDA 99%
Signature: C1D14D1CE8F64F906616E345941ECC6B6B5D5820
FILE: 09. Curiosity Missions.flac
Size: 26767358 Hash: 610DA65DFDB4BAAEB802C46C6F0033F8 Accuracy: -m0
Conclusion: CDDA 100%
Signature: 35D602C1E9C3A87AC0AE997B5228599F7D635E2E
FILE: 08. Odersfelt.flac
Size: 9164754 Hash: 6CC281A807B90578852224909CD9A4A2 Accuracy: -m0
Conclusion: CDDA 92%
Signature: B78D64334751EF280545894DBE70637B20394A2E
FILE: 07. Home Made Stratus.flac
Size: 30988753 Hash: 250C678B832B4B063E887C381ACFDB18 Accuracy: -m0
Conclusion: CDDA 85%
Signature: 2471075814766AEFE0F091A59C52669AF99C7DB4
FILE: 06. Interweb Pugilism.flac
Size: 28048906 Hash: A09EC3FD83BE299EBCA20EC521F05755 Accuracy: -m0
Conclusion: CDDA 100%
Signature: 4A1BE077D6B78F68285C626DB4416F77D06D4B9B
FILE: 05. Big Lighter.flac
Size: 26774042 Hash: 5BE456578821BC31BDA48FF67EE60DD2 Accuracy: -m0
Conclusion: CDDA 100%
Signature: E598AE24D7772F72C78028B5B1B5B4D96F8BF735
FILE: 04. Wafer Skin.flac
Size: 28286270 Hash: 227A0E068D134ACDE9458D531B99F891 Accuracy: -m0
Conclusion: MPEG 95%
Signature: C0364C369444D95A1E744A2EC976B414FA1E33BE
FILE: 03. Black Powder.flac
Size: 34541248 Hash: 6BC58B64F19579406556D2BA0DE540ED Accuracy: -m0
Conclusion: CDDA 100%
Signature: 37AB92DBBDC0CD7754615C7B8E43285E4955C1E3
FILE: 02. Zoff Elemental.flac
Size: 29911546 Hash: 63DD2473A8D86184DA359CFE4FA03BE9 Accuracy: -m0
Conclusion: CDDA 100%
Signature: 0F0C98855D023F07B93C2E9387C74C009AE3E3BE
FILE: 01. The Pledge.flac
Size: 29881115 Hash: 65493F317A9823138C0FDCF54E5F486E Accuracy: -m0
Conclusion: CDDA 100%
Signature: 820736DB664D65B782B429F22E0FD2DB350A240D

Год выпуска: 2014
Продолжительность: 00:42:01
Треклист:

01. 16a. (03:43)
02. In All Guises. (04:40)
03. Waiting Room. (04:27)
04. Spanner Line. (04:18)
05. Not In Service. (04:46)
06. I.D.10.T. Fault. (03:45)
07. Your Face Goes Here. (03:58)
08. Ruin My News Feed. (04:19)
09. Crack Towers. (04:26)
10. Everything Must Go. (03:39)

-----------------------

DON'T MODIFY THIS FILE

-----------------------

PERFORMER: auCDtect Task Manager, ver. 1.5.1RC6 build 1.5.1.7
Copyright (c) 2008-2010 y-soft. All rights reserved
http://y-soft.org

ANALYZER: auCDtect: CD records authenticity detector, version 0.8.2
Copyright (c) 2004 Oleg Berngardt. All rights reserved.
Copyright (c) 2004 Alexander Djourik. All rights reserved.

FILE: 02. In All Guises..flac
Size: 35201881 Hash: 58D7EDBB5D27ABC7F48C0F9C6E3BC270 Accuracy: -m0
Conclusion: CDDA 100%
Signature: E79260A9691D36675DCF99EDBCAA9219967733EB
FILE: 01. 16a..flac
Size: 23433456 Hash: 52E477136DE2AD5CE2D7495B424CD3A1 Accuracy: -m0
Conclusion: CDDA 100%
Signature: EF13CB623DB89E09B3889B44B389593D7D9CB0A6
FILE: 10. Everything Must Go..flac
Size: 21262940 Hash: 49F414F3D917EC1E7E1A758D017E98BF Accuracy: -m0
Conclusion: CDDA 100%
Signature: F0D0E94D5CAA793B579AF543CE581D81B2AD5710
FILE: 09. Crack Towers..flac
Size: 23800827 Hash: 545159994A29EBE455A27503C2FAD70C Accuracy: -m0
Conclusion: CDDA 99%
Signature: 5B4DFF09F080A923171A50BDB23C3F68F54CA097
FILE: 08. Ruin My News Feed..flac
Size: 31497984 Hash: F901FFD702D3AFF34C19B0BA8C0D58DA Accuracy: -m0
Conclusion: CDDA 100%
Signature: 90104A2CA8C2EA6F584850A56C80F259F676B50C
FILE: 07. Your Face Goes Here..flac
Size: 28774628 Hash: 4091253820F21770B473EAA9B5A8AF34 Accuracy: -m0
Conclusion: CDDA 100%
Signature: 97A5B4330F9072A945609CDCF3DBF3E42F10D0F6
FILE: 06. I.D.10.T. Fault..flac
Size: 25533995 Hash: 6601BEE4C0D0B68938D74E5C394C1252 Accuracy: -m0
Conclusion: CDDA 100%
Signature: 02A4E330987D5AF853E614E4A49155DE833C720A
FILE: 05. Not In Service..flac
Size: 31770562 Hash: D4BA4845169D7972D80B8FA2BC76FBBF Accuracy: -m0
Conclusion: CDDA 100%
Signature: 3E3D06D928C6ADA113FCC62820830CE70CC08C32
FILE: 04. Spanner Line..flac
Size: 31253556 Hash: E524E46AB9B4724F7F7D0130DB3075CA Accuracy: -m0
Conclusion: CDDA 100%
Signature: EA3A8A21FA3ABC4701CF6752FEAB0917BD7D0387
FILE: 03. Waiting Room..flac
Size: 31274489 Hash: 1BB85D43796A9D1518CE6F3F5D558256 Accuracy: -m0
Conclusion: CDDA 100%
Signature: F6F4B80155C78D0DE8B04CC502C51EED8D07C873

Год выпуска: 2015
Продолжительность: 00:09:24
Треклист:

01. Autoclav1.1 - Orbit & Entry (04:30)
02. Displacer - Horizon (04:54)

-----------------------

DON'T MODIFY THIS FILE

-----------------------

PERFORMER: auCDtect Task Manager, ver. 1.6.0 RC1 build 1.6.0.1
Copyright (c) 2008-2010 y-soft. All rights reserved
http://y-soft.org

ANALYZER: auCDtect: CD records authenticity detector, version 0.8.2
Copyright (c) 2004 Oleg Berngardt. All rights reserved.
Copyright (c) 2004 Alexander Djourik. All rights reserved.

FILE: 02. Displacer - Horizon.flac
Size: 26318413 Hash: 13F8E9D3DDF2DE5DE36FAD595D395C96 Accuracy: -m0
Conclusion: CDDA 100%
Signature: C1C8CF23E927E317310761039FAD0C5E307BFFE6
FILE: 01. Autoclav1.1 - Orbit & Entry.flac
Size: 27420758 Hash: 7D1388C5666BC498A0E9598DE3CEBCD5 Accuracy: -m0
Conclusion: CDDA 100%
Signature: E3241DF6538A4492CE2801C16075224C2FF20DF0

Год выпуска: 2015
Продолжительность: 00:45:06
Треклист:

01. Short Pier (03:59)
02. Earworm (04:25)
03. Tall Tails And Hate Trails (04:14)
04. Werewolf Country (05:34)
05. Amitriptyline Nun Chuff (04:31)
06. Digital Download Devaluation (04:33)
07. Twaddle (03:57)
08. Constructive Dismissal (04:20)
09. Nato Standard (04:37)
10. Just Do One (04:56)

foobar2000 1.1 / Dynamic Range Meter 1.1.1
log date: 2017-02-17 12:42:06

--------------------------------------------------------------------------------
Analyzed: Autoclav1.1 / Werewolf Country
--------------------------------------------------------------------------------

DR Peak RMS Duration Track
--------------------------------------------------------------------------------
DR7 0.00 dB -9.67 dB 3:59 ?-Short Pier
DR8 0.00 dB -9.39 dB 4:25 ?-Earworm
DR7 0.00 dB -9.31 dB 4:14 ?-Tall Tails And Hate Trails
DR7 0.00 dB -9.65 dB 5:34 ?-Werewolf Country
DR7 0.00 dB -11.38 dB 4:31 ?-Amitriptyline Nun Chuff
DR8 0.00 dB -10.01 dB 4:33 ?-Digital Download Devaluation
DR8 0.00 dB -9.31 dB 3:57 ?-Twaddle
DR7 0.00 dB -8.85 dB 4:20 ?-Constructive Dismissal
DR8 0.00 dB -9.99 dB 4:37 ?-Nato Standard
DR8 0.00 dB -9.70 dB 4:56 ?-Just Do One
--------------------------------------------------------------------------------

Number of tracks: 10
Official DR value: DR8

Samplerate: 44100 Hz
Channels: 2
Bits per sample: 24
Bitrate: 1716 kbps
Codec: FLAC
================================================================================

Год выпуска: 2016
Продолжительность: 00:01:54
Треклист:

01. Moment (01:54)

-----------------------

DON'T MODIFY THIS FILE

-----------------------

PERFORMER: auCDtect Task Manager, ver. 1.6.0 RC1 build 1.6.0.1
Copyright (c) 2008-2010 y-soft. All rights reserved
http://y-soft.org

ANALYZER: auCDtect: CD records authenticity detector, version 0.8.2
Copyright (c) 2004 Oleg Berngardt. All rights reserved.
Copyright (c) 2004 Alexander Djourik. All rights reserved.

FILE: 01. Moment.flac
Size: 7197207 Hash: 294E8D71D9E2B5AF838C9D268E0CD1D6 Accuracy: -m0
Conclusion: MPEG 89%
Signature: 29306B6A122031F2C2D665AC90547B8B908B2630

Время раздачи: 12/7
[NNMClub.to]_Autoclav1.1 FLAC.torrent
 Торрент: Серебряная раздча  Зарегистрирован
 
Примагнититься
Free Leech
Зарегистрируйтесь и скачайте торрент!
36,9 KB
 Зарегистрирован:   17 Фев 2017 17:36:05
 Размер:   3,81 GB  (
 Рейтинг:    (Голосов: 6)
 Поблагодарили:   27
 Проверка:   Оформление проверено модератором 17 Фев 2017 17:36:57
Как cкачать  ·  Как раздать  ·  Правильно оформить  ·  Поднять ратио!  
Показать сообщения:   
Начать новую тему   Ответить на тему    Торрент-трекер NNM-Club -> Electronic -> IDM (Lossless) Часовой пояс: GMT + 3
Страница 1 из 1