Классический форум-трекер
canvas not supported
Нас вместе: 4 125 791

[.que] (Nao Kakimoto) - Discography 20 Releases (2012-2020) Schole, Introducing [FLAC|Lossless|tracks+.cue, tracks] <Modern Classical, Ambient, Acoustic, Neofolk>


 
 
RSS
Начать новую тему   Ответить на тему    Торрент-трекер NNM-Club -> Electronic -> Easy listening (Lossless)
Автор Сообщение
vilator ®
Модератор Музыки
RG Music
 
Стаж: 11 лет 5 мес.
Сообщений: 11105
Ratio: 319,999
Поблагодарили: 218792
100%
Откуда: Minsk
pirates.png
[.que] Discography

[.que] = キュー is the solo project of Nao Kakimoto = カキモトナオ, a Japanese composer and sound designer. Born in 1987, active since 2010.
Раздача является эксклюзивом трекера, просьба при перезаливе на другие ресурсы указывать nnm-club, как источник.
Жанр: Modern Classical, Ambient, Acoustic, Neofolk • Страна: Japan • Год издания: 2012-2020 • Тип издания: CD, Web
Аудиокодек: FLAC (*.flac) • Тип рипа: tracks+.cue, tracks • Продолжительность: 09:19:47 • Источник: RED, bandcamp
Треклист:
Год выпуска: 2012
Жaнр: Ambient/Acoustic/Modern Classical
Продолжительноcть: 00:55:28
Треклист:

01. Kuuki (02:51)
02. Breath (05:38)
03. Early Morning (02:50)
04. After Joy (04:09)
05. Threatening Sky (04:33)
06. Overflow (02:45)
07. Facile (03:14)
08. Lifelights (04:01)
09. Draw (04:22)
10. Fireworks (04:45)
11. Night (05:01)
12. After The Calm (04:07)
13. Silver Light (04:05)
14. Nicole (03:07)

-----------------------

DON'T MODIFY THIS FILE

-----------------------

PERFORMER: auCDtect Task Manager, ver. 1.6.0 RC1 build 1.6.0.1
Copyright (c) 2008-2010 y-soft. All rights reserved
http://y-soft.org

ANALYZER: auCDtect: CD records authenticity detector, version 0.8.2
Copyright (c) 2004 Oleg Berngardt. All rights reserved.
Copyright (c) 2004 Alexander Djourik. All rights reserved.

FILE: 14. Nicole.flac
Size: 18064169 Hash: 09586711B5F38BB29989AD43471E08A7 Accuracy: -m0
Conclusion: MPEG 95%
Signature: 1F8D1151321F8729210D5703AF7C139918034647
FILE: 13. Silver Light.flac
Size: 30369558 Hash: C348839BAA8632930EB1671619F071B0 Accuracy: -m0
Conclusion: CDDA 100%
Signature: DF3D18BDCA27F3213AA16CBC17A16A91F3F8D069
FILE: 12. After The Calm.flac
Size: 24444315 Hash: 5D938E6D292A09658F2DB02563E719E8 Accuracy: -m0
Conclusion: MPEG 100%
Signature: DCC8C88B975607CD21E136DA5BEDC9ADC880BD38
FILE: 11. Night.flac
Size: 25225511 Hash: 1D34CA61A2E6FB2CBEA0ECB5CACF700D Accuracy: -m0
Conclusion: MPEG 95%
Signature: 3921256E7446CFB675A7DD8381475DAC44AE764B
FILE: 10. Fireworks.flac
Size: 27945112 Hash: 30A3D1F639E60C63DDE94940AE3C52BD Accuracy: -m0
Conclusion: MPEG 95%
Signature: 1E62F9E2FC9A899481977345A844602FC6F293B8
FILE: 09. Draw.flac
Size: 22832274 Hash: A3EE8F631BF3DD569261A6B71D64E6D1 Accuracy: -m0
Conclusion: MPEG 100%
Signature: D6670749E01B8DA83B0B0EA5DAD9CE55BC992D05
FILE: 08. Lifelights.flac
Size: 25393407 Hash: 4A495438DC725BE165C1186A70C5AA98 Accuracy: -m0
Conclusion: CDDA 100%
Signature: 5ADF2306714A0EB15CC3FE70E6088812CEF105B2
FILE: 07. Facile.flac
Size: 20058028 Hash: 193F4F1077E48C42023DA6F14C73EF40 Accuracy: -m0
Conclusion: CDDA 100%
Signature: 0BD77DBF746E34F504C90DEC39B4AA0AF6FAB4AC
FILE: 06. Overflow.flac
Size: 14588733 Hash: 91D02823B7567EE549FE1C109BFCBD4D Accuracy: -m0
Conclusion: MPEG 99%
Signature: 43DF3F895A9B500B64C1BC2B7EEC6E2E32A2C7F1
FILE: 05. Threatening Sky.flac
Size: 28896807 Hash: 9F75D594DAA0A4CC0C25B836E02F8D33 Accuracy: -m0
Conclusion: MPEG 95%
Signature: F65F784AB355833892771E68BD92840938030AD4
FILE: 04. After Joy.flac
Size: 26481990 Hash: 0D974D05FF30844D8924DA50F117BA45 Accuracy: -m0
Conclusion: MPEG 95%
Signature: 1373D96190EDD00AB074005914762B6CA935F4A0
FILE: 03. Early Morning.flac
Size: 19241326 Hash: 9333A704FFA6C30312798A5A0BED3C2F Accuracy: -m0
Conclusion: ???
Signature: 3B6889F73C8E017894B3D383197002EF61722A28
FILE: 02. Breath.flac
Size: 35607608 Hash: 766160CC0BA99A83D1177669718D7460 Accuracy: -m0
Conclusion: CDDA 100%
Signature: 6076D389587221ADC2406D72246604D5A4AE2C77
FILE: 01. Kuuki.flac
Size: 14321389 Hash: 0A2590D07944976A3F91A351AF9B3EC6 Accuracy: -m0
Conclusion: CDDA 87%
Signature: FF61D598251B36A06EC0C873B78F2A90C0D80FDC

Год выпуска: 2013
Жaнр: Ambient/Acoustic/Modern Classical/Neofolk
Продолжительноcть: 00:52:38
Треклист:

01. Sunset (04:12)
02. Air (04:04)
03. Comet (04:07)
04. Bud (02:38)
05. Flora (06:07)
06. Daybreak (05:45)
07. Rest (03:59)
08. Uncertain (02:52)
09. Drops (04:11)
10. Decide (03:33)
11. Paddle (03:35)
12. Rotation (04:31)
13. Ending (03:04)

Exact Audio Copy V1.0 beta 3 from 29. August 2011

EAC extraction logfile from 13. June 2013, 21:28

[.que] / drama

Used drive : ASUS DRW-24B1ST c Adapter: 0 ID: 1

Read mode : Secure
Utilize accurate stream : Yes
Defeat audio cache : Yes
Make use of C2 pointers : No

Read offset correction : 6
Overread into Lead-In and Lead-Out : No
Fill up missing offset samples with silence : Yes
Delete leading and trailing silent blocks : No
Null samples used in CRC calculations : Yes
Used interface : Native Win32 interface for Win NT & 2000
Gap handling : Appended to previous track

Used output format : User Defined Encoder
Selected bitrate : 1024 kBit/s
Quality : High
Add ID3 tag : No
Command line compressor : C:\Program Files (x86)\Exact Audio Copy\Flac\flac.exe
Additional command line options : -8 -V -T "ARTIST=%artist%" -T "TITLE=%title%" -T "ALBUM=%albumtitle%" -T "DATE=%year%" -T "TRACKNUMBER=%tracknr%" -T "GENRE=%genre%" -T "PERFORMER=%albuminterpret%" -T "COMPOSER=%composer%" %haslyrics%--tag-from-file=LYRICS="%lyricsfile%"%haslyrics% -T "ALBUMARTIST=%albumartist%" -T "DISCNUMBER=%cdnumber%" -T "TOTALDISCS=%totalcds%" -T "TOTALTRACKS=%numtracks%" -T "COMMENT=%comment%" %source% -o %dest%

TOC of the extracted CD

Track | Start | Length | Start sector | End sector
---------------------------------------------------------
1 | 0:00.00 | 4:11.72 | 0 | 18896
2 | 4:11.72 | 4:03.68 | 18897 | 37189
3 | 8:15.65 | 4:06.63 | 37190 | 55702
4 | 12:22.53 | 2:37.69 | 55703 | 67546
5 | 15:00.47 | 6:07.19 | 67547 | 95090
6 | 21:07.66 | 5:45.33 | 95091 | 120998
7 | 26:53.24 | 3:58.49 | 120999 | 138897
8 | 30:51.73 | 2:51.73 | 138898 | 151795
9 | 33:43.71 | 4:11.23 | 151796 | 170643
10 | 37:55.19 | 3:33.01 | 170644 | 186619
11 | 41:28.20 | 3:34.61 | 186620 | 202730
12 | 45:03.06 | 4:30.47 | 202731 | 223027
13 | 49:33.53 | 3:03.59 | 223028 | 236811

Track 1

Filename Z:\music\what.cd\[.que] - drama (2013)\01 - sunset.wav

Pre-gap length 0:00:02.00

Peak level 98.6 %
Extraction speed 4.2 X
Track quality 99.9 %
Test CRC F827D450
Copy CRC F827D450
Track not present in AccurateRip database
Copy OK

Track 2

Filename Z:\music\what.cd\[.que] - drama (2013)\02 - air.wav

Peak level 98.6 %
Extraction speed 5.4 X
Track quality 100.0 %
Test CRC BA0BE4E2
Copy CRC BA0BE4E2
Track not present in AccurateRip database
Copy OK

Track 3

Filename Z:\music\what.cd\[.que] - drama (2013)\03 - comet.wav

Peak level 98.8 %
Extraction speed 5.6 X
Track quality 100.0 %
Test CRC 2580289F
Copy CRC 2580289F
Track not present in AccurateRip database
Copy OK

Track 4

Filename Z:\music\what.cd\[.que] - drama (2013)\04 - bud.wav

Peak level 95.3 %
Extraction speed 5.8 X
Track quality 100.0 %
Test CRC 365C2912
Copy CRC 365C2912
Track not present in AccurateRip database
Copy OK

Track 5

Filename Z:\music\what.cd\[.que] - drama (2013)\05 - flora.wav

Peak level 98.6 %
Extraction speed 6.5 X
Track quality 100.0 %
Test CRC 6DD08C3D
Copy CRC 6DD08C3D
Track not present in AccurateRip database
Copy OK

Track 6

Filename Z:\music\what.cd\[.que] - drama (2013)\06 - daybreak.wav

Peak level 98.6 %
Extraction speed 7.1 X
Track quality 100.0 %
Test CRC 064813FE
Copy CRC 064813FE
Track not present in AccurateRip database
Copy OK

Track 7

Filename Z:\music\what.cd\[.que] - drama (2013)\07 - rest.wav

Peak level 98.6 %
Extraction speed 7.2 X
Track quality 100.0 %
Test CRC 3EF31BB6
Copy CRC 3EF31BB6
Track not present in AccurateRip database
Copy OK

Track 8

Filename Z:\music\what.cd\[.que] - drama (2013)\08 - uncertain.wav

Peak level 98.6 %
Extraction speed 5.6 X
Track quality 99.9 %
Test CRC 6A157D48
Copy CRC 6A157D48
Track not present in AccurateRip database
Copy OK

Track 9

Filename Z:\music\what.cd\[.que] - drama (2013)\09 - drops.wav

Peak level 98.8 %
Extraction speed 6.4 X
Track quality 99.9 %
Test CRC 2E5B4C33
Copy CRC 2E5B4C33
Track not present in AccurateRip database
Copy OK

Track 10

Filename Z:\music\what.cd\[.que] - drama (2013)\10 - decide.wav

Peak level 98.8 %
Extraction speed 7.7 X
Track quality 100.0 %
Test CRC 6A028C9C
Copy CRC 6A028C9C
Track not present in AccurateRip database
Copy OK

Track 11

Filename Z:\music\what.cd\[.que] - drama (2013)\11 - paddle.wav

Peak level 98.8 %
Extraction speed 6.5 X
Track quality 99.9 %
Test CRC 8067D72D
Copy CRC 8067D72D
Track not present in AccurateRip database
Copy OK

Track 12

Filename Z:\music\what.cd\[.que] - drama (2013)\12 - rotation.wav

Peak level 98.7 %
Extraction speed 8.4 X
Track quality 100.0 %
Test CRC 6CCFC0CE
Copy CRC 6CCFC0CE
Track not present in AccurateRip database
Copy OK

Track 13

Filename Z:\music\what.cd\[.que] - drama (2013)\13 - ending.wav

Peak level 98.6 %
Extraction speed 8.2 X
Track quality 100.0 %
Test CRC BF22B108
Copy CRC BF22B108
Track not present in AccurateRip database
Copy OK

None of the tracks are present in the AccurateRip database

No errors occurred

End of status report

---- CUETools DB Plugin V2.1.3

[CTDB TOCID: pUqstd3MuA9sKCCFR_iFrrCBlOM-] disk not present in database, Submit result: database access error: The request was aborted: The request was canceled.

==== Log checksum 373E8B3ABD55458B386C977EE3BEBCDD339B8ABD89F91C6AF8E931357A65FA62 ====


REM GENRE Electronic
REM DATE 2013
REM DISCID B90C550D
REM COMMENT "ExactAudioCopy v1.0b3"
PERFORMER "[.que]"
TITLE "drama"
FILE "01 - sunset.wav" WAVE
TRACK 01 AUDIO
TITLE "sunset"
PERFORMER "[.que]"
FLAGS DCP
INDEX 01 00:00:00
FILE "02 - air.wav" WAVE
TRACK 02 AUDIO
TITLE "air"
PERFORMER "[.que]"
FLAGS DCP
INDEX 01 00:00:00
FILE "03 - comet.wav" WAVE
TRACK 03 AUDIO
TITLE "comet"
PERFORMER "[.que]"
FLAGS DCP
INDEX 01 00:00:00
FILE "04 - bud.wav" WAVE
TRACK 04 AUDIO
TITLE "bud"
PERFORMER "[.que]"
FLAGS DCP
INDEX 01 00:00:00
FILE "05 - flora.wav" WAVE
TRACK 05 AUDIO
TITLE "flora"
PERFORMER "[.que]"
FLAGS DCP
INDEX 01 00:00:00
FILE "06 - daybreak.wav" WAVE
TRACK 06 AUDIO
TITLE "daybreak"
PERFORMER "[.que]"
FLAGS DCP
INDEX 01 00:00:00
FILE "07 - rest.wav" WAVE
TRACK 07 AUDIO
TITLE "rest"
PERFORMER "[.que]"
FLAGS DCP
INDEX 01 00:00:00
FILE "08 - uncertain.wav" WAVE
TRACK 08 AUDIO
TITLE "uncertain"
PERFORMER "[.que]"
FLAGS DCP
INDEX 01 00:00:00
FILE "09 - drops.wav" WAVE
TRACK 09 AUDIO
TITLE "drops"
PERFORMER "[.que]"
FLAGS DCP
INDEX 01 00:00:00
FILE "10 - decide.wav" WAVE
TRACK 10 AUDIO
TITLE "decide"
PERFORMER "[.que]"
FLAGS DCP
INDEX 01 00:00:00
FILE "11 - paddle.wav" WAVE
TRACK 11 AUDIO
TITLE "paddle"
PERFORMER "[.que]"
FLAGS DCP
INDEX 01 00:00:00
FILE "12 - rotation.wav" WAVE
TRACK 12 AUDIO
TITLE "rotation"
PERFORMER "[.que]"
FLAGS DCP
INDEX 01 00:00:00
FILE "13 - ending.wav" WAVE
TRACK 13 AUDIO
TITLE "ending"
PERFORMER "[.que]"
FLAGS DCP
INDEX 01 00:00:00

Год выпуска: 2014
Жaнр: Ambient/Acoustic/Modern Classical
Продолжительноcть: 00:32:20
Треклист:

01. Departure (03:36)
02. Halfway (03:36)
03. Wave (03:42)
04. Clear Water (06:04)
05. Summer Memory (02:56)
06. After Sunset (03:40)
07. Homeward (03:42)
08. See You (05:04)

Exact Audio Copy V1.0 beta 3 from 29. August 2011

EAC extraction logfile from 4. November 2014, 22:02

[.que] / Water's Edge

Used drive : ASUS DRW-24B1ST c Adapter: 0 ID: 1

Read mode : Secure
Utilize accurate stream : Yes
Defeat audio cache : Yes
Make use of C2 pointers : No

Read offset correction : 6
Overread into Lead-In and Lead-Out : No
Fill up missing offset samples with silence : Yes
Delete leading and trailing silent blocks : No
Null samples used in CRC calculations : Yes
Used interface : Native Win32 interface for Win NT & 2000
Gap handling : Appended to previous track

Used output format : User Defined Encoder
Selected bitrate : 1024 kBit/s
Quality : High
Add ID3 tag : No
Command line compressor : C:\Program Files (x86)\Exact Audio Copy\Flac\flac.exe
Additional command line options : -8 -V -T "ARTIST=%artist%" -T "TITLE=%title%" -T "ALBUM=%albumtitle%" -T "DATE=%year%" -T "TRACKNUMBER=%tracknr%" -T "GENRE=%genre%" -T "PERFORMER=%albuminterpret%" -T "COMPOSER=%composer%" %haslyrics%--tag-from-file=LYRICS="%lyricsfile%"%haslyrics% -T "ALBUMARTIST=%albumartist%" -T "DISCNUMBER=%cdnumber%" -T "TOTALDISCS=%totalcds%" -T "TOTALTRACKS=%numtracks%" -T "COMMENT=%comment%" %source% -o %dest%

TOC of the extracted CD

Track | Start | Length | Start sector | End sector
---------------------------------------------------------
1 | 0:00.00 | 3:36.03 | 0 | 16202
2 | 3:36.03 | 3:36.03 | 16203 | 32405
3 | 7:12.06 | 3:42.06 | 32406 | 49061
4 | 10:54.12 | 6:04.07 | 49062 | 76368
5 | 16:58.19 | 2:56.00 | 76369 | 89568
6 | 19:54.19 | 3:40.03 | 89569 | 106071
7 | 23:34.22 | 3:42.05 | 106072 | 122726
8 | 27:16.27 | 5:04.07 | 122727 | 145533

Track 1

Filename Z:\music\what.cd\[.que] - Water's Edge (2014)\01 - Departure.wav

Pre-gap length 0:00:02.00

Peak level 97.7 %
Extraction speed 4.7 X
Track quality 100.0 %
Test CRC C2B1E43A
Copy CRC C2B1E43A
Track not present in AccurateRip database
Copy OK

Track 2

Filename Z:\music\what.cd\[.que] - Water's Edge (2014)\02 - Halfway.wav

Peak level 97.7 %
Extraction speed 5.1 X
Track quality 100.0 %
Test CRC 091E3F05
Copy CRC 091E3F05
Track not present in AccurateRip database
Copy OK

Track 3

Filename Z:\music\what.cd\[.que] - Water's Edge (2014)\03 - Wave.wav

Peak level 97.7 %
Extraction speed 4.6 X
Track quality 99.9 %
Test CRC 3A918D0D
Copy CRC 3A918D0D
Track not present in AccurateRip database
Copy OK

Track 4

Filename Z:\music\what.cd\[.que] - Water's Edge (2014)\04 - Clear Water.wav

Peak level 97.7 %
Extraction speed 6.3 X
Track quality 100.0 %
Test CRC BDD929D8
Copy CRC BDD929D8
Track not present in AccurateRip database
Copy OK

Track 5

Filename Z:\music\what.cd\[.que] - Water's Edge (2014)\05 - Summer Memory.wav

Peak level 97.7 %
Extraction speed 6.1 X
Track quality 100.0 %
Test CRC 022D9172
Copy CRC 022D9172
Track not present in AccurateRip database
Copy OK

Track 6

Filename Z:\music\what.cd\[.que] - Water's Edge (2014)\06 - After Sunset.wav

Peak level 97.8 %
Extraction speed 6.6 X
Track quality 100.0 %
Test CRC 38B86548
Copy CRC 38B86548
Track not present in AccurateRip database
Copy OK

Track 7

Filename Z:\music\what.cd\[.que] - Water's Edge (2014)\07 - Homeward.wav

Peak level 97.7 %
Extraction speed 5.7 X
Track quality 99.9 %
Test CRC FE207199
Copy CRC FE207199
Track not present in AccurateRip database
Copy OK

Track 8

Filename Z:\music\what.cd\[.que] - Water's Edge (2014)\08 - See You.wav

Peak level 94.4 %
Extraction speed 6.5 X
Track quality 99.9 %
Test CRC 10886719
Copy CRC 10886719
Track not present in AccurateRip database
Copy OK

None of the tracks are present in the AccurateRip database

No errors occurred

End of status report

---- CUETools DB Plugin V2.1.3

[CTDB TOCID: S8pitgMj1n0cGzAyBSLR_aLxW1w-] disk not present in database, Submit result: database access error: The request was aborted: The request was canceled.

==== Log checksum FFFF11DD82C37C8E8643CD14834AE916911D91715817EB59D175183ED5491360 ====

REM GENRE Ambient
REM DATE 2014
REM DISCID 5B079408
REM COMMENT "ExactAudioCopy v1.0b3"
PERFORMER "[.que]"
TITLE "Water's Edge"
FILE "01 - Departure.wav" WAVE
TRACK 01 AUDIO
TITLE "Departure"
PERFORMER "[.que]"
INDEX 01 00:00:00
FILE "02 - Halfway.wav" WAVE
TRACK 02 AUDIO
TITLE "Halfway"
PERFORMER "[.que]"
INDEX 01 00:00:00
FILE "03 - Wave.wav" WAVE
TRACK 03 AUDIO
TITLE "Wave"
PERFORMER "[.que]"
INDEX 01 00:00:00
FILE "04 - Clear Water.wav" WAVE
TRACK 04 AUDIO
TITLE "Clear Water"
PERFORMER "[.que]"
INDEX 01 00:00:00
FILE "05 - Summer Memory.wav" WAVE
TRACK 05 AUDIO
TITLE "Summer Memory"
PERFORMER "[.que]"
INDEX 01 00:00:00
FILE "06 - After Sunset.wav" WAVE
TRACK 06 AUDIO
TITLE "After Sunset"
PERFORMER "[.que]"
INDEX 01 00:00:00
FILE "07 - Homeward.wav" WAVE
TRACK 07 AUDIO
TITLE "Homeward"
PERFORMER "[.que]"
INDEX 01 00:00:00
FILE "08 - See You.wav" WAVE
TRACK 08 AUDIO
TITLE "See You"
PERFORMER "[.que]"
INDEX 01 00:00:00

Год выпуска: 2015
Жaнр: Ambient/Acoustic/Modern Classical
Продолжительноcть: 00:49:23
Треклист:

01. Origin (02:10)
02. Home (03:32)
03. Joint (02:46)
04. Anew (04:02)
05. Trivial Lie (04:34)
06. Himitsu (05:20)
07. Lullaby (03:27)
08. Springlike (04:01)
09. Misty Moon (03:54)
10. Curtain (03:18)
11. Verdure (04:57)
12. Will (04:59)
13. Never End (02:23)

Exact Audio Copy V1.0 beta 3 from 29. August 2011

EAC extraction logfile from 3. May 2015, 0:10

[.que] / Brilliant Hopes

Used Drive : ASUS DRW-24B1ST c Adapter: 0 ID: 1 (not found in database)

Read mode : Secure
Utilize accurate stream : Yes
Defeat audio cache : Yes
Make use of C2 pointers : No

Read offset correction : 6
Overread into Lead-In and Lead-Out : No
Fill up missing offset samples with silence : Yes
Delete leading and trailing silent blocks : No
Null samples used in CRC calculations : Yes
Used interface : Native Win32 interface for Win NT & 2000
Gap handling : Appended to previous track

Used output format : User Defined Encoder
Selected bitrate : 1024 kBit/s
Quality : High
Add ID3 tag : No
Command line compressor : C:\Program Files (x86)\Exact Audio Copy\Flac\flac.exe
Additional command line options : -8 -V -T "ARTIST=%artist%" -T "TITLE=%title%" -T "ALBUM=%albumtitle%" -T
"DATE=%year%" -T "TRACKNUMBER=%tracknr%" -T "GENRE=%genre%" -T "PERFORMER=%albuminterpret%" -T "COMPOSER=%composer%" %haslyrics%--tag-from-file=LYRICS="%lyricsfile%"%haslyrics% -T "ALBUMARTIST=%albumartist%" -T "DISCNUMBER=%cdnumber%" -T "TOTALDISCS=%totalcds%" -T "TOTALTRACKS=%numtracks%" -T "COMMENT=%comment%" %source% -o %dest%

TOC of the extracted CD

Track | Start | Length | Start sector | End sector
---------------------------------------------------------
1 | 0:00.00 | 2:10.16 | 0 | 9765
2 | 2:10.16 | 3:31.38 | 9766 | 25628
3 | 5:41.54 | 2:46.37 | 25629 | 38115
4 | 8:28.16 | 4:02.22 | 38116 | 56287
5 | 12:30.38 | 4:33.46 | 56288 | 76808
6 | 17:04.09 | 5:20.22 | 76809 | 100830
7 | 22:24.31 | 3:27.00 | 100831 | 116355
8 | 25:51.31 | 4:01.23 | 116356 | 134453
9 | 29:52.54 | 3:54.37 | 134454 | 152040
10 | 33:47.16 | 3:18.00 | 152041 | 166890
11 | 37:05.16 | 4:56.60 | 166891 | 189150
12 | 42:02.01 | 4:59.30 | 189151 | 211605
13 | 47:01.31 | 2:23.14 | 211606 | 222344

Track 1

Filename Z:\music\what.cd\[.que] - Brilliant Hopes (2015)\01 - Origin.wav

Pre-gap length 0:00:02.00

Peak level 98.8 %
Extraction speed 1.6 X
Track quality 100.0 %
Test CRC D3B4B306
Copy CRC D3B4B306
Accurately ripped (confidence 1) [BBFC4C45] (AR v2)
Copy OK

Track 2

Filename Z:\music\what.cd\[.que] - Brilliant Hopes (2015)\02 - Home.wav

Peak level 98.8 %
Extraction speed 1.4 X
Track quality 99.9 %
Test CRC 6C1004B5
Copy CRC 6C1004B5
Accurately ripped (confidence 1) [C500ABD6] (AR v2)
Copy OK

Track 3

Filename Z:\music\what.cd\[.que] - Brilliant Hopes (2015)\03 - Joint.wav

Peak level 98.8 %
Extraction speed 2.0 X
Track quality 100.0 %
Test CRC 7E027E66
Copy CRC 7E027E66
Accurately ripped (confidence 1) [2686BDD4] (AR v2)
Copy OK

Track 4

Filename Z:\music\what.cd\[.que] - Brilliant Hopes (2015)\04 - Anew.wav

Peak level 98.8 %
Extraction speed 2.3 X
Track quality 100.0 %
Test CRC 68D83C5B
Copy CRC 68D83C5B
Accurately ripped (confidence 1) [92F30D2E] (AR v2)
Copy OK

Track 5

Filename Z:\music\what.cd\[.que] - Brilliant Hopes (2015)\05 - Trivial Lie.wav

Peak level 98.8 %
Extraction speed 2.5 X
Track quality 100.0 %
Test CRC CD4C7762
Copy CRC CD4C7762
Accurately ripped (confidence 1) [1DA1E7BB] (AR v2)
Copy OK

Track 6

Filename Z:\music\what.cd\[.que] - Brilliant Hopes (2015)\06 - Himitsu.wav

Peak level 98.8 %
Extraction speed 2.7 X
Track quality 100.0 %
Test CRC D28A691E
Copy CRC D28A691E
Accurately ripped (confidence 1) [3963C936] (AR v2)
Copy OK

Track 7

Filename Z:\music\what.cd\[.que] - Brilliant Hopes (2015)\07 - Lullaby.wav

Peak level 98.8 %
Extraction speed 2.7 X
Track quality 100.0 %
Test CRC 6215DE15
Copy CRC 6215DE15
Accurately ripped (confidence 1) [90C58199] (AR v2)
Copy OK

Track 8

Filename Z:\music\what.cd\[.que] - Brilliant Hopes (2015)\08 - Springlike.wav

Peak level 98.8 %
Extraction speed 2.9 X
Track quality 100.0 %
Test CRC F31ECCDB
Copy CRC F31ECCDB
Accurately ripped (confidence 1) [5F874CEB] (AR v2)
Copy OK

Track 9

Filename Z:\music\what.cd\[.que] - Brilliant Hopes (2015)\09 - Misty Moon.wav

Peak level 98.8 %
Extraction speed 3.0 X
Track quality 100.0 %
Test CRC 26A30A9D
Copy CRC 26A30A9D
Accurately ripped (confidence 1) [EBEACB93] (AR v2)
Copy OK

Track 10

Filename Z:\music\what.cd\[.que] - Brilliant Hopes (2015)\10 - Curtain.wav

Peak level 98.8 %
Extraction speed 3.1 X
Track quality 100.0 %
Test CRC EC601760
Copy CRC EC601760
Accurately ripped (confidence 1) [D3682CF7] (AR v2)
Copy OK

Track 11

Filename Z:\music\what.cd\[.que] - Brilliant Hopes (2015)\11 - Verdure.wav

Peak level 98.8 %
Extraction speed 2.6 X
Track quality 99.9 %
Test CRC DFC0D31B
Copy CRC DFC0D31B
Accurately ripped (confidence 1) [438F94AF] (AR v2)
Copy OK

Track 12

Filename Z:\music\what.cd\[.que] - Brilliant Hopes (2015)\12 - Will.wav

Peak level 98.8 %
Extraction speed 3.5 X
Track quality 100.0 %
Test CRC D5D29761
Copy CRC D5D29761
Accurately ripped (confidence 1) [4E2D107F] (AR v2)
Copy OK

Track 13

Filename Z:\music\what.cd\[.que] - Brilliant Hopes (2015)\13 - Never End.wav

Peak level 98.8 %
Extraction speed 3.2 X
Track quality 100.0 %
Test CRC 054AD059
Copy CRC 054AD059
Accurately ripped (confidence 1) [B3228CC3] (AR v2)
Copy OK

All tracks accurately ripped

No errors occurred

End of status report

---- CUETools DB Plugin V2.1.3

[CTDB TOCID: w.Jq.bk0JfWAFKi6ybsbZNtNPEs-] found, Submit result: w.Jq.bk0JfWAFKi6ybsbZNtNPEs- has been confirmed
[18597798] (1/1) Accurately ripped

==== Log checksum EAC9F29151C4601999EE90A9D6A9B3903AA19CC3F3A7614C05292A2A32DD3447 ====

REM GENRE Ambient
REM DATE 2015
REM DISCID 960B940D
REM COMMENT "ExactAudioCopy v1.0b3"
PERFORMER "[.que]"
TITLE "Brilliant Hopes"
FILE "01 - Origin.wav" WAVE
TRACK 01 AUDIO
TITLE "Origin"
PERFORMER "[.que]"
FLAGS DCP
INDEX 01 00:00:00
FILE "02 - Home.wav" WAVE
TRACK 02 AUDIO
TITLE "Home"
PERFORMER "[.que]"
FLAGS DCP
INDEX 01 00:00:00
FILE "03 - Joint.wav" WAVE
TRACK 03 AUDIO
TITLE "Joint"
PERFORMER "[.que]"
FLAGS DCP
INDEX 01 00:00:00
FILE "04 - Anew.wav" WAVE
TRACK 04 AUDIO
TITLE "Anew"
PERFORMER "[.que]"
FLAGS DCP
INDEX 01 00:00:00
FILE "05 - Trivial Lie.wav" WAVE
TRACK 05 AUDIO
TITLE "Trivial Lie"
PERFORMER "[.que]"
FLAGS DCP
INDEX 01 00:00:00
FILE "06 - Himitsu.wav" WAVE
TRACK 06 AUDIO
TITLE "Himitsu"
PERFORMER "[.que]"
FLAGS DCP
INDEX 01 00:00:00
FILE "07 - Lullaby.wav" WAVE
TRACK 07 AUDIO
TITLE "Lullaby"
PERFORMER "[.que]"
FLAGS DCP
INDEX 01 00:00:00
FILE "08 - Springlike.wav" WAVE
TRACK 08 AUDIO
TITLE "Springlike"
PERFORMER "[.que]"
FLAGS DCP
INDEX 01 00:00:00
FILE "09 - Misty Moon.wav" WAVE
TRACK 09 AUDIO
TITLE "Misty Moon"
PERFORMER "[.que]"
FLAGS DCP
INDEX 01 00:00:00
FILE "10 - Curtain.wav" WAVE
TRACK 10 AUDIO
TITLE "Curtain"
PERFORMER "[.que]"
FLAGS DCP
INDEX 01 00:00:00
FILE "11 - Verdure.wav" WAVE
TRACK 11 AUDIO
TITLE "Verdure"
PERFORMER "[.que]"
FLAGS DCP
INDEX 01 00:00:00
FILE "12 - Will.wav" WAVE
TRACK 12 AUDIO
TITLE "Will"
PERFORMER "[.que]"
FLAGS DCP
INDEX 01 00:00:00
FILE "13 - Never End.wav" WAVE
TRACK 13 AUDIO
TITLE "Never End"
PERFORMER "[.que]"
FLAGS DCP
INDEX 01 00:00:00

Время раздачи: 12/7
[NNMClub.to]_[.que] FLAC.torrent
 Торрент: Серебряная раздча  Зарегистрирован
 
Зарегистрируйтесь и скачайте торрент!
32,7 KB

Примагнититься
 Зарегистрирован:   16 Сен 2020 10:56:31
 Размер:   3,17 GB  (
 Рейтинг:   4,9 (Голосов: 13)
 Поблагодарили:   82
 Проверка:   Оформление проверено модератором 16 Сен 2020 10:58:43
Как cкачать  ·  Как раздать  ·  Правильно оформить  ·  Поднять ратио!  
vilator ®
Модератор Музыки
RG Music
 
Стаж: 11 лет 5 мес.
Сообщений: 11105
Ratio: 319,999
Поблагодарили: 218792
100%
Откуда: Minsk
pirates.png
Раздачу обновил полностью.
vilator ®
Модератор Музыки
RG Music
 
Стаж: 11 лет 5 мес.
Сообщений: 11105
Ratio: 319,999
Поблагодарили: 218792
100%
Откуда: Minsk
pirates.png
Обновление:
2020 And Inside (WEB)
Показать сообщения:   
Начать новую тему   Ответить на тему    Торрент-трекер NNM-Club -> Electronic -> Easy listening (Lossless) Часовой пояс: GMT + 3
Страница 1 из 1