Интеллигентный торрент-трекер
canvas not supported
Нас вместе: 4 345 329

00.db (John 00 Fleming & The Digital Blonde) - Heaven & Hell (2009) [FLAC|Lossless|tracks+.cue] <Trance, Psy-Trance, Progressive Trance, Ambient>


 
 
RSS
Начать новую тему   Ответить на тему    Торрент-трекер NNM-Club -> Electronic -> Trance (Lossless)
Автор Сообщение
Lazyra ®
Модератор Electronic
RG Music
 
Стаж: 6 лет 3 мес.
Сообщений: 4699
Ratio: 1754,278
Раздал: 59,81 TB
Поблагодарили: 99396
100%
Откуда: Владимир
russia.gif
00.db (John 00 Fleming & The Digital Blonde) - Heaven & Hell (2009)



Год: 2009
Жанр: Trance, Psy-Trance, Progressive Trance, Ambient
Продолжительность: 02:37:20
Лейбл: Fektive Records
Каталог №: FKCD009
Сканы: Комплект
Тип рипа: tracks+.cue
Кодек: FLAC
Битрейт: Lossless

Треклист:


Треклист:
01. 00.db - Magna (2:17)
02. 00.db - Indigo (9:48)
03. 00.db - Lantra (Album Version) (8:41)
04. 00.db - Ark (Album Version) (7:28)
05. 00.db - Orba (Album Version) (9:48)
06. 00.db - Pro 1 (Album Version) (12:28)
07. 00.db - Entropy (8:40)
08. 00.db - Darkness (Album Version) (8:21)
09. Astrix - Ice Cream (00.db Mix) (10:48)

Продолжительность: 01:18:19
Код: выделить все

Exact Audio Copy V0.99 prebeta 5 from 4. May 2009

EAC extraction logfile from 10. November 2009, 8:25

00.db / Heaven & Hell

Used drive  : HL-DT-STBD-RE  GBW-H20L   Adapter: 2  ID: 1

Read mode               : Secure
Utilize accurate stream : Yes
Defeat audio cache      : Yes
Make use of C2 pointers : No

Read offset correction                      : 667
Overread into Lead-In and Lead-Out          : No
Fill up missing offset samples with silence : Yes
Delete leading and trailing silent blocks   : No
Null samples used in CRC calculations       : No
Used interface                              : Native Win32 interface for Win NT & 2000
Gap handling                                : Appended to previous track

Used output format              : User Defined Encoder
Selected bitrate                : 1024 kBit/s
Quality                         : High
Add ID3 tag                     : No
Command line compressor         : C:\Program Files (x86)\FLACx86\flac.exe
Additional command line options : -8 -V -T "ARTIST=%a" -T "TITLE=%t" -T "ALBUM=%g" -T "DATE=%y" -T "TRACKNUMBER=%n" -T "GENRE=%m" -T "COMMENT=%e" -T "COMMENT=EAC (Secure Mode)" --delete-input-file %s

TOC of the extracted CD

     Track |   Start  |  Length  | Start sector | End sector
    ---------------------------------------------------------
        1  |  0:00.00 |  2:17.10 |         0    |    10284
        2  |  2:17.10 |  9:48.41 |     10285    |    54425
        3  | 12:05.51 |  8:41.00 |     54426    |    93500
        4  | 20:46.51 |  7:28.41 |     93501    |   127141
        5  | 28:15.17 |  9:48.47 |    127142    |   171288
        6  | 38:03.64 | 12:28.68 |    171289    |   227456
        7  | 50:32.57 |  8:40.37 |    227457    |   266493
        8  | 59:13.19 |  8:21.61 |    266494    |   304129
        9  | 67:35.05 | 10:48.09 |    304130    |   352738

Track  1

     Filename F:\Rips\00.db - Heaven & Hell (2009) [FLAC]\01 - Magna.wav

     Pre-gap length  0:00:02.00

     Peak level 93.0 %
     Track quality 99.9 %
     Test CRC FF70FD0B
     Copy CRC FF70FD0B
     Track not present in AccurateRip database
     Copy OK

Track  2

     Filename F:\Rips\00.db - Heaven & Hell (2009) [FLAC]\02 - Indigo.wav

     Peak level 99.4 %
     Track quality 100.0 %
     Test CRC 763E9FB3
     Copy CRC 763E9FB3
     Track not present in AccurateRip database
     Copy OK

Track  3

     Filename F:\Rips\00.db - Heaven & Hell (2009) [FLAC]\03 - Lantra (Album Version).wav

     Peak level 99.4 %
     Track quality 99.9 %
     Test CRC 28CF84A1
     Copy CRC 28CF84A1
     Track not present in AccurateRip database
     Copy OK

Track  4

     Filename F:\Rips\00.db - Heaven & Hell (2009) [FLAC]\04 - Ark (Album Version).wav

     Peak level 99.4 %
     Track quality 100.0 %
     Test CRC 0513A410
     Copy CRC 0513A410
     Track not present in AccurateRip database
     Copy OK

Track  5

     Filename F:\Rips\00.db - Heaven & Hell (2009) [FLAC]\05 - Orba (Album Version).wav

     Peak level 99.4 %
     Track quality 100.0 %
     Test CRC 3A7AECF1
     Copy CRC 3A7AECF1
     Track not present in AccurateRip database
     Copy OK

Track  6

     Filename F:\Rips\00.db - Heaven & Hell (2009) [FLAC]\06 - Pro 1 (Album Version).wav

     Peak level 99.4 %
     Track quality 100.0 %
     Test CRC 2B4EAB05
     Copy CRC 2B4EAB05
     Track not present in AccurateRip database
     Copy OK

Track  7

     Filename F:\Rips\00.db - Heaven & Hell (2009) [FLAC]\07 - Entropy.wav

     Peak level 99.9 %
     Track quality 100.0 %
     Test CRC 55BDDA22
     Copy CRC 55BDDA22
     Track not present in AccurateRip database
     Copy OK

Track  8

     Filename F:\Rips\00.db - Heaven & Hell (2009) [FLAC]\08 - Darkness (Album Version).wav

     Peak level 99.4 %
     Track quality 100.0 %
     Test CRC 54801E6A
     Copy CRC 54801E6A
     Track not present in AccurateRip database
     Copy OK

Track  9

     Filename F:\Rips\00.db - Heaven & Hell (2009) [FLAC]\09 - Astrix , Ice Cream (00.db Mix).wav

     Peak level 99.4 %
     Track quality 100.0 %
     Test CRC A3E0F91C
     Copy CRC A3E0F91C
     Track not present in AccurateRip database
     Copy OK

None of the tracks are present in the AccurateRip database

No errors occurred

End of status report

Код: выделить все

-----------------------

DON'T MODIFY THIS FILE

-----------------------

PERFORMER: auCDtect Task Manager, ver. 1.6.0 RC1 build 1.6.0.1
Copyright (c) 2008-2010 y-soft. All rights reserved
http://y-soft.org

ANALYZER: auCDtect: CD records authenticity detector, version 0.8.2
Copyright (c) 2004 Oleg Berngardt. All rights reserved.
Copyright (c) 2004 Alexander Djourik. All rights reserved.

FILE: 09 - Astrix - Ice Cream (00.db Mix).flac
  Size: 81723106 Hash: F25B44A3DE4791C42A6398372AA3689D Accuracy: -m0
  Conclusion: CDDA 99%
  Signature: 17EA8D1AE9A36ACA04B4252B8443B90424DE8C91
FILE: 08 - 00.db - Darkness (Album Version).flac
  Size: 61412773 Hash: 238AEB7F835C05464E60FB55A13C75AD Accuracy: -m0
  Conclusion: CDDA 100%
  Signature: 0D75C93A04DF883F6AAA042732DDBE0D4818E271
FILE: 07 - 00.db - Entropy.flac
  Size: 65616250 Hash: D303FE7ED2F052B1AD4FAF8D5541A045 Accuracy: -m0
  Conclusion: CDDA 100%
  Signature: 9066314AB9877AE13A56C7B0CC3F80AF412155FB
FILE: 06 - 00.db - Pro 1 (Album Version).flac
  Size: 85412726 Hash: CF81CF8B7FB49B212F22F3B117737544 Accuracy: -m0
  Conclusion: CDDA 100%
  Signature: E2A9D10AD52D6978EBFFD0455C0C54A29583B11E
FILE: 05 - 00.db - Orba (Album Version).flac
  Size: 66658394 Hash: BDA5C220E9A7839A8CEBF15EDD611935 Accuracy: -m0
  Conclusion: CDDA 99%
  Signature: D3ECCA4D76D07AF3C1AA06A3D52B28A110F8B9B4
FILE: 04 - 00.db - Ark (Album Version).flac
  Size: 53889952 Hash: 9E747A00DED3F37AAF1669ADB762679F Accuracy: -m0
  Conclusion: CDDA 100%
  Signature: C555302BDD3BF99450F1DDF5BB5FAE478F97ADE3
FILE: 03 - 00.db - Lantra (Album Version).flac
  Size: 63579132 Hash: 0D1993955A8BD1AFBE3FD60D39C28FC8 Accuracy: -m0
  Conclusion: CDDA 100%
  Signature: 5E2ED2E539F6181520A5078D6FA4ECC690555EE2
FILE: 02 - 00.db - Indigo.flac
  Size: 67549126 Hash: A83B8B1D6073C7F1DB83F9870B54554C Accuracy: -m0
  Conclusion: CDDA 100%
  Signature: 4C49FE2C10F17116889EA5A23F7951D54FBADCD1
FILE: 01 - 00.db - Magna.flac
  Size: 12687502 Hash: 3E7AE1DBB96CCB928165B363675C3E92 Accuracy: -m0
  Conclusion: CDDA 76%
  Signature: 967BF0514943F84FD8D8DCF3DE93D9B887462D7C



Трек лист:
01. 00.db - 00.db / Sasha Watching The Stars (10:57)
02. 00.db - 00.db / Eminox (9:18)
03. 00.db - 00.db / Run (7:46)
04. 00.db - 00.db / Worlds Of Space (9:35)
05. 00.db - 00.db / Dreamcatcher (42 Min Chill-Out Journey) (41:25)

Продолжительность: 01:19:01
Код: выделить все

Exact Audio Copy V0.99 prebeta 5 from 4. May 2009

EAC extraction logfile from 10. November 2009, 19:34

00.db / Heaven & Hell

Used drive  : HL-DT-STBD-RE  GBW-H20L   Adapter: 2  ID: 1

Read mode               : Secure
Utilize accurate stream : Yes
Defeat audio cache      : Yes
Make use of C2 pointers : No

Read offset correction                      : 667
Overread into Lead-In and Lead-Out          : No
Fill up missing offset samples with silence : Yes
Delete leading and trailing silent blocks   : No
Null samples used in CRC calculations       : No
Used interface                              : Native Win32 interface for Win NT & 2000
Gap handling                                : Appended to previous track

Used output format              : User Defined Encoder
Selected bitrate                : 1024 kBit/s
Quality                         : High
Add ID3 tag                     : No
Command line compressor         : C:\Program Files (x86)\FLACx86\flac.exe
Additional command line options : -8 -V -T "ARTIST=%a" -T "TITLE=%t" -T "ALBUM=%g" -T "DATE=%y" -T "TRACKNUMBER=%n" -T "GENRE=%m" -T "COMMENT=%e" -T "COMMENT=EAC (Secure Mode)" --delete-input-file %s

TOC of the extracted CD

     Track |   Start  |  Length  | Start sector | End sector
    ---------------------------------------------------------
        1  |  0:00.00 | 10:57.53 |         0    |    49327
        2  | 10:57.53 |  9:18.61 |     49328    |    91238
        3  | 20:16.39 |  7:46.30 |     91239    |   126218
        4  | 28:02.69 |  9:35.68 |    126219    |   169411
        5  | 37:38.62 | 41:25.51 |    169412    |   355837

Track  1

     Filename F:\Rips\00.db - Heaven & Hell (2009) [FLAC]\Disc 2\01 - 00.db , Sasha Watching The Stars.wav

     Pre-gap length  0:00:02.00

     Peak level 99.4 %
     Track quality 100.0 %
     Test CRC DC654374
     Copy CRC DC654374
     Track not present in AccurateRip database
     Copy OK

Track  2

     Filename F:\Rips\00.db - Heaven & Hell (2009) [FLAC]\Disc 2\02 - 00.db , Eminox.wav

     Pre-gap length  0:00:02.00

     Peak level 99.4 %
     Track quality 100.0 %
     Test CRC 1B0302A4
     Copy CRC 1B0302A4
     Track not present in AccurateRip database
     Copy OK

Track  3

     Filename F:\Rips\00.db - Heaven & Hell (2009) [FLAC]\Disc 2\03 - 00.db , Run.wav

     Pre-gap length  0:00:02.00

     Peak level 99.4 %
     Track quality 100.0 %
     Test CRC 1238B4B0
     Copy CRC 1238B4B0
     Track not present in AccurateRip database
     Copy OK

Track  4

     Filename F:\Rips\00.db - Heaven & Hell (2009) [FLAC]\Disc 2\04 - 00.db , Worlds Of Space.wav

     Pre-gap length  0:00:02.00

     Peak level 98.0 %
     Track quality 100.0 %
     Test CRC EBCF034F
     Copy CRC EBCF034F
     Track not present in AccurateRip database
     Copy OK

Track  5

     Filename F:\Rips\00.db - Heaven & Hell (2009) [FLAC]\Disc 2\05 - 00.db , Dreamcatcher (42 Min Chill-Out Journey).wav

     Pre-gap length  0:00:02.00

     Peak level 99.4 %
     Track quality 100.0 %
     Test CRC 5828E798
     Copy CRC 5828E798
     Track not present in AccurateRip database
     Copy OK

None of the tracks are present in the AccurateRip database

No errors occurred

End of status report

Код: выделить все

-----------------------

DON'T MODIFY THIS FILE

-----------------------

PERFORMER: auCDtect Task Manager, ver. 1.6.0 RC1 build 1.6.0.1
Copyright (c) 2008-2010 y-soft. All rights reserved
http://y-soft.org

ANALYZER: auCDtect: CD records authenticity detector, version 0.8.2
Copyright (c) 2004 Oleg Berngardt. All rights reserved.
Copyright (c) 2004 Alexander Djourik. All rights reserved.

FILE: 05 - 00.db - Dreamcatcher (42 Min Chill-Out Journey).flac
  Size: 247847274 Hash: 96BCA7044A2B639E76135DFAC3AE3DE3 Accuracy: -m0
  Conclusion: CDDA 100%
  Signature: 119A5812911328F76F5E119F2280F1AD502B5FA1
FILE: 04 - 00.db - Worlds Of Space.flac
  Size: 71634819 Hash: 60C6BDFFDD079919C3A4B9CAEAAE3C60 Accuracy: -m0
  Conclusion: CDDA 100%
  Signature: 52FB579B45443E3F4EEE2EED95663FAE5F88F1D0
FILE: 03 - 00.db - Run.flac
  Size: 54208954 Hash: 0306229F546EA2E979E32D51A57E7DEA Accuracy: -m0
  Conclusion: CDDA 100%
  Signature: 04B5C60D63798EB9B2FB1F8EE73AAA160CA42346
FILE: 02 - 00.db - Eminox.flac
  Size: 67223501 Hash: A7BD9B9E5B2C2ED25D7AA8C6336C853F Accuracy: -m0
  Conclusion: CDDA 100%
  Signature: 9B87101EA118E9835403EE8803C3FC21DAA512CE
FILE: 01 - 00.db - Sasha Watching The Stars.flac
  Size: 81048072 Hash: 3B9CAFC5B93F5E76B9F271A93E5DCA7D Accuracy: -m0
  Conclusion: CDDA 100%
  Signature: 33A2B6503670692252B578FC3DDD3126F056617D

Время раздачи: 24/7
[NNMClub.to]_00.db - Heaven & Hell (2009) [FLAC].torrent
 Торрент: Платиновая раздача  Зарегистрирован
 
Примагнититься

Скачать
 Зарегистрирован:   21 Апр 2017 11:21:40
 Размер:   1,09 GB  (
 Рейтинг:   4,6 (Голосов: 14)
 Поблагодарили:   42
 Проверка:   Оформление проверено модератором 21 Апр 2017 11:24:42
Как cкачать  ·  Как раздать  ·  Правильно оформить  ·  Поднять ратио!  
Загрузка...
Показать сообщения:   
Начать новую тему   Ответить на тему    Торрент-трекер NNM-Club -> Electronic -> Trance (Lossless) Часовой пояс: GMT + 3
Страница 1 из 1