Классический форум-трекер
canvas not supported
Нас вместе: 4 077 907

Ultra Maniac / Ультраманьяк [2003, TV, 26 эп] DVDRip 540p raw +eng


 
 
RSS
Начать новую тему   Ответить на тему    Торрент-трекер NNM-Club -> Аниме с субтитрами -> Аниме (SD)
Автор Сообщение
OnZa ®
Стаж: 11 лет 9 мес.
Сообщений: 1848
Ratio: 28,666
Поблагодарили: 12641
100%
Откуда: moscow
roody.gif
ウルトラマニアック / Ultra Maniac / Ультраманьяк
Год выпуска: 2003
Жанр: махо-сёдзё, комедия, романтика, школа
Тип: ТВ-сериал
Продолжительность: ТВ (26 эп.), 23 мин.

Режиссер: Масаки Синъити
Автор оригинала: Ёсидзуми Ватару
Снято по манге: Ultra Maniac
Производство/студия: Ashi Productions

Формат: DVDRip
Релиз: LIME
Видео: 720x540, XviD, 23.976 fps, 1394 kbps

Язык озвучки: Японский
Характеристика звука: Vorbis, 2 ch, 48 kHz, 83 kbps
Язык озвучки: Английский
Характеристика звука: Vorbis, 2 ch, 48 kHz, 83 kbps

Язык субтитров: Русский; Английский (soft)
Перевод: fansubs.ru

Описание:
Нина Сакура - волшебница, прибывшая в мир людей из Волшебного Королевства, чтобы повысить свой уровень волшебства. Для этого ей надо найти все пять волшебных камней.
Нина волшебница-недоучка. Из-за своей несобранности она не может толком выколдовать даже самого простого. Беда в том, что, обладая добрым и отзывчивым сердцем, она стремится всем помочь, а получается "немножко" не то, что планировалось. В итоге, все ее "жертвы" оказываются в смешных ситуациях. Камни нужны не только Нине. Ее соперница хладнокровна и расчетлива. Она все время что-то химичит у себя дома. Бывает такое наколдует, что и сама потом не рада...©saylina| World-Art
01. Ayu & Nina
02. Boy Meets Girl
03. Change Over
04. Da Capo
05. Enigma
06. Fight Over
07. Gigantic Pet
08. Hello, Little Girls
09. Item
10. Jack Straw
11. Knight Spirit
12. Lovesick Night
13. Magic vest
14. Negative girl
15. Orange stone
16. Pinch hitter
17. Quest
18. R & B
19. Stand by me
20. Tangle
21. Untangle
22. Virgin love
23. Wonderful night
24. X-Day
25. Yes, I Like You
26. Zoom In
Код: выделить все
Общее
Уникальный идентификатор                 : 245446683528259087576581661258234938332 (0xB8A74FCF39BE7AE4BBAC0409911343DC)
Полное имя                               : [LIME] Ultra_Maniac_01 (DVDrip.720x540.XviD.Vorb).mkv
Формат                                   : Matroska
Версия формата                           : Version 1
Размер файла                             : 264 Мбайт
Продолжительность                        : 23 м.
Режим общего битрейта                    : Переменный
Общий поток                              : 1564 Кбит/сек
Дата кодирования                         : UTC 2006-11-16 11:27:04
Программа кодирования                    : mkvmerge v1.6.5 ('Watcher Of The Skies') built on Dec  7 2005 18:53:53
Библиотека кодирования                   : libebml v0.7.6 + libmatroska v0.8.0
Attachment                               : Yes

Видео
Идентификатор                            : 1
Формат                                   : MPEG-4 Visual
Профиль формата                          : Simple@L3
Параметр BVOP формата                    : Да
Параметр QPel формата                    : Нет
Параметр GMC формата                     : Без точки перехода
Параметр матрицы формата                 : Default (H.263)
Идентификатор кодека                     : V_MS/VFW/FOURCC / XVID
Идентификатор кодека/Подсказка           : XviD
Продолжительность                        : 23 м.
Битрейт                                  : 1341 Кбит/сек
Ширина                                   : 720 пикселей
Высота                                   : 540 пикселей
Соотношение сторон                       : 4:3
Режим частоты кадров                     : Постоянный
Частота кадров                           : 23,976 кадра/сек
Цветовое пространство                    : YUV
Субдискретизация насыщенности            : 4:2:0
Битовая глубина                          : 8 бит
Тип развёртки                            : Прогрессивная
Метод сжатия                             : С потерями
Бит/(Пиксели*Кадры)                      : 0.144
Размер потока                            : 227 Мбайт (86%)
Библиотека кодирования                   : XviD 1.0.0 RC1 (Niltze) (UTC 2004-01-26)
Язык                                     : English
Default                                  : Да
Forced                                   : Нет

Аудио #1
Идентификатор                            : 2
Формат                                   : Vorbis
Параметр Floor формата                   : 1
Идентификатор кодека                     : A_VORBIS
Продолжительность                        : 23 м.
Вид битрейта                             : Переменный
Битрейт                                  : 96,0 Кбит/сек
Каналы                                   : 2 канала
Частота                                  : 48,0 КГц
Метод сжатия                             : С потерями
Размер потока                            : 16,2 Мбайт (6%)
Библиотека кодирования                   : libVorbis 1.0.1 (UTC 2003-09-09)
Язык                                     : Japanese
Default                                  : Да
Forced                                   : Нет
Программа кодирования                    : Made with BeSweet v1.5b29
Encoded_Application/Url                  : http://DSPguru.doom9.org

Аудио #2
Идентификатор                            : 3
Формат                                   : Vorbis
Параметр Floor формата                   : 1
Идентификатор кодека                     : A_VORBIS
Продолжительность                        : 23 м.
Вид битрейта                             : Переменный
Битрейт                                  : 96,0 Кбит/сек
Каналы                                   : 2 канала
Частота                                  : 48,0 КГц
Метод сжатия                             : С потерями
Размер потока                            : 16,2 Мбайт (6%)
Библиотека кодирования                   : libVorbis 1.0.1 (UTC 2003-09-09)
Язык                                     : English
Default                                  : Нет
Forced                                   : Нет
Программа кодирования                    : Made with BeSweet v1.5b29
Encoded_Application/Url                  : http://DSPguru.doom9.org

Текст
Идентификатор                            : 4
Формат                                   : SSA
Идентификатор кодека                     : S_TEXT/SSA
Идентификатор кодека/Информация          : Sub Station Alpha
Метод сжатия                             : Без потерь
Язык                                     : English
Default                                  : Да
Forced                                   : Нет
MyAnimeList..... World-Art..... AniDB..... ANN..... Anime Planet


Время раздачи: по мере возможности
[NNM-Club.ru] [LIME]_Ultra_Maniac.torrent
 Торрент: Платиновая раздача  Зарегистрирован
 
Скачать


 Зарегистрирован:   21 Фев 2009 02:23:41
 Размер:   6,8 GB  (
 Рейтинг:   4,8 (Голосов: 22)
 Поблагодарили:   34
 Проверка:   Оформление проверено модератором 13 Апр 2017 21:53:20
Как cкачать  ·  Как раздать  ·  Правильно оформить  ·  Поднять ратио!  
Гость
спасибо большущее!
Гость
я ет мульт седня начала смотреть, такой класный! осталось 2 серии
Показать сообщения:   
Начать новую тему   Ответить на тему    Торрент-трекер NNM-Club -> Аниме с субтитрами -> Аниме (SD) Часовой пояс: GMT + 3
Страница 1 из 1