Классический форум-трекер
canvas not supported
Нас вместе: 4 079 484

The Prodigy - Invaders Must Die (Limited Deluxe Edition) (2009)[FLAC|Lossless]<Breaks, Big Beat>


 
 
RSS
Начать новую тему   Ответить на тему    Торрент-трекер NNM-Club -> Electronic -> Drum'n'Bass, Jungle, Breaks, Breakbeat, Dubstep (Lossless)
Автор Сообщение
_cynic_ ®
Стаж: 11 лет 1 мес.
Сообщений: 1603
Ratio: 1111,933
Поблагодарили: 70336
100%
Откуда: 61
pirates.png
The Prodigy - Invaders Must Die (Limited Deluxe Edition) (2009)
Год: 2009
Жанр: Breaks, Big Beat
Продолжительность: 00:52:55
Кодек: FLAC
Тип рипа: tracks+.cue
Битрейт: Lossless
Треклист:
01 Invaders Must Die
02 Omen
03 Thunder
04 Colours
05 Take Me To The Hospital
06 Warrior's Dance
07 Run With The Wolves
08 Omen Reprise
09 World's On Fire
10 Piranha
11 Stand Up
12 Black Smoke
13 Fighter Beat
Код:

X Lossless Decoder version 20090217 (101.1)

XLD extraction logfile from 2009-02-20 15:59:24 +0100

The Prodigy / Invaders Must Die [Bonus Tracks]

Used drive : YAMAHA CRW-F1E (revision 1.0g)

Use cdparanoia mode : YES (CDParanoia III 10.2 engine)
Disable audio cache : OK for the drive with cache less than 2750KB
Make use of C2 pointers : NO
Read offset correction : 733
Max retry count : 100

TOC of the extracted CD
Track | Start | Length | Start sector | End sector
---------------------------------------------------------
1 | 00:00:00 | 04:55:02 | 0 | 22126
2 | 04:55:02 | 03:36:02 | 22127 | 38328
3 | 08:31:04 | 04:09:37 | 38329 | 57040
4 | 12:40:41 | 03:27:67 | 57041 | 72632
5 | 16:08:33 | 03:40:19 | 72633 | 89151
6 | 19:48:52 | 05:12:72 | 89152 | 112623
7 | 25:01:49 | 04:24:54 | 112624 | 132477
8 | 29:26:28 | 02:14:12 | 132478 | 142539
9 | 31:40:40 | 04:50:30 | 142540 | 164319
10 | 36:30:70 | 04:04:67 | 164320 | 182686
11 | 40:35:62 | 05:26:44 | 182687 | 207180
12 | 46:02:31 | 03:26:03 | 207181 | 222633
13 | 49:28:34 | 03:32:52 | 222634 | 238585

Track 01
Filename : /Volumes/HD 2/The Prodigy - 2009 - Invaders Must Die Deluxe/01 - The Prodigy -Invaders Must Die.flac

CRC32 hash (test run) : 3BAACFC6
CRC32 hash : 3BAACFC6
CRC32 hash (skip zero) : A1198EAD
Statistics
Read error : 0
Skipped (treated as error) : 0
Edge jitter error (maybe fixed) : 0
Atom jitter error (maybe fixed) : 0
Drift error (maybe fixed) : 0
Dropped bytes error (maybe fixed) : 0
Duplicated bytes error (maybe fixed) : 0
Inconsistency in error sectors : 0

Track 02
Filename : /Volumes/HD 2/The Prodigy - 2009 - Invaders Must Die Deluxe/02 - The Prodigy -Omen.flac

CRC32 hash (test run) : B25DFF84
CRC32 hash : B25DFF84
CRC32 hash (skip zero) : 5CBFA0E6
Statistics
Read error : 0
Skipped (treated as error) : 0
Edge jitter error (maybe fixed) : 0
Atom jitter error (maybe fixed) : 0
Drift error (maybe fixed) : 0
Dropped bytes error (maybe fixed) : 0
Duplicated bytes error (maybe fixed) : 0
Inconsistency in error sectors : 0

Track 03
Filename : /Volumes/HD 2/The Prodigy - 2009 - Invaders Must Die Deluxe/03 - The Prodigy -Thunder.flac

CRC32 hash (test run) : C7DD95CF
CRC32 hash : C7DD95CF
CRC32 hash (skip zero) : E726668F
Statistics
Read error : 0
Skipped (treated as error) : 0
Edge jitter error (maybe fixed) : 0
Atom jitter error (maybe fixed) : 0
Drift error (maybe fixed) : 0
Dropped bytes error (maybe fixed) : 0
Duplicated bytes error (maybe fixed) : 0
Inconsistency in error sectors : 0

Track 04
Filename : /Volumes/HD 2/The Prodigy - 2009 - Invaders Must Die Deluxe/04 - The Prodigy -Colours.flac

CRC32 hash (test run) : 157E5F72
CRC32 hash : 157E5F72
CRC32 hash (skip zero) : 6A232086
Statistics
Read error : 0
Skipped (treated as error) : 0
Edge jitter error (maybe fixed) : 0
Atom jitter error (maybe fixed) : 0
Drift error (maybe fixed) : 0
Dropped bytes error (maybe fixed) : 0
Duplicated bytes error (maybe fixed) : 0
Inconsistency in error sectors : 0

Track 05
Filename : /Volumes/HD 2/The Prodigy - 2009 - Invaders Must Die Deluxe/05 - The Prodigy -Take Me To The Hospital.flac

CRC32 hash (test run) : 4E1F89AC
CRC32 hash : 4E1F89AC
CRC32 hash (skip zero) : 2710E2F5
Statistics
Read error : 0
Skipped (treated as error) : 0
Edge jitter error (maybe fixed) : 0
Atom jitter error (maybe fixed) : 0
Drift error (maybe fixed) : 0
Dropped bytes error (maybe fixed) : 0
Duplicated bytes error (maybe fixed) : 0
Inconsistency in error sectors : 0

Track 06
Filename : /Volumes/HD 2/The Prodigy - 2009 - Invaders Must Die Deluxe/06 - The Prodigy -Warrior's Dance.flac

CRC32 hash (test run) : 30E25A48
CRC32 hash : 30E25A48
CRC32 hash (skip zero) : 16EA7A17
Statistics
Read error : 0
Skipped (treated as error) : 0
Edge jitter error (maybe fixed) : 0
Atom jitter error (maybe fixed) : 0
Drift error (maybe fixed) : 0
Dropped bytes error (maybe fixed) : 0
Duplicated bytes error (maybe fixed) : 0
Inconsistency in error sectors : 0

Track 07
Filename : /Volumes/HD 2/The Prodigy - 2009 - Invaders Must Die Deluxe/07 - The Prodigy -Run With The Wolves.flac

CRC32 hash (test run) : 77B1E90D
CRC32 hash : 77B1E90D
CRC32 hash (skip zero) : A8D10606
Statistics
Read error : 0
Skipped (treated as error) : 0
Edge jitter error (maybe fixed) : 0
Atom jitter error (maybe fixed) : 0
Drift error (maybe fixed) : 0
Dropped bytes error (maybe fixed) : 0
Duplicated bytes error (maybe fixed) : 0
Inconsistency in error sectors : 0

Track 08
Filename : /Volumes/HD 2/The Prodigy - 2009 - Invaders Must Die Deluxe/08 - The Prodigy -Omen Reprise.flac

CRC32 hash (test run) : 266FA25F
CRC32 hash : 266FA25F
CRC32 hash (skip zero) : A4A6DD80
Statistics
Read error : 0
Skipped (treated as error) : 0
Edge jitter error (maybe fixed) : 0
Atom jitter error (maybe fixed) : 0
Drift error (maybe fixed) : 0
Dropped bytes error (maybe fixed) : 0
Duplicated bytes error (maybe fixed) : 0
Inconsistency in error sectors : 0

Track 09
Filename : /Volumes/HD 2/The Prodigy - 2009 - Invaders Must Die Deluxe/09 - The Prodigy -World's On Fire.flac

CRC32 hash (test run) : 1B065DDB
CRC32 hash : 1B065DDB
CRC32 hash (skip zero) : 60F199D9
Statistics
Read error : 0
Skipped (treated as error) : 0
Edge jitter error (maybe fixed) : 0
Atom jitter error (maybe fixed) : 0
Drift error (maybe fixed) : 0
Dropped bytes error (maybe fixed) : 0
Duplicated bytes error (maybe fixed) : 0
Inconsistency in error sectors : 0

Track 10
Filename : /Volumes/HD 2/The Prodigy - 2009 - Invaders Must Die Deluxe/10 - The Prodigy -Piranha.flac

CRC32 hash (test run) : 6D9F885F
CRC32 hash : 6D9F885F
CRC32 hash (skip zero) : EE73059D
Statistics
Read error : 0
Skipped (treated as error) : 0
Edge jitter error (maybe fixed) : 0
Atom jitter error (maybe fixed) : 0
Drift error (maybe fixed) : 0
Dropped bytes error (maybe fixed) : 0
Duplicated bytes error (maybe fixed) : 0
Inconsistency in error sectors : 0

Track 11
Filename : /Volumes/HD 2/The Prodigy - 2009 - Invaders Must Die Deluxe/11 - The Prodigy -Stand Up.flac

CRC32 hash (test run) : 3CE35BA6
CRC32 hash : 3CE35BA6
CRC32 hash (skip zero) : ECA07921
Statistics
Read error : 0
Skipped (treated as error) : 0
Edge jitter error (maybe fixed) : 0
Atom jitter error (maybe fixed) : 0
Drift error (maybe fixed) : 0
Dropped bytes error (maybe fixed) : 0
Duplicated bytes error (maybe fixed) : 0
Inconsistency in error sectors : 0

Track 12
Filename : /Volumes/HD 2/The Prodigy - 2009 - Invaders Must Die Deluxe/12 - The Prodigy -Black Smoke.flac

CRC32 hash (test run) : 5EE71A38
CRC32 hash : 5EE71A38
CRC32 hash (skip zero) : FD660D47
Statistics
Read error : 0
Skipped (treated as error) : 0
Edge jitter error (maybe fixed) : 0
Atom jitter error (maybe fixed) : 0
Drift error (maybe fixed) : 0
Dropped bytes error (maybe fixed) : 0
Duplicated bytes error (maybe fixed) : 0
Inconsistency in error sectors : 0

Track 13
Filename : /Volumes/HD 2/The Prodigy - 2009 - Invaders Must Die Deluxe/13 - The Prodigy -Fighter Beat.flac

CRC32 hash (test run) : 613CD0CE
CRC32 hash : 613CD0CE
CRC32 hash (skip zero) : 9951F4D7
Statistics
Read error : 0
Skipped (treated as error) : 0
Edge jitter error (maybe fixed) : 0
Atom jitter error (maybe fixed) : 0
Drift error (maybe fixed) : 0
Dropped bytes error (maybe fixed) : 0
Duplicated bytes error (maybe fixed) : 0
Inconsistency in error sectors : 0

No errors occurred

End of status report
Код:

AUDIOCHECKER v2.0 beta (build 457) - by Dester - opdester@freemail.hu
~~~~~~~~~~~~~~~~~~~~~~~~~~~~~~~~~~
-=== DO NOT EDIT THIS FILE! ===-

Path: ...\The Prodigy - 2009 - Invaders Must Die Deluxe

01 -=- 01 - The Prodigy -Invaders Must Die.flac -=- CDDA (100%)
02 -=- 02 - The Prodigy -Omen.flac -=- CDDA (99%)
03 -=- 03 - The Prodigy -Thunder.flac -=- CDDA (100%)
04 -=- 04 - The Prodigy -Colours.flac -=- CDDA (100%)
05 -=- 05 - The Prodigy -Take Me To The Hospital.flac -=- CDDA (100%)
06 -=- 06 - The Prodigy -Warrior's Dance.flac -=- CDDA (100%)
07 -=- 07 - The Prodigy -Run With The Wolves.flac -=- CDDA (99%)
08 -=- 08 - The Prodigy -Omen Reprise.flac -=- CDDA (99%)
09 -=- 09 - The Prodigy -World's On Fire.flac -=- CDDA (100%)
10 -=- 10 - The Prodigy -Piranha.flac -=- CDDA (100%)
11 -=- 11 - The Prodigy -Stand Up.flac -=- CDDA (100%)
12 -=- 12 - The Prodigy -Black Smoke.flac -=- CDDA (100%)
13 -=- 13 - The Prodigy -Fighter Beat.flac -=- CDDA (100%)

Summary 99,77% CDDA

162787732
Время раздачи: 23:00 до 03:00


Поглощение/вытеснение
Только с согласия релизера

DesideriuM

Реставрация от: sseless
[NNM-Club.ru] The Prodigy - 2009 - Invaders Must Die Deluxe lossless.torrent
 Торрент: Платиновая раздача  Зарегистрирован
 
Скачать


 Зарегистрирован:   21 Фев 2009 07:40:10
 Размер:   370 MB  (
 Рейтинг:   4,9 (Голосов: 52)
 Поблагодарили:   183
 Проверка:   Оформление проверено модератором 21 Фев 2009 13:04:43
Как cкачать  ·  Как раздать  ·  Правильно оформить  ·  Поднять ратио!  
kas24
Стаж: 12 лет 1 мес.
Сообщений: 152
Ratio: 7,484
Поблагодарили: 508
80.49%
Откуда: Кхарьков
ukraine.gif
жесть. полюбому приобрету лицензию, но для начала скачаю ознакомлюсь)

_________________
Обычно я молчу!..
qartush
Стаж: 12 лет
Сообщений: 151
Ratio: 1,723
100%
russia.gif
Хм... ПОслушаем-с
h1ghtech
Стаж: 10 лет 7 мес.
Сообщений: 1
Ratio: 11,741
9.68%
russia.gif
wow, судя по вики, это Japanese edition альбома. Prodigy потрясает порохом и доставляет люто, но, субъективно, не дотягивает до более раннего.
kas24
Стаж: 12 лет 1 мес.
Сообщений: 152
Ratio: 7,484
Поблагодарили: 508
80.49%
Откуда: Кхарьков
ukraine.gif
субьективно +1

_________________
Обычно я молчу!..
Базич
Стаж: 12 лет
Сообщений: 182
Ratio: 12,775
100%
Откуда: Kazan
russia.gif
Попробую непожатый вариант записать, а то MP3 320 килобит в машине не "мелодично" играет, низкие частоты до буфера не доходят 8((
kas24
Стаж: 12 лет 1 мес.
Сообщений: 152
Ratio: 7,484
Поблагодарили: 508
80.49%
Откуда: Кхарьков
ukraine.gif
буфер расстраивается?)

_________________
Обычно я молчу!..
Базич
Стаж: 12 лет
Сообщений: 182
Ratio: 12,775
100%
Откуда: Kazan
russia.gif
kas24 писал(а): link
буфер расстраивается?)
не то слово, аж до слез
Crutchy
Стаж: 9 лет 6 мес.
Сообщений: 530
Ratio: 7,524
Поблагодарили: 72
100%
russia.gif
Премного, да, премного благодарен!
Показать сообщения:   
Начать новую тему   Ответить на тему    Торрент-трекер NNM-Club -> Electronic -> Drum'n'Bass, Jungle, Breaks, Breakbeat, Dubstep (Lossless) Часовой пояс: GMT + 3
Страница 1 из 1