Классический форум-трекер
canvas not supported
Нас вместе: 4 118 436

Flint Glass | OKNHO - Discography 11 Releases (2002-2020) [FLAC|Lossless|tracks+.cue, tracks] <IDM, Industrial, Experimental, Glitch, Rhythmic Noise, Dark Ambient>


 
 
RSS
Начать новую тему   Ответить на тему    Торрент-трекер NNM-Club -> Electronic -> IDM (Lossless)
Автор Сообщение
vilator ®
Модератор Музыки
RG Music
 
Стаж: 11 лет 2 мес.
Сообщений: 10776
Ratio: 298,284
Поблагодарили: 213608
100%
Откуда: Minsk
pirates.png
Flint Glass Discography

Проект французского музыканта по имени Гвенн Треморин, основателя лэйбла Brume Records, который многие критики сравнивают с немецким бастионом электро-ритмик-нойза Hands. Дебютный альбом "Hierakonpolis" – это впечатляющая коллекция сэмплов и электронных звуков, объединённых в ритмические конструкции на фоне тёмных облаков дарк-эмбиента. Преобладание зацикленных и искажённых звуков отдаляет музыку от IDM-влияния, а замедление темпа и появление приглушённых голосов на втором плане наводит на мысль о ритуалистической подоплеке, о чём недвусмысленно намекает и название альбома. Музыка неплохо подошла бы к какому-нибудь фантастическому фильму о мрачном будущем высокотехнологичной цивилизации. Второй альбом "Nyarlathotep" – логическое продолжение, инспирированное творчеством Лавкрафта, приоткрывающее более мелодичную сторону творчества Flint Glass. Холодная, печальная, трепетная музыка, в которой видятся туманные северные леса, населённые лунными тенями, и апокалиптические ландшафты, рождённые помутнённым сознанием.
Жанр: IDM, Industrial, Experimental, Glitch, Rhythmic Noise, Dark Ambient • Страна: France • Год издания: 2002-2020 • Тип издания: CD, Web
Аудиокодек: FLAC (*.flac) • Тип рипа: tracks+.cue, tracks • Продолжительность: 12:06:52 • Источник: What, bandcamp
Треклист:
Год выпуска: 2009
Жaнр: Dark Ambient/Industrial/IDM
Продолжительноcть: 01:12:26+00:29:23
Треклист:

CD1 Nyarlathotep
01. R'lyeh La Morte (05:52)
02. Nyarlathotep (00:48)
03. Brain Speaking Machine (04:27)
04. Azathoth (00:31)
05. De Vermis Mysteriis (05:54)
06. Ubbo-Sathla (00:36)
07. Nephren-Ka (05:23)
08. Hastur (00:34)
09. Alhazred (05:57)
10. Yuggoth (00:38)
11. Angular Space (06:36)
12. Shudde M'ell (00:35)
13. Cthulhu Dawn (06:50)
14. Yog-Sothot (00:39)
15. Slither Chaos (07:17)
16. Brain Death (Ah Cama-Sotz Remix) (04:41)
17. Germ Code (Disharmony Remix) (03:34)
18. Brain Speaking Machine (Xabec Remix) (06:06)
19. R'lyeh La Morte (This Morn' Omina & Empusae Remix) (05:28)

CD2 From Beyond
01. Al Takwi (05:49)
02. Ghroth (00:16)
03. Hypnos (05:38)
04. Yegg Ha (00:15)
05. Al Azif (06:55)
06. Xurhn (00:29)
07. The Hound (10:01)

Exact Audio Copy V0.99 prebeta 5 from 4. May 2009

EAC extraction logfile from 18. March 2010, 23:18

Flint Glass / Nyarlathotep

Used drive : TSSTcorpCDDVDW SH-S223F Adapter: 1 ID: 1

Read mode : Secure
Utilize accurate stream : Yes
Defeat audio cache : Yes
Make use of C2 pointers : No

Read offset correction : 6
Overread into Lead-In and Lead-Out : No
Fill up missing offset samples with silence : Yes
Delete leading and trailing silent blocks : No
Null samples used in CRC calculations : Yes
Used interface : Native Win32 interface for Win NT & 2000
Gap handling : Appended to previous track

Used output format : User Defined Encoder
Selected bitrate : 128 kBit/s
Quality : High
Add ID3 tag : No
Command line compressor : C:\Program Files (x86)\Exact Audio Copy\Flac\flac.exe
Additional command line options : -V -8 -T "artist=%a" -T "title=%t" -T "album=%g" -T "date=%y" -T "tracknumber=%n" -T "genre=%m" %s

TOC of the extracted CD

Track | Start | Length | Start sector | End sector
---------------------------------------------------------
1 | 0:00.00 | 5:52.00 | 0 | 26399
2 | 5:52.00 | 0:48.00 | 26400 | 29999
3 | 6:40.00 | 4:26.59 | 30000 | 50008
4 | 11:06.59 | 0:31.16 | 50009 | 52349
5 | 11:38.00 | 5:54.37 | 52350 | 78936
6 | 17:32.37 | 0:35.38 | 78937 | 81599
7 | 18:08.00 | 5:23.28 | 81600 | 105852
8 | 23:31.28 | 0:33.51 | 105853 | 108378
9 | 24:05.04 | 5:56.71 | 108379 | 135149
10 | 30:02.00 | 0:38.28 | 135150 | 138027
11 | 30:40.28 | 6:36.09 | 138028 | 167736
12 | 37:16.37 | 0:34.38 | 167737 | 170324
13 | 37:51.00 | 6:50.18 | 170325 | 201092
14 | 44:41.18 | 0:38.57 | 201093 | 203999
15 | 45:20.00 | 7:17.00 | 204000 | 236774
16 | 52:37.00 | 4:41.00 | 236775 | 257849
17 | 57:18.00 | 3:34.00 | 257850 | 273899
18 | 60:52.00 | 6:06.37 | 273900 | 301386
19 | 66:58.37 | 5:27.38 | 301387 | 325949

Track 1

Filename Z:\music\f\Flint Glass\2009 Nyarlathotep [flac]\Flint Glass - 01 - R'lyeh La Morte.wav

Pre-gap length 0:00:02.00

Peak level 97.7 %
Track quality 99.9 %
Test CRC 96F971E2
Copy CRC 96F971E2
Cannot be verified as accurate (confidence 6) [CAF41577], AccurateRip returned [AE130100]
Copy OK

Track 2

Filename Z:\music\f\Flint Glass\2009 Nyarlathotep [flac]\Flint Glass - 02 - Nyarlathotep.wav

Peak level 97.7 %
Track quality 100.0 %
Test CRC 3B6EF7AE
Copy CRC 3B6EF7AE
Cannot be verified as accurate (confidence 6) [07A865D1], AccurateRip returned [E79D9767]
Copy OK

Track 3

Filename Z:\music\f\Flint Glass\2009 Nyarlathotep [flac]\Flint Glass - 03 - Brain Speaking Machine.wav

Peak level 97.7 %
Track quality 100.0 %
Test CRC DD576CEF
Copy CRC DD576CEF
Cannot be verified as accurate (confidence 6) [7372E93C], AccurateRip returned [04BF572E]
Copy OK

Track 4

Filename Z:\music\f\Flint Glass\2009 Nyarlathotep [flac]\Flint Glass - 04 - Azathoth.wav

Peak level 97.7 %
Track quality 99.6 %
Test CRC F1FA843A
Copy CRC F1FA843A
Cannot be verified as accurate (confidence 6) [C31CE85D], AccurateRip returned [60C8C5FE]
Copy OK

Track 5

Filename Z:\music\f\Flint Glass\2009 Nyarlathotep [flac]\Flint Glass - 05 - De Vermis Mysteris.wav

Peak level 97.7 %
Track quality 100.0 %
Test CRC 5D2C9F98
Copy CRC 5D2C9F98
Cannot be verified as accurate (confidence 6) [C72818CD], AccurateRip returned [AC28F2D1]
Copy OK

Track 6

Filename Z:\music\f\Flint Glass\2009 Nyarlathotep [flac]\Flint Glass - 06 - Ubbo-Sathla.wav

Peak level 58.5 %
Track quality 99.6 %
Test CRC 98EE8EC0
Copy CRC 98EE8EC0
Cannot be verified as accurate (confidence 6) [967E8659], AccurateRip returned [D6ED6AE0]
Copy OK

Track 7

Filename Z:\music\f\Flint Glass\2009 Nyarlathotep [flac]\Flint Glass - 07 - Nephren-Ka.wav

Peak level 97.7 %
Track quality 100.0 %
Test CRC F5FB5604
Copy CRC F5FB5604
Cannot be verified as accurate (confidence 6) [967244F2], AccurateRip returned [11BCF3CF]
Copy OK

Track 8

Filename Z:\music\f\Flint Glass\2009 Nyarlathotep [flac]\Flint Glass - 08 - Hastur.wav

Peak level 96.9 %
Track quality 100.0 %
Test CRC FADDDD87
Copy CRC FADDDD87
Cannot be verified as accurate (confidence 6) [DE636E26], AccurateRip returned [B807266B]
Copy OK

Track 9

Filename Z:\music\f\Flint Glass\2009 Nyarlathotep [flac]\Flint Glass - 09 - Alhazred.wav

Peak level 97.7 %
Track quality 99.9 %
Test CRC E49FCE69
Copy CRC E49FCE69
Cannot be verified as accurate (confidence 6) [5704D4B3], AccurateRip returned [D7C6584E]
Copy OK

Track 10

Filename Z:\music\f\Flint Glass\2009 Nyarlathotep [flac]\Flint Glass - 10 - Yuggoth.wav

Peak level 57.1 %
Track quality 100.0 %
Test CRC 013E703E
Copy CRC 013E703E
Cannot be verified as accurate (confidence 6) [91506C78], AccurateRip returned [09E92D68]
Copy OK

Track 11

Filename Z:\music\f\Flint Glass\2009 Nyarlathotep [flac]\Flint Glass - 11 - Angular Space.wav

Peak level 97.7 %
Track quality 100.0 %
Test CRC A3CD9070
Copy CRC A3CD9070
Cannot be verified as accurate (confidence 6) [4E68052F], AccurateRip returned [B8B7F642]
Copy OK

Track 12

Filename Z:\music\f\Flint Glass\2009 Nyarlathotep [flac]\Flint Glass - 12 - Shudde M'ell.wav

Peak level 97.7 %
Track quality 100.0 %
Test CRC C6D0433F
Copy CRC C6D0433F
Cannot be verified as accurate (confidence 6) [C00372FA], AccurateRip returned [026BCBE9]
Copy OK

Track 13

Filename Z:\music\f\Flint Glass\2009 Nyarlathotep [flac]\Flint Glass - 13 - Cthulhu Dawn.wav

Peak level 97.7 %
Track quality 100.0 %
Test CRC 3E65DCA2
Copy CRC 3E65DCA2
Cannot be verified as accurate (confidence 6) [ED539FAF], AccurateRip returned [0935C648]
Copy OK

Track 14

Filename Z:\music\f\Flint Glass\2009 Nyarlathotep [flac]\Flint Glass - 14 - Yog-Sothot.wav

Peak level 85.5 %
Track quality 100.0 %
Test CRC 4DAE26F3
Copy CRC 4DAE26F3
Cannot be verified as accurate (confidence 6) [F14CD118], AccurateRip returned [9328EC23]
Copy OK

Track 15

Filename Z:\music\f\Flint Glass\2009 Nyarlathotep [flac]\Flint Glass - 15 - Slither Chaos.wav

Peak level 97.7 %
Track quality 99.9 %
Test CRC B2A0B261
Copy CRC B2A0B261
Cannot be verified as accurate (confidence 6) [90FAA607], AccurateRip returned [B40FE804]
Copy OK

Track 16

Filename Z:\music\f\Flint Glass\2009 Nyarlathotep [flac]\Flint Glass - 16 - Brain Death (Ah Cama-Sotz Remix).wav

Peak level 97.7 %
Track quality 100.0 %
Test CRC 6AF1320A
Copy CRC 6AF1320A
Cannot be verified as accurate (confidence 5) [04D9E1BF], AccurateRip returned [080B0EE9]
Copy OK

Track 17

Filename Z:\music\f\Flint Glass\2009 Nyarlathotep [flac]\Flint Glass - 17 - Germ Code (Disharmony Remix).wav

Peak level 97.7 %
Track quality 100.0 %
Test CRC E66FB80D
Copy CRC E66FB80D
Cannot be verified as accurate (confidence 5) [19B68D3E], AccurateRip returned [4D8561C7]
Copy OK

Track 18

Filename Z:\music\f\Flint Glass\2009 Nyarlathotep [flac]\Flint Glass - 18 - Brain Speaking Machine (Xabec Remix).wav

Peak level 97.7 %
Track quality 100.0 %
Test CRC 0AC808D8
Copy CRC 0AC808D8
Cannot be verified as accurate (confidence 6) [788DFB0B], AccurateRip returned [8C6508CA]
Copy OK

Track 19

Filename Z:\music\f\Flint Glass\2009 Nyarlathotep [flac]\Flint Glass - 19 - R'lyeh La Morte (This Morn' Omina & Empusae Remix).wav

Peak level 97.7 %
Track quality 100.0 %
Test CRC 8D47F4E7
Copy CRC 8D47F4E7
Cannot be verified as accurate (confidence 5) [3B22C8D3], AccurateRip returned [715A3569]
Copy OK

No tracks could be verified as accurate
You may have a different pressing from the one(s) in the database

No errors occurred

End of status report
-------------------------------------------------------------------------------------------------------------

Exact Audio Copy V0.99 prebeta 5 from 4. May 2009

EAC extraction logfile from 18. March 2010, 23:51

Flint Glass / From Beyond

Used drive : TSSTcorpCDDVDW SH-S223F Adapter: 1 ID: 1

Read mode : Secure
Utilize accurate stream : Yes
Defeat audio cache : Yes
Make use of C2 pointers : No

Read offset correction : 6
Overread into Lead-In and Lead-Out : No
Fill up missing offset samples with silence : Yes
Delete leading and trailing silent blocks : No
Null samples used in CRC calculations : Yes
Used interface : Native Win32 interface for Win NT & 2000
Gap handling : Appended to previous track

Used output format : User Defined Encoder
Selected bitrate : 128 kBit/s
Quality : High
Add ID3 tag : No
Command line compressor : C:\Program Files (x86)\Exact Audio Copy\Flac\flac.exe
Additional command line options : -V -8 -T "artist=%a" -T "title=%t" -T "album=%g" -T "date=%y" -T "tracknumber=%n" -T "genre=%m" %s

TOC of the extracted CD

Track | Start | Length | Start sector | End sector
---------------------------------------------------------
1 | 0:00.00 | 5:49.31 | 0 | 26205
2 | 5:49.31 | 0:16.17 | 26206 | 27422
3 | 6:05.48 | 5:37.69 | 27423 | 52766
4 | 11:43.42 | 0:15.27 | 52767 | 53918
5 | 11:58.69 | 6:54.67 | 53919 | 85035
6 | 18:53.61 | 0:28.70 | 85036 | 87205
7 | 19:22.56 | 10:00.55 | 87206 | 132260

Track 1

Filename Z:\music\f\Flint Glass\2009 From Beyond [flac]\Flint Glass - 01 - Al Takwi.wav

Pre-gap length 0:00:02.00

Peak level 100.0 %
Track quality 100.0 %
Test CRC 5B14D29B
Copy CRC 5B14D29B
Track not present in AccurateRip database
Copy OK

Track 2

Filename Z:\music\f\Flint Glass\2009 From Beyond [flac]\Flint Glass - 02 - Ghroth.wav

Peak level 100.0 %
Track quality 100.0 %
Test CRC 0940D595
Copy CRC 0940D595
Track not present in AccurateRip database
Copy OK

Track 3

Filename Z:\music\f\Flint Glass\2009 From Beyond [flac]\Flint Glass - 03 - Hypnos.wav

Peak level 100.0 %
Track quality 100.0 %
Test CRC B8975839
Copy CRC B8975839
Track not present in AccurateRip database
Copy OK

Track 4

Filename Z:\music\f\Flint Glass\2009 From Beyond [flac]\Flint Glass - 04 - Yegg ha.wav

Peak level 100.0 %
Track quality 100.0 %
Test CRC 193DFB8C
Copy CRC 193DFB8C
Track not present in AccurateRip database
Copy OK

Track 5

Filename Z:\music\f\Flint Glass\2009 From Beyond [flac]\Flint Glass - 05 - Al Azif.wav

Peak level 100.0 %
Track quality 100.0 %
Test CRC 06BF549D
Copy CRC 06BF549D
Track not present in AccurateRip database
Copy OK

Track 6

Filename Z:\music\f\Flint Glass\2009 From Beyond [flac]\Flint Glass - 06 - Xurhn.wav

Peak level 75.3 %
Track quality 100.0 %
Test CRC 2BDD51ED
Copy CRC 2BDD51ED
Track not present in AccurateRip database
Copy OK

Track 7

Filename Z:\music\f\Flint Glass\2009 From Beyond [flac]\Flint Glass - 07 - The hound.wav

Peak level 100.0 %
Track quality 100.0 %
Test CRC 86288ECA
Copy CRC 86288ECA
Track not present in AccurateRip database
Copy OK

None of the tracks are present in the AccurateRip database

No errors occurred

End of status report


REM GENRE IDM
REM DATE 2009
REM DISCID EA10FA13
REM DISCNUMBER 1
PERFORMER "Flint Glass"
TITLE "Nyarlathotep + From Beyond EP"
FILE "01. R'lyeh La Morte.flac" WAVE
TRACK 1 AUDIO
TITLE "R'lyeh La Morte"
PERFORMER "Flint Glass"
INDEX 01 00:00:00
FILE "02. Nyarlathotep.flac" WAVE
TRACK 2 AUDIO
TITLE Nyarlathotep
PERFORMER "Flint Glass"
INDEX 01 00:00:00
FILE "03. Brain Speaking Machine.flac" WAVE
TRACK 3 AUDIO
TITLE "Brain Speaking Machine"
PERFORMER "Flint Glass"
INDEX 01 00:00:00
FILE "04. Azathoth.flac" WAVE
TRACK 4 AUDIO
TITLE Azathoth
PERFORMER "Flint Glass"
INDEX 01 00:00:00
FILE "05. De Vermis Mysteriis.flac" WAVE
TRACK 5 AUDIO
TITLE "De Vermis Mysteriis"
PERFORMER "Flint Glass"
INDEX 01 00:00:00
FILE "06. Ubbo-Sathla.flac" WAVE
TRACK 6 AUDIO
TITLE Ubbo-Sathla
PERFORMER "Flint Glass"
INDEX 01 00:00:00
FILE "07. Nephren-Ka.flac" WAVE
TRACK 7 AUDIO
TITLE Nephren-Ka
PERFORMER "Flint Glass"
INDEX 01 00:00:00
FILE "08. Hastur.flac" WAVE
TRACK 8 AUDIO
TITLE Hastur
PERFORMER "Flint Glass"
INDEX 01 00:00:00
FILE "09. Alhazred.flac" WAVE
TRACK 9 AUDIO
TITLE Alhazred
PERFORMER "Flint Glass"
INDEX 01 00:00:00
FILE "10. Yuggoth.flac" WAVE
TRACK 10 AUDIO
TITLE Yuggoth
PERFORMER "Flint Glass"
INDEX 01 00:00:00
FILE "11. Angular Space.flac" WAVE
TRACK 11 AUDIO
TITLE "Angular Space"
PERFORMER "Flint Glass"
INDEX 01 00:00:00
FILE "12. Shudde M'ell.flac" WAVE
TRACK 12 AUDIO
TITLE "Shudde M'ell"
PERFORMER "Flint Glass"
INDEX 01 00:00:00
FILE "13. Cthulhu Dawn.flac" WAVE
TRACK 13 AUDIO
TITLE "Cthulhu Dawn"
PERFORMER "Flint Glass"
INDEX 01 00:00:00
FILE "14. Yog-Sothot.flac" WAVE
TRACK 14 AUDIO
TITLE Yog-Sothot
PERFORMER "Flint Glass"
INDEX 01 00:00:00
FILE "15. Slither Chaos.flac" WAVE
TRACK 15 AUDIO
TITLE "Slither Chaos"
PERFORMER "Flint Glass"
INDEX 01 00:00:00
FILE "16. Brain Death (Ah Cama-Sotz Remix).flac" WAVE
TRACK 16 AUDIO
TITLE "Brain Death (Ah Cama-Sotz Remix)"
PERFORMER "Flint Glass"
INDEX 01 00:00:00
FILE "17. Germ Code (Disharmony Remix).flac" WAVE
TRACK 17 AUDIO
TITLE "Germ Code (Disharmony Remix)"
PERFORMER "Flint Glass"
INDEX 01 00:00:00
FILE "18. Brain Speaking Machine (Xabec Remix).flac" WAVE
TRACK 18 AUDIO
TITLE "Brain Speaking Machine (Xabec Remix)"
PERFORMER "Flint Glass"
INDEX 01 00:00:00
FILE "19. R'lyeh La Morte (This Morn' Omina & Empusae Remix).flac" WAVE
TRACK 19 AUDIO
TITLE "R'lyeh La Morte (This Morn' Omina & Empusae Remix)"
PERFORMER "Flint Glass"
INDEX 01 00:00:00
------------------------------------------------------------------------------------------

REM GENRE IDM
REM DATE 2009
REM DISCID 4606E307
REM DISCNUMBER 2
PERFORMER "Flint Glass"
TITLE "Nyarlathotep + From Beyond EP"
FILE "01. Al Takwi.flac" WAVE
TRACK 1 AUDIO
TITLE "Al Takwi"
PERFORMER "Flint Glass"
INDEX 01 00:00:00
FILE "02. Ghroth.flac" WAVE
TRACK 2 AUDIO
TITLE Ghroth
PERFORMER "Flint Glass"
INDEX 01 00:00:00
FILE "03. Hypnos.flac" WAVE
TRACK 3 AUDIO
TITLE Hypnos
PERFORMER "Flint Glass"
INDEX 01 00:00:00
FILE "04. Yegg Ha.flac" WAVE
TRACK 4 AUDIO
TITLE "Yegg Ha"
PERFORMER "Flint Glass"
INDEX 01 00:00:00
FILE "05. Al Azif.flac" WAVE
TRACK 5 AUDIO
TITLE "Al Azif"
PERFORMER "Flint Glass"
INDEX 01 00:00:00
FILE "06. Xurhn.flac" WAVE
TRACK 6 AUDIO
TITLE Xurhn
PERFORMER "Flint Glass"
INDEX 01 00:00:00
FILE "07. The Hound.flac" WAVE
TRACK 7 AUDIO
TITLE "The Hound"
PERFORMER "Flint Glass"
INDEX 01 00:00:00
Время раздачи: 12/7
[NNMClub.to]_Flint Glass FLAC.torrent
 Торрент: Серебряная раздча  Зарегистрирован
 
Зарегистрируйтесь и скачайте торрент!
43,5 KB

Примагнититься
 Зарегистрирован:   30 Июн 2020 09:39:59
 Размер:   4,44 GB  (
 Рейтинг:   5 (Голосов: 14)
 Поблагодарили:   60
 Проверка:   Оформление проверено модератором 30 Июн 2020 09:41:16
Как cкачать  ·  Как раздать  ·  Правильно оформить  ·  Поднять ратио!  
vilator ®
Модератор Музыки
RG Music
 
Стаж: 11 лет 2 мес.
Сообщений: 10776
Ratio: 298,284
Поблагодарили: 213608
100%
Откуда: Minsk
pirates.png
Обновление:
вебку 2015 Deus Irae (Flint Glass & Collapsar) заменил на рип.
vilator ®
Модератор Музыки
RG Music
 
Стаж: 11 лет 2 мес.
Сообщений: 10776
Ratio: 298,284
Поблагодарили: 213608
100%
Откуда: Minsk
pirates.png
Обновление:
2020 Inconséquante Et Dilettante (Mode In Gliany & Flint Glass) (Reissue) (WEB)
Показать сообщения:   
Начать новую тему   Ответить на тему    Торрент-трекер NNM-Club -> Electronic -> IDM (Lossless) Часовой пояс: GMT + 3
Страница 1 из 1