Классический форум-трекер
canvas not supported
Нас вместе: 4 093 790

Boruto: Naruto the Movie / Боруто: Фильм Наруто [2015, MV] BDRip 720p Raw+Rus


 
 
RSS
Начать новую тему   Ответить на тему    Торрент-трекер NNM-Club -> Аниме с озвучкой -> Аниме с озвучкой (HD)
Автор Сообщение
Ampho_DnB ®
RG Аниме
Uploader 100+
 
Стаж: 8 лет 1 мес.
Сообщений: 3805
Ratio: 353,114
Поблагодарили: 88128
100%
Откуда: Душанбе
roody.gif
Boruto: Naruto the Movie / Боруто: Фильм Наруто
Жанр: приключения, комедия, боевые искусства, сёнэн
Тип: полнометражный фильм
Продолжительность: 95 минут
Выпуск: 07.08.2015
Автор: Кисимото Масаси
Режиссер: Ямасита Хироюки
Производство: Studio Pierrot
Информационные ссылки: AniDB || World Art || MAL || ANN
Релиз подготовлен студией Kansai
  • Тип озвучки: Многоголосая, закадровая

Описание:
Боруто Узумаки — сын Наруто Узумаки, героя Скрытого листа и Седьмого Хокаге. Главный герой сея истории весьма одарен, но ненавидит работу Наруто и поэтому считает его неважным отцом. Боруто считает своего отца героем, и в его сердце возникает желание превзойти героический путь отца, и лучшей идеей для этого становится намерение стать учеником человека, который знал его отца с ранних лет и являлся одновременно соперником и лучшим другом. Но что думает об этом сам Саске Учиха? В то время, как команда Боруто обзаведётся своим учителем, Боруто будет называть учителем Саске.

Итак, наступает новая эпоха для жизни нового поколения шиноби.
Качество: BDRip
Язык озвучки: Японский и Русский
Формат: MKV
Видео: x264, 1280x688, ~2 757 kbps, 23.976 fps
Аудио: AAC, 484 kbps, 48.0 kHz, 6 ch
Аудио: AAC, 320 kbps, 48.0 kHz, 2 ch
General
Unique ID : 301963309085372429455783493380976088987 (0xE32C049593F197D9AB5F7AAD01CF179B)
Complete name : [KANSAI] Boruto - Naruto the Movie [720p].mkv
Format : Matroska
Format version : Version 4 / Version 2
File size : 2.37 GiB
Duration : 1 h 35 min
Overall bit rate : 3 562 kb/s
Encoded date : UTC 2017-12-25 11:03:52
Writing application : mkvmerge v19.0.0 ('Brave Captain') 64-bit
Writing library : libebml v1.3.5 + libmatroska v1.4.8

Video
ID : 1
Format : AVC
Format/Info : Advanced Video Codec
Format profile : High 10@L4.1
Format settings : CABAC / 4 Ref Frames
Format settings, CABAC : Yes
Format settings, ReFrames : 4 frames
Codec ID : V_MPEG4/ISO/AVC
Duration : 1 h 35 min
Bit rate : 2 757 kb/s
Width : 1 280 pixels
Height : 688 pixels
Display aspect ratio : 1.85:1
Frame rate mode : Constant
Frame rate : 23.976 (24000/1001) FPS
Color space : YUV
Chroma subsampling : 4:2:0
Bit depth : 10 bits
Scan type : Progressive
Bits/(Pixel*Frame) : 0.131
Stream size : 1.84 GiB (77%)
Writing library : x264 core 148 r2705+54 9f484c1 t_mod_Custom [10-bit@all X86_64]
Encoding settings : cabac=1 / ref=4 / deblock=1:-2:-2 / analyse=0x3:0x133 / me=umh / subme=10 / psy=1 / fade_compensate=0.00 / psy_rd=0.70:0.00 / mixed_ref=1 / me_range=24 / chroma_me=1 / trellis=2 / 8x8dct=1 / cqm=0 / deadzone=21,11 / fast_pskip=1 / chroma_qp_offset=-2 / threads=12 / lookahead_threads=2 / sliced_threads=0 / nr=0 / decimate=0 / interlaced=0 / bluray_compat=0 / constrained_intra=0 / fgo=0 / bframes=8 / b_pyramid=2 / b_adapt=2 / b_bias=0 / direct=3 / weightb=1 / open_gop=0 / weightp=2 / keyint=250 / keyint_min=23 / scenecut=40 / intra_refresh=0 / rc=crf / mbtree=0 / crf=17.0000 / qcomp=0.60 / qpmin=10:10:10 / qpmax=38:38:38 / qpstep=4 / ip_ratio=1.40 / pb_ratio=1.30 / aq=1:1.00 / aq-sensitivity=10.00 / aq-factor=1.00:1.00:1.00 / aq2=0 / aq3=0
Language : Japanese
Default : Yes
Forced : No
Color range : Limited
Color primaries : BT.709
Transfer characteristics : BT.709
Matrix coefficients : BT.709

Audio #1
ID : 2
Format : AAC
Format/Info : Advanced Audio Codec
Format profile : LC
Codec ID : A_AAC-2
Duration : 1 h 35 min
Bit rate : 320 kb/s
Channel(s) : 2 channels
Channel positions : Front: L R
Sampling rate : 48.0 kHz
Frame rate : 46.875 FPS (1024 SPF)
Compression mode : Lossy
Delay relative to video : 9 ms
Stream size : 218 MiB (9%)
Language : Russian
Default : Yes
Forced : No

Audio #2
ID : 3
Format : AAC
Format/Info : Advanced Audio Codec
Format profile : LC
Codec ID : A_AAC-2
Duration : 1 h 35 min
Bit rate : 484 kb/s
Channel(s) : 6 channels
Channel positions : Front: L C R, Side: L R, LFE
Sampling rate : 48.0 kHz
Frame rate : 46.875 FPS (1024 SPF)
Compression mode : Lossy
Delay relative to video : 9 ms
Stream size : 330 MiB (14%)
Language : Japanese
Default : No
Forced : No

Menu
00:00:00.000 : :Chapter 01
00:07:54.516 : :Chapter 02
00:16:09.594 : :Chapter 03
00:23:54.642 : :Chapter 04
00:32:16.059 : :Chapter 05
00:40:02.775 : :Chapter 06
00:48:17.228 : :Chapter 07
00:56:07.114 : :Chapter 08
01:04:43.463 : :Chapter 09
01:11:56.270 : :Chapter 10
01:20:05.676 : :Chapter 11
01:28:10.577 : :Chapter 12
01:35:14.883 : :Chapter 13


Время раздачи: До первых сидов
[NNM-Club.name]_[KANSAI] Boruto - Naruto the Movie [720p].mkv.torrent
 Торрент: Платиновая раздача  Зарегистрирован
 
Скачать


Примагнититься
 Зарегистрирован:   25 Дек 2017 14:27:43
 Размер:   2,37 GB  (
 Рейтинг:   4,6 (Голосов: 17)
 Поблагодарили:   41
 Проверка:   Оформление проверено модератором 25 Дек 2017 18:04:42
Как cкачать  ·  Как раздать  ·  Правильно оформить  ·  Поднять ратио!  
france982010
Стаж: 4 года 8 мес.
Сообщений: 92
Ratio: 1,779
48.86%
но ненавидит работу Наруто и поэтому считает его неважным отцом. Боруто считает своего отца героем ,,,,надо же как намутили
lexa1980
Стаж: 9 лет 1 мес.
Сообщений: 745
Ratio: 20,204
0.38%
russia.gif
а кто его мама? кто наруто охмурил ?
Показать сообщения:   
Начать новую тему   Ответить на тему    Торрент-трекер NNM-Club -> Аниме с озвучкой -> Аниме с озвучкой (HD) Часовой пояс: GMT + 3
Страница 1 из 1