Интеллигентный торрент-трекер
canvas not supported
Нас вместе: 4 123 379

Slow Start / Медленный старт [2018, TV, 12 ep] WEB-DL 720p Raw+Rus


 
 
RSS
Начать новую тему   Ответить на тему    Торрент-трекер NNM-Club -> Аниме с озвучкой -> Аниме с озвучкой (HD)
Автор Сообщение
Ampho_DnB ®
RG Аниме
Uploader 100+
 
Стаж: 6 лет 4 мес.
Сообщений: 3125
Ratio: 200,483
Поблагодарили: 76307
100%
Откуда: дует?
roody.gif
Slow Start / Медленный старт
Жанр: повседневность, комедия
Тип: TV-сериал
Продолжительность: 12 эпизодов по 25 минут
Выпуск: c 07.01.2018 по 25.03.2018
Автор: Токуми Юйко
Режиссер: Хасимото Хироюки
Производство: A-1 Pictures Inc.
Информационные ссылки: AniDB || World Art || MAL || ANN
Релиз подготовлен студией Студийная Банда
  • Тип озвучки: Многоголосая, закадровая

Описание:
Иногда в жизни не всё получается так гладко, как этого хочешь. Стоит замечтаться, попялиться в школьное окно во время урока, как пропустишь очень важный материал. Ну а дальше по накатанной: плохая успеваемость приведёт к довольно-таки отвратительным оценкам знаний, вступительные экзамены в старшую школу сдать не получится. Не у всех порой выходит вовремя взять себя в руки, включить голову, настроиться на поставленную цель – сконцентрироваться на учебном процессе. Что сказать – молодые годы! Мысли о чем угодно, но только не об учебе. Как раз вот из таких «особенных» учениц и пойдёт речь. Хана Ичиносэ не смогла с первого раза попасть в старшую школу. В свои шестнадцать лет, когда её уже бывшие одноклассники смогли двигаться по течению нормально, Хана летала в облаках. Но теперь, пускай год и потерян, девушка смогла-таки добраться до старшей школы. Правда, никто в классе не догадывается о том, что на самом деле, она потеряла… Для Ханы теперь главное – не наступить на одни и те же грабли дважды! Если показываться на глаза бывшим одноклассникам как-то стыдновато, то теперь ей выдался второй шанс. Учись Хана! Не летай в облаках! Тебе стоит постараться, дабы не остаться на год еще раз.
Качество: WEB-DLRip | Энкод: HorribleSubs
Язык озвучки: Японский и Русский
Формат: MKV
Видео: x264, 1280x720, ~1 776 kbps, 23.976 fps
Аудио: AAC, 128 kbps, 44.1 kHz, 2 ch
Аудио: AAC, 192 kbps, 48.0 kHz, 2 ch
01. The First Butterflies
02. Exercise Wears Me Out
03. Teardrops Are Falling
04. The Premium Tournament on the Second Floor
05. Kamuri`s Fluffy
06. Sliminess of an Eel
07. Cuffed Wrists
08. Hana`s Friends
09. Gorilla in a Swimsuit
10. The Shark`s Cousin
11. Tomato Festival
12. Starting Slow
General
Unique ID : 40665182194532089413817361978513344020 (0x1E97D446FDC5872690F68C00E426C614)
Complete name : Slow Start [StudioBand]\[StudioBand] Slow Start - 01 [720p].mkv
Format : Matroska
Format version : Version 4 / Version 2
File size : 356 MiB
Duration : 23 min 45 s
Overall bit rate : 2 096 kb/s
Encoded date : UTC 2018-01-22 10:56:17
Writing application : mkvmerge v20.0.0 ('I Am The Sun') 64-bit
Writing library : libebml v1.3.5 + libmatroska v1.4.8

Video
ID : 1
Format : AVC
Format/Info : Advanced Video Codec
Format profile : High@L4
Format settings : CABAC / 6 Ref Frames
Format settings, CABAC : Yes
Format settings, ReFrames : 6 frames
Codec ID : V_MPEG4/ISO/AVC
Duration : 23 min 44 s
Bit rate : 1 776 kb/s
Width : 1 280 pixels
Height : 720 pixels
Display aspect ratio : 16:9
Frame rate mode : Variable
Frame rate : 23.976 (23976/1000) FPS
Color space : YUV
Chroma subsampling : 4:2:0
Bit depth : 8 bits
Scan type : Progressive
Bits/(Pixel*Frame) : 0.080
Stream size : 302 MiB (85%)
Writing library : x264 core 120 r2120 0c7dab9
Encoding settings : cabac=1 / ref=6 / deblock=1:1:1 / analyse=0x3:0x113 / me=umh / subme=8 / psy=1 / psy_rd=0.40:0.00 / mixed_ref=1 / me_range=16 / chroma_me=1 / trellis=1 / 8x8dct=1 / cqm=0 / deadzone=21,11 / fast_pskip=1 / chroma_qp_offset=-2 / threads=4 / sliced_threads=0 / nr=0 / decimate=1 / interlaced=0 / bluray_compat=0 / constrained_intra=0 / bframes=3 / b_pyramid=2 / b_adapt=2 / b_bias=0 / direct=3 / weightb=1 / open_gop=0 / weightp=2 / keyint=250 / keyint_min=23 / scenecut=40 / intra_refresh=0 / rc_lookahead=50 / rc=2pass / mbtree=1 / bitrate=1776 / ratetol=1.0 / qcomp=0.60 / qpmin=0 / qpmax=69 / qpstep=4 / cplxblur=20.0 / qblur=0.5 / vbv_maxrate=3552 / vbv_bufsize=8880 / nal_hrd=none / ip_ratio=1.40 / aq=1:0.60
Default : Yes
Forced : No

Audio #1
ID : 2
Format : AAC
Format/Info : Advanced Audio Codec
Format profile : LC
Codec ID : A_AAC-2
Duration : 23 min 45 s
Bit rate : 192 kb/s
Channel(s) : 2 channels
Channel positions : Front: L R
Sampling rate : 48.0 kHz
Frame rate : 46.875 FPS (1024 SPF)
Compression mode : Lossy
Stream size : 32.2 MiB (9%)
Language : Russian
Default : Yes
Forced : No

Audio #2
ID : 3
Format : AAC
Format/Info : Advanced Audio Codec
Format profile : LC
Codec ID : A_AAC-2
Duration : 23 min 45 s
Bit rate : 128 kb/s
Channel(s) : 2 channels
Channel positions : Front: L R
Sampling rate : 44.1 kHz
Frame rate : 43.066 FPS (1024 SPF)
Compression mode : Lossy
Stream size : 21.7 MiB (6%)
Language : Japanese
Default : No
Forced : No


Время раздачи: До первых сидов
 Торрент: Платиновая раздача  Зарегистрирован
 
Скачать


Примагнититься
 Зарегистрирован:   17 Май 2018 17:21:48
 Размер:   4,17 GB  (
 Рейтинг:   4,5 (Голосов: 15)
 Поблагодарили:   22
 Проверка:   Оформление проверено модератором 17 Май 2018 19:04:28
Как cкачать  ·  Как раздать  ·  Правильно оформить  ·  Поднять ратио!  
Ampho_DnB ®
RG Аниме
Uploader 100+
 
Стаж: 6 лет 4 мес.
Сообщений: 3125
Ratio: 200,483
Поблагодарили: 76307
100%
Откуда: дует?
roody.gif
Торрент обновлен. Добавлены 8-12 серии.
Релиз завершен.
Показать сообщения:   
Начать новую тему   Ответить на тему    Торрент-трекер NNM-Club -> Аниме с озвучкой -> Аниме с озвучкой (HD) Часовой пояс: GMT + 3
Страница 1 из 1