Классический форум-трекер
canvas not supported
Нас вместе: 4 078 884

Виктор Кроули / Victor Crowley (2017) BDRemux [H.264/1080p] [EN / EN Sub]


 
 
RSS
Начать новую тему   Ответить на тему    Торрент-трекер NNM-Club -> Зарубежное кино -> Фильмы в оригинале (HD, UHD, UHD-LQ)
Автор Сообщение
smaster67 ®
Модератор Видео
Покровитель талантов Uploader 300+
Стаж: 10 лет 3 мес.
Сообщений: 7117
Ratio: 225,468
Поблагодарили: 215360
100%
Виктор Кроули / Victor Crowley (2017) BDRemux [H.264/1080p] [EN / EN Sub]

Производство: США / ArieScope Pictures
Жанр: ужасы, комедия

Режиссер: Адам Грин
Актеры: Парри Шен, Кэйн Ходдер, Лаура Ортис, Дейв Шеридан, Кристал Джой Браун, Брайан Куинн, Фелисса Роуз, Чейз Уильямсон, Кэти Бут, Тиффани Шепис, Джона Рэй

Описание:
В 2007 году девять человек были буквально разорваны на куски на болотах Луизианы. В течение последних десяти лет единственный выживший Эндрю Йонг продолжал твердить, будто эту резню учинил ужасный Виктор Кроули из местной легенды, однако парню никто не верил. И вот теперь судьба возвращает Эндрю к месту трагедии, чтобы столкнуть нос к носу с кровожадным призраком из прошлого.



Продолжительность: 01:22:40
Качество видео: BDRemux
Перевод: Отсутствует
Язык озвучки: Английский
Субтитры: английские

Видео: AVC, 1920x1080 (16:9), 24984 kbps, 23.976 fps, 0.503 bpp
Аудио №1: английский / DTS-HD / 5.1 / 48 kHz / 1996 kbps / 16 bit (Core: 5.1 / 48 kHz / 1509 kbps / 16 bit)
Аудио №2: английский / AC3 / 2.0 / 48 kHz / 256 kbps /
Аудио №3: английский / AC3 / 2.0 / 48 kHz / 256 kbps /
Код: выделить все
General
Unique ID                               Victor.Crowley.2017.BluRay.1080p.DTS-HD.MA.5.1.AVC.REMUX-FraMeSToR.mkv
Format                                   : Matroska
Format version                           : Version 4 / Version 2
File size                                : 15.9 GiB
Duration                                 : 1 h 22 min
Overall bit rate mode                    : Variable
Overall bit rate                         : 27.6 Mb/s
Movie name                               : Victor Crowley
Encoded date                             : UTC 2018-02-01 13:00:20
Writing application                      : mkvmerge v20.0.0 ('I Am The Sun') 64-bit
Writing library                          : libebml v1.3.5 + libmatroska v1.4.8

Video
ID                                       : 1
Format                                   : AVC
Format/Info                              : Advanced Video Codec
Format profile                           : High@L4.1
Format settings, CABAC                   : Yes
Format settings, ReFrames                : 4 frames
Codec ID                                 : V_MPEG4/ISO/AVC
Duration                                 : 1 h 22 min
Bit rate mode                            : Variable
Bit rate                                 : 25.0 Mb/s
Maximum bit rate                         : 35.0 Mb/s
Width                                    : 1 920 pixels
Height                                   : 1 080 pixels
Display aspect ratio                     : 16:9
Frame rate mode                          : Constant
Frame rate                               : 23.976 (24000/1001) FPS
Standard                                 : NTSC
Color space                              : YUV
Chroma subsampling                       : 4:2:0
Bit depth                                : 8 bits
Scan type                                : Progressive
Bits/(Pixel*Frame)                       : 0.503
Stream size                              : 14.4 GiB (91%)
Default                                  : Yes
Forced                                   : No
Color range                              : Limited
Color primaries                          : BT.709
Transfer characteristics                 : BT.709
Matrix coefficients                      : BT.709

Audio #1
ID                                       : 2
Format                                   : DTS
Format/Info                              : Digital Theater Systems
Format profile                           : MA / Core
Mode                                     : 16
Format settings, Endianness              : Big
Codec ID                                 : A_DTS
Duration                                 : 1 h 22 min
Bit rate mode                            : Variable / Constant
Bit rate                                 : 1 997 kb/s / 1 509 kb/s
Channel(s)                               : 6 channels
Channel positions                        : Front: L C R, Side: L R, LFE
Sampling rate                            : 48.0 kHz
Frame rate                               : 93.750 FPS (512 spf)
Bit depth                                : 16 bits
Compression mode                         : Lossless / Lossy
Stream size                              : 1.15 GiB (7%)
Title                                    : DTS-HD MA 5.1
Language                                 : English
Default                                  : Yes
Forced                                   : No

Audio #2
ID                                       : 3
Format                                   : AC-3
Format/Info                              : Audio Coding 3
Mode extension                           : CM (complete main)
Format settings, Endianness              : Big
Codec ID                                 : A_AC3
Duration                                 : 1 h 22 min
Bit rate mode                            : Constant
Bit rate                                 : 256 kb/s
Channel(s)                               : 2 channels
Channel positions                        : Front: L R
Sampling rate                            : 48.0 kHz
Frame rate                               : 31.250 FPS (1536 spf)
Compression mode                         : Lossy
Stream size                              : 151 MiB (1%)
Title                                    : Commentary by Adam Green/Parry Shen/Laura Ortiz/Dave Sheridan
Language                                 : English
Default                                  : No
Forced                                   : No

Audio #3
ID                                       : 4
Format                                   : AC-3
Format/Info                              : Audio Coding 3
Mode extension                           : CM (complete main)
Format settings, Endianness              : Big
Codec ID                                 : A_AC3
Duration                                 : 1 h 22 min
Bit rate mode                            : Constant
Bit rate                                 : 256 kb/s
Channel(s)                               : 2 channels
Channel positions                        : Front: L R
Sampling rate                            : 48.0 kHz
Frame rate                               : 31.250 FPS (1536 spf)
Compression mode                         : Lossy
Stream size                              : 151 MiB (1%)
Title                                    : Commentary by Adam Green/Jan-Michael Losada/Matt Latham/Robert Pendergraft
Language                                 : English
Default                                  : No
Forced                                   : No

Text
ID                                       : 5
Format                                   : PGS
Codec ID                                 : S_HDMV/PGS
Codec ID/Info                            : Picture based subtitle format used on BDs/HD-DVDs
Duration                                 : 1 h 18 min
Bit rate                                 : 60.5 kb/s
Count of elements                        : 3364
Stream size                              : 34.0 MiB (0%)
Title                                    : English (SDH)
Language                                 : English
Default                                  : No
Forced                                   : No

Menu
00:00:00.000                             : en:To Pieces
00:06:13.748                             : en:I, Survivor
00:11:02.287                             : en:One Job
00:14:42.298                             : en:Book Signing
00:20:16.257                             : en:Back to the Swamp
00:24:33.514                             : en:The Crew
00:28:50.270                             : en:Inflight
00:33:29.007                             : en:Out of the Sky
00:36:50.667                             : en:Get Off the Plane
00:39:40.336                             : en:Lucky Night
00:43:52.547                             : en:Hiding
00:45:42.657                             : en:I Told You He Was Real
00:49:46.275                             : en:Still Alive
00:54:22.551                             : en:Emergency
00:57:56.973                             : en:No Heroes
01:01:40.238                             : en:Why Tonight?
01:04:43.296                             : en:Under Siege
01:06:58.389                             : en:Gone Swimming
01:09:10.438                             : en:Up A Tree
01:12:13.955                             : en:Spun Around
01:14:20.956                             : en:Last Stand
01:16:28.584                             : en:Breaking News
01:18:52.144                             : en:End Credits

Скриншоты:



Все одноименные релизы в Клубе

Время раздачи: с 13:00 до 23:00
[NNM-Club.me]_Victor.Crowley.2017.BluRay.1080p.DTS-HD.MA.5.1.AVC.REMUX-FraMeSToR.mkv.torrent
 Торрент: Платиновая раздача  Зарегистрирован
 
Скачать


Примагнититься
 Зарегистрирован:   10 Фев 2018 23:54:04
 Размер:   15,9 GB  (
 Рейтинг:    (Голосов: 7)
 Поблагодарили:   37
 Проверка:   Оформление проверено модератором 10 Фев 2018 23:55:57
Как cкачать  ·  Как раздать  ·  Правильно оформить  ·  Поднять ратио!  
Загрузка...
Fiend_
Стаж: 3 года 1 мес.
Сообщений: 124
Ratio: 19,449
44.57%
ukraine.gif
спасибо
нормальная хоррор-комедия, мне понравилось )
-danger-
Стаж: 9 лет 2 мес.
Сообщений: 55
Ratio: 2,925
5.19%
это 4-ая часть "Топора" Hatchet
Показать сообщения:   
Начать новую тему   Ответить на тему    Торрент-трекер NNM-Club -> Зарубежное кино -> Фильмы в оригинале (HD, UHD, UHD-LQ) Часовой пояс: GMT + 3
Страница 1 из 1