Классический форум-трекер
canvas not supported
Нас вместе: 4 095 087

Россия. Забытые годы. История российских железных дорог (1993) DVDRip


 
 
RSS
Начать новую тему   Ответить на тему    Торрент-трекер NNM-Club -> Документалистика и Телепередачи -> Отечественная история
Автор Сообщение
RA25694 ®
Стаж: 13 лет 4 мес.
Сообщений: 931
Ratio: 12,083
Поблагодарили: 34812
100%
Откуда: СПб
russia.gif
Россия. Забытые годы. История российских железных дорог (1993) DVDRip
Жанр: Документальный
Описание фильма:

Первая железная дорога, построенная в патриархальной России в 1837 году, положила начало не только индустриальному перевороту. Русские "чугунки" повлияли на общественное сознание и быт россиян, способствовали укреплению империи. Фильм о полуторавековой истории российских железных дорог включает и рассказ о советском периоде, о технических новациях и магистралях огромной протяженности.

Продолжительность: 00:52:14
Видеокодек: XviD
Битрейт видео: 1768 KB/s
Размер кадра: 432 x 320
Качество видео: DVDRip

Аудиокодек: MP3
Битрейт аудио: 104 KB/s (VBR)
Перевод: Оригинальный
Общее
Полное имя :russian_railroad_story.avi
Формат : AVI
Формат/Информация : Audio Video Interleave
Размер файла : 700 Мбайт
Продолжительность : 52 м.
Режим общего битрейта : Переменный
Общий поток : 1874 Кбит/сек
Программа кодирования : VirtualDubMod 1.5.4.1 (build 2178/release)
Библиотека кодирования : VirtualDubMod build 2178/release

Видео
Идентификатор : 0
Формат : MPEG-4 Visual
Профиль формата : Advanced Simple@L5
Параметр BVOP формата : 1
Параметр QPel формата : Нет
Параметр GMC формата : Без точки перехода
Параметр матрицы формата : Выборочная
Идентификатор кодека : XVID
Идентификатор кодека/Подсказка : XviD
Продолжительность : 52 м.
Битрейт : 1756 Кбит/сек
Ширина : 432 пикселя
Высота : 320 пикселей
Соотношение сторон : 4:3
Частота кадров : 25,000 кадров/сек
Цветовое пространство : YUV
Субдискретизация насыщенности : 4:2:0
Битовая глубина : 8 бит
Тип развёртки : Прогрессивная
Метод сжатия : С потерями
Бит/(Пиксели*Кадры) : 0.508
Размер потока : 656 Мбайт (94%)
Библиотека кодирования : XviD 1.2.0.dev47 (UTC 2006-11-01)

Аудио
Идентификатор : 1
Формат : MPEG Audio
Версия формата : Version 1
Профиль формата : Layer 3
Режим : Joint stereo
Расширение режима : MS Stereo
Идентификатор кодека : 55
Идентификатор кодека/Подсказка : MP3
Продолжительность : 52 м.
Вид битрейта : Переменный
Битрейт : 105 Кбит/сек
Номинальный битрейт : 128 Кбит/сек
Каналы : 2 канала
Частота : 48,0 КГц
Метод сжатия : С потерями
Размер потока : 39,2 Мбайт (6%)
Выравнивание : Соединение по промежуткам
Продолжительность промежутка : 24 мс. (0,60 видеокадр)
Время предзагрузки промежутка : 515 мс.
Библиотека кодирования : LAME3.97
Настройки программы : -m j -V 4 -q 2 -lowpass 17 --abr 128
Язык : Russian
Скриншоты:


Время раздачи: 24/7
russian_railroad_story.avi.torrent
 Торрент: Золотая раздача  Зарегистрирован
 
Зарегистрируйтесь и скачайте торрент!
13,9 KB

 Зарегистрирован:   10 Май 2007 20:40:57
 Размер:   700 MB  (
 Рейтинг:   4 (Голосов: 20)
 Поблагодарили:   64
 Проверка:   Оформление проверено модератором 24 Июн 2008 17:19:04
Как cкачать  ·  Как раздать  ·  Правильно оформить  ·  Поднять ратио!  
№ной
Стаж: 11 лет 10 мес.
Сообщений: 42
Ratio: 57,027
Раздал: 13,25 TB
100%
ussr.gif
Раздайте пожалуйста, а то чё-то нет ни у кого докачанной версии походу

_________________

NZST
Стаж: 12 лет 10 мес.
Сообщений: 248
Ratio: 26,269
Поблагодарили: 6995
100%
Пару дней посижу на раздаче. Убедительная просьба не убегать после скачивания.
№ной
Стаж: 11 лет 10 мес.
Сообщений: 42
Ratio: 57,027
Раздал: 13,25 TB
100%
ussr.gif
NZST, спасибо огромное, сёня скачаю и как минимум месяц можете на меня рассчитывать, если с компом/инетом ничего не приключится

_________________

chipizubv
Стаж: 9 лет 1 мес.
Сообщений: 3
Ratio: 1,318
100%
Раздайте пожалуйста :поклоняется:
olk1975
Стаж: 9 лет 9 мес.
Сообщений: 47
Ratio: 2,534
100%
Хлопцы! А почему не раздаете? Вы уж откройте шлюзы...
Показать сообщения:   
Начать новую тему   Ответить на тему    Торрент-трекер NNM-Club -> Документалистика и Телепередачи -> Отечественная история Часовой пояс: GMT + 3
Страница 1 из 1