Интеллигентный торрент-трекер
canvas not supported
Нас вместе: 4 103 773

Сергей Тармашев | Древний. Предыстория. Книга первая (2018) [M4B|AAC]


 
 
RSS
Начать новую тему   Ответить на тему    Торрент-трекер NNM-Club -> Аудио и Видео -> Аудиокниги (AAC)
Автор Сообщение
trybag ®
Стаж: 5 лет 4 мес.
Сообщений: 135
Ratio: 13,188
Поблагодарили: 3752
100%
Сергей Тармашев | Древний. Предыстория. Книга первая
Автор: Сергей Тармашев
Год: 2018
Жанр: Фантастика
Продолжительность: 12:35:04
Читает: Kirk
Издательство: Аудиокнига своими руками

Описание: Цикл Сергея Тармашева «Древний» стал легендой отечественной фантастики и самой популярной из постапокалиптических саг. Новая книга, которую читатели ждали не один год, повествует о масштабных межгалактических событиях, предшествовавших грандиозной эпопее о Древнем. Читателям предстоит узнать о детстве Тринадцатого: того, кому предначертано стать величайшим из воинов…

Формат: M4B
Аудиокодек: AAC
Битрейт: 192 kbps
Частота: 44,1 KHz
Разбивка на главы: есть
Вшитая обложка: есть
Музыкальное сопровождение: есть

1. Древний. Предыстория. Книга первая
2. Древний. Предыстория. Книга вторая
3. Древний. Предыстория. Книга третья
4. Древний. Предыстория. Книга четвёртая

Код: выделить все
General
Complete name               : Предыстория. Книга 1 1.m4b
Format                      : MPEG-4
Format profile              : Apple audio with iTunes position
Codec ID                    : M4B  (M4B /mp42)
File size                   : 479 MiB
Duration                    : 5 h 45 min
Overall bit rate mode       : Variable
Overall bit rate            : 194 kb/s
Album                       : Древний. Предыстория
Album/Performer             : Сергей Тармашев
Part/Position               : 1
Part/Total                  : 4
Track name                  : Предыстория. Книга 1 1
Track name/Position         : 1
Track name/Total            : 2
Performer                   : Сергей Тармашев
Composer                    : Kirk
Publisher                   : Аудиокнига своими руками
Genre                       : Фантастика
Recorded date               : 2018
Encoded date                : UTC 2018-05-13 11:07:54
Tagged date                 : UTC 2018-05-14 07:30:04
Cover                       : Yes
art                         : Сергей Тармашев

Audio
ID                          : 1
Format                      : AAC
Format/Info                 : Advanced Audio Codec
Format profile              : LC
Codec ID                    : mp4a-40-2
Duration                    : 5 h 45 min
Bit rate mode               : Variable
Bit rate                    : 192 kb/s
Maximum bit rate            : 203 kb/s
Channel(s)                  : 2 channels
Channel positions           : Front: L R
Sampling rate               : 44.1 kHz
Frame rate                  : 43.066 FPS (1024 SPF)
Compression mode            : Lossy
Stream size                 : 475 MiB (99%)
Encoded date                : UTC 2018-05-13 11:07:54
Tagged date                 : UTC 2018-05-14 07:30:04
Menus                       : 2

Menu
ID                          : 2
Codec ID                    : text
Duration                    : 5 h 45 min
Language                    : English
Encoded date                : UTC 2018-05-14 07:28:37
Tagged date                 : UTC 2018-05-14 07:28:37
Menu For                    : 1
00:00:00.000                : Пролог
00:44:42.555                : Глава 1
01:49:19.683                : Глава 2
02:47:26.229                : Глава 3
03:36:53.321                : Глава 4
04:38:26.594                : Глава 5
Bit rate mode               : CBR
General
Complete name               : Предыстория. Книга 1 2.m4b
Format                      : MPEG-4
Format profile              : Apple audio with iTunes position
Codec ID                    : M4B  (M4B /mp42)
File size                   : 566 MiB
Duration                    : 6 h 49 min
Overall bit rate mode       : Variable
Overall bit rate            : 194 kb/s
Album                       : Древний. Предыстория
Album/Performer             : Сергей Тармашев
Part/Position               : 1
Part/Total                  : 4
Track name                  : Предыстория. Книга 1 2
Track name/Position         : 2
Track name/Total            : 2
Performer                   : Сергей Тармашев
Composer                    : Kirk
Publisher                   : Аудиокнига своими руками
Genre                       : Фантастика
Recorded date               : 2018
Encoded date                : UTC 2018-05-13 10:56:36
Tagged date                 : UTC 2018-05-14 07:30:11
Cover                       : Yes
art                         : Сергей Тармашев

Audio
ID                          : 1
Format                      : AAC
Format/Info                 : Advanced Audio Codec
Format profile              : LC
Codec ID                    : mp4a-40-2
Duration                    : 6 h 49 min
Bit rate mode               : Variable
Bit rate                    : 192 kb/s
Maximum bit rate            : 203 kb/s
Channel(s)                  : 2 channels
Channel positions           : Front: L R
Sampling rate               : 44.1 kHz
Frame rate                  : 43.066 FPS (1024 SPF)
Compression mode            : Lossy
Stream size                 : 562 MiB (99%)
Encoded date                : UTC 2018-05-13 10:56:36
Tagged date                 : UTC 2018-05-14 07:30:11
Menus                       : 2

Menu
ID                          : 2
Codec ID                    : text
Duration                    : 6 h 49 min
Language                    : English
Encoded date                : UTC 2018-05-14 07:29:28
Tagged date                 : UTC 2018-05-14 07:29:28
Menu For                    : 1
00:00:00.000                : Глава 6
01:03:48.390                : Глава 7
02:28:05.626                : Глава 8
03:44:10.275                : Глава 9
04:43:40.807                : Глава 10
Bit rate mode               : VBR

[NNM-Club.me]_Predyistoriya. Kniga 1.torrent
 Торрент: Платиновая раздача  Зарегистрирован
 
Скачать


Примагнититься
 Зарегистрирован:   16 Май 2018 22:34:34
 Размер:   1,02 GB  (
 Рейтинг:    (Голосов: 6)
 Поблагодарили:   52
 Проверка:   Оформление проверено модератором 16 Май 2018 23:45:31
WebMoney кошелек: R662717423455
Как cкачать  ·  Как раздать  ·  Правильно оформить  ·  Поднять ратио!  
Показать сообщения:   
Начать новую тему   Ответить на тему    Торрент-трекер NNM-Club -> Аудио и Видео -> Аудиокниги (AAC) Часовой пояс: GMT + 3
Страница 1 из 1