Классический форум-трекер
canvas not supported
Нас вместе: 4 103 691

Uchiage Hanabi, Shita kara Miru ka? Yoko kara Miru ka? / Fireworks / Откуда лучше всего видно фейерверк: снизу или сбоку? [2017, MV] BDRip Hi10p 1080p Raw+Rus


 
 
RSS
Начать новую тему   Ответить на тему    Торрент-трекер NNM-Club -> Аниме с озвучкой -> Аниме с озвучкой (FullHD)
Автор Сообщение
Ampho_DnB ®
RG Аниме
Uploader 100+
 
Стаж: 8 лет 2 мес.
Сообщений: 3831
Ratio: 362,27
Поблагодарили: 88621
100%
Откуда: Душанбе
roody.gif
Uchiage Hanabi, Shita kara Miru ka? Yoko kara Miru ka? / Fireworks / Откуда лучше всего видно фейерверк: снизу или сбоку?
Жанр: романтика, драма, фантастика
Тип: полнометражный фильм
Продолжительность: 90 мин.
Премьера: 18.08.2017
Автор: Ивай Сюндзи
Режиссер: Симбо Акиюки
Производство: SHAFT, Lay-duce
Информационные ссылки: AniDB || World Art || MAL || ANN
Релиз подготовлен студией Kansai
  • Тип озвучки: Многоголосая, закадровая

Описание:
Однажды летом трое мальчишек поспорили, круглые ли фейерверки на самом деле или плоские. Но как это выяснить, если не знаешь, как правильно на них смотреть? Между тем Назуна Оикава, девочка, которая учится в той же школе, страдает из-за развода родителей и решает выбрать одного из парней, чтобы сбежать вместе с ним.
Качество: BDRip | Энкод: Anime Land
Язык озвучки: Японский и Русский
Формат: MKV
Видео: x264 (10 bit) 1920x1080, ~7 130 kbps, 23.976 fps
Аудио: DTS, 1 509 kbps, 48.0 kHz, 6 ch
Аудио: AAC, 192 kbps, 48.0 kHz, 2 ch
General
Unique ID : 225162329439538260562136237326117412089 (0xA964AFF05F9FDFF8A54855C25A689CF9)
Complete name : [KANSAI] Uchiage Hanabi, Shita kara Miru ka Yoko kara Miru ka [1080p].mkv
Format : Matroska
Format version : Version 4 / Version 2
File size : 5.56 GiB
Duration : 1 h 30 min
Overall bit rate : 8 832 kb/s
Movie name : [Anime Land] Uchiage Hanabi, Shita kara Miru ka? Yoko kara Miru ka? (BDRip 1080p Hi10P DTS) RAW
Encoded date : UTC 2018-06-30 11:04:46
Writing application : mkvmerge v24.0.0 ('Beyond The Pale') 64-bit
Writing library : libebml v1.3.6 + libmatroska v1.4.9

Video
ID : 1
Format : AVC
Format/Info : Advanced Video Codec
Format profile : High 10@L5.1
Format settings : CABAC / 16 Ref Frames
Format settings, CABAC : Yes
Format settings, ReFrames : 16 frames
Codec ID : V_MPEG4/ISO/AVC
Duration : 1 h 30 min
Bit rate : 7 130 kb/s
Width : 1 920 pixels
Height : 1 080 pixels
Display aspect ratio : 16:9
Frame rate mode : Constant
Frame rate : 23.976 (24000/1001) FPS
Color space : YUV
Chroma subsampling : 4:2:0
Bit depth : 10 bits
Scan type : Progressive
Bits/(Pixel*Frame) : 0.143
Stream size : 4.49 GiB (81%)
Writing library : x264 core 152 r2851kMod ba24899
Encoding settings : cabac=1 / ref=16 / deblock=1:-1:-1 / analyse=0x3:0x133 / me=umh / subme=10 / psy=1 / fade_compensate=0.00 / psy_rd=1.00:0.15 / mixed_ref=1 / me_range=24 / chroma_me=1 / trellis=2 / 8x8dct=1 / cqm=0 / deadzone=21,11 / fast_pskip=0 / chroma_qp_offset=-3 / threads=34 / lookahead_threads=8 / sliced_threads=0 / nr=0 / decimate=1 / interlaced=0 / bluray_compat=0 / constrained_intra=0 / bframes=16 / b_pyramid=2 / b_adapt=2 / b_bias=0 / direct=3 / weightb=1 / open_gop=0 / weightp=2 / keyint=250 / keyint_min=23 / scenecut=40 / intra_refresh=0 / rc_lookahead=60 / rc=crf / mbtree=1 / crf=16.5000 / qcomp=0.80 / qpmin=0 / qpmax=81 / qpstep=4 / ip_ratio=1.40 / aq=3:1.00
Language : Japanese
Default : Yes
Forced : No
Color range : Limited
Color primaries : BT.709
Transfer characteristics : BT.709
Matrix coefficients : BT.709

Audio #1
ID : 2
Format : AAC
Format/Info : Advanced Audio Codec
Format profile : LC
Codec ID : A_AAC-2
Duration : 1 h 30 min
Bit rate : 192 kb/s
Channel(s) : 2 channels
Channel positions : Front: L R
Sampling rate : 48.0 kHz
Frame rate : 46.875 FPS (1024 SPF)
Compression mode : Lossy
Stream size : 122 MiB (2%)
Language : Russian
Default : Yes
Forced : No

Audio #2
ID : 3
Format : DTS
Format/Info : Digital Theater Systems
Codec ID : A_DTS
Duration : 1 h 30 min
Bit rate mode : Constant
Bit rate : 1 509 kb/s
Channel(s) : 6 channels
Channel positions : Front: L C R, Side: L R, LFE
Sampling rate : 48.0 kHz
Frame rate : 93.750 FPS (512 SPF)
Bit depth : 24 bits
Compression mode : Lossy
Stream size : 972 MiB (17%)
Language : Japanese
Default : No
Forced : No


Время раздачи: До первых сидов
[NNM-Club.me]_[KANSAI] Uchiage Hanabi, Shita kara Miru ka Yoko kara Miru ka [1080p].mkv.torrent
 Торрент: Платиновая раздача  Зарегистрирован
 
Скачать


Примагнититься
 Зарегистрирован:   30 Июн 2018 16:51:56
 Размер:   5,56 GB  (
 Рейтинг:   4,6 (Голосов: 17)
 Поблагодарили:   45
 Проверка:   Оформление проверено модератором 30 Июн 2018 18:12:22
Как cкачать  ·  Как раздать  ·  Правильно оформить  ·  Поднять ратио!  
Lordor
Стаж: 9 лет 9 мес.
Сообщений: 5
Ratio: 8,506
100%
В наименовании год указан неправильно, поправьте пожалуйста.
 !  Примечание от ElSwanko:
Спасибо, поправил.
Показать сообщения:   
Начать новую тему   Ответить на тему    Торрент-трекер NNM-Club -> Аниме с озвучкой -> Аниме с озвучкой (FullHD) Часовой пояс: GMT + 3
Страница 1 из 1