Интеллигентный торрент-трекер
canvas not supported
Нас вместе: 4 103 594

Дэвид Вебер | Поле бесчестья (2018) [m4b|AAC]


 
 
RSS
Начать новую тему   Ответить на тему    Торрент-трекер NNM-Club -> Аудио и Видео -> Аудиокниги (AAC)
Автор Сообщение
trybag ®
Стаж: 5 лет 4 мес.
Сообщений: 135
Ratio: 13,188
Поблагодарили: 3753
100%
Дэвид Вебер | Поле бесчестья
Автор: Дэвид Вебер
Год: 2018
Жанр: Фантастика
Продолжительность: 14:16:04
Читает: Владимир Князев
Издательство: Аудиокниги Владимира Князева

Описание: Наказанием за трусость, проявленную на поле боя и приведшую к гибели товарищей по оружию, может быть только смерть. Тем не менее капитан "Колдуна", совершивший этот позорный поступок, уходит от справедливой кары. Мало того, он плетет политическую интригу, мишенью которой является капитан Хонор Харрингтон.

Формат: M4B
Аудиокодек: AAC
Битрейт: 192 kbps
Частота: 48,0 KHz
Разбивка на главы: есть
Вшитая обложка: есть
Музыкальное сопровождение: есть

1. Космическая станция «Василиск» / On Basilisk Station (1993)
2. Честь королевы / The Honor of the Queen (1994)
3. Маленькая победоносная война / The Short Victorious War (1994)
4. Поле бесчестья / Field of Dishonor (1994)
5. Флагман в изгнании / Flag in Exile (1995)
6. Меж двух огней / Honor Among Enemies (1996)
7. В руках врага / In Enemy Hands (1997)
8. Испытание Адом / Echoes of Honor (1998)
9. Пепел победы / Ashes of Victory (2001)
10. Война и честь / War of Honor (2002)
11. Любой ценой / At All Costs (2005)
12. Дело чести / Mission of Honor (2010)

Код: выделить все
Общее
Полное имя                               : Поле бесчестья 1.m4b
Формат                                   : MPEG-4
Профиль формата                          : Apple audio with iTunes position
Идентификатор кодека                     : M4B  (M4B /mp42)
Размер файла                             : 585 Мбайт
Продолжительность                        : 7 ч. 2 м.
Режим общего битрейта                    : Переменный
Общий поток                              : 194 Кбит/сек
Альбом                                   : Хонор Харрингтон
Альбом/Исполнитель                       : Дэвид Вебер
Часть/Положение                          : 4
Часть/Всего                              : 12
Трек                                     : Поле бесчестья 1
Трек/Положение                           : 1
Трек/Всего                               : 2
Исполнитель                              : Дэвид Вебер
Композитор                               : Владимир Князев
Издатель                                 : Аудиокниги Владимира Князева
Жанр                                     : Фантастика
Дата записи                              : 2018
Дата кодирования                         : UTC 2018-07-08 15:50:30
Дата пометки                             : UTC 2018-07-08 19:24:08
Обложка                                  : Yes
art                                      : Дэвид Вебер

Аудио
Идентификатор                            : 1
Формат                                   : AAC
Формат/Информация                        : Advanced Audio Codec
Профиль формата                          : LC
Идентификатор кодека                     : mp4a-40-2
Продолжительность                        : 7 ч. 2 м.
Вид битрейта                             : Переменный
Битрейт                                  : 192 Кбит/сек
Максимальный битрейт                     : 196 Кбит/сек
Каналы                                   : 2 канала
Расположение каналов                     : Front: L R
Частота                                  : 48,0 КГц
Частота кадров                           : 46,875 кадров/сек (1024 SPF)
Метод сжатия                             : С потерями
Размер потока                            : 580 Мбайт (99%)
Дата кодирования                         : UTC 2018-07-08 15:50:30
Дата пометки                             : UTC 2018-07-08 19:24:08
Menus                                    : 2

Меню
Идентификатор                            : 2
Идентификатор кодека                     : text
Продолжительность                        : 7 ч. 2 м.
Язык                                     : English
Дата кодирования                         : UTC 2018-07-08 19:22:55
Дата пометки                             : UTC 2018-07-08 19:22:55
Menu For                                 : 1
00:00:00.000                             : Пролог
00:33:05.855                             : Глава 1
00:51:24.607                             : Глава 2
01:27:24.437                             : Глава 3
01:58:27.562                             : Глава 4
02:30:11.754                             : Глава 5
02:57:08.586                             : Глава 6
03:21:41.632                             : Глава 7
03:48:37.098                             : Глава 8
04:16:42.602                             : Глава 9
04:45:39.797                             : Глава 10
05:12:28.480                             : Глава 11
05:44:10.560                             : Глава 12
06:11:29.365                             : Глава 13
06:32:59.818                             : Глава 14
Вид битрейта                             : VBR

Общее
Полное имя                               : Поле бесчестья 2.m4b
Формат                                   : MPEG-4
Профиль формата                          : Apple audio with iTunes position
Идентификатор кодека                     : M4B  (M4B /mp42)
Размер файла                             : 601 Мбайт
Продолжительность                        : 7 ч. 13 м.
Режим общего битрейта                    : Переменный
Общий поток                              : 194 Кбит/сек
Альбом                                   : Хонор Харрингтон
Альбом/Исполнитель                       : Дэвид Вебер
Часть/Положение                          : 4
Часть/Всего                              : 12
Трек                                     : Поле бесчестья 2
Трек/Положение                           : 2
Трек/Всего                               : 2
Исполнитель                              : Дэвид Вебер
Композитор                               : Владимир Князев
Издатель                                 : Аудиокниги Владимира Князева
Жанр                                     : Фантастика
Дата записи                              : 2018
Дата кодирования                         : UTC 2018-07-08 16:02:33
Дата пометки                             : UTC 2018-07-08 19:24:17
Обложка                                  : Yes
art                                      : Дэвид Вебер

Аудио
Идентификатор                            : 1
Формат                                   : AAC
Формат/Информация                        : Advanced Audio Codec
Профиль формата                          : LC
Идентификатор кодека                     : mp4a-40-2
Продолжительность                        : 7 ч. 13 м.
Вид битрейта                             : Переменный
Битрейт                                  : 192 Кбит/сек
Максимальный битрейт                     : 196 Кбит/сек
Каналы                                   : 2 канала
Расположение каналов                     : Front: L R
Частота                                  : 48,0 КГц
Частота кадров                           : 46,875 кадров/сек (1024 SPF)
Метод сжатия                             : С потерями
Размер потока                            : 596 Мбайт (99%)
Дата кодирования                         : UTC 2018-07-08 16:02:33
Дата пометки                             : UTC 2018-07-08 19:24:17
Menus                                    : 2

Меню
Идентификатор                            : 2
Идентификатор кодека                     : text
Продолжительность                        : 7 ч. 13 м.
Язык                                     : English
Дата кодирования                         : UTC 2018-07-08 19:23:30
Дата пометки                             : UTC 2018-07-08 19:23:30
Menu For                                 : 1
00:00:00.000                             : Глава 15
00:27:43.850                             : Глава 16
00:56:28.970                             : Глава 17
01:16:25.195                             : Глава 18
01:52:13.845                             : Глава 19
02:11:14.816                             : Глава 20
02:23:43.574                             : Глава 21
02:57:57.888                             : Глава 22
03:27:08.630                             : Глава 23
03:54:41.259                             : Глава 24
04:23:01.504                             : Глава 25
04:41:38.453                             : Глава 26
05:03:19.787                             : Глава 27
05:29:46.602                             : Глава 28
05:59:40.480                             : Глава 29
06:16:23.808                             : Глава 30
06:30:50.624                             : Глава 31
06:43:13.770                             : Глава 32
06:58:11.520                             : Глава 33
Вид битрейта                             : CBR

[NNM-Club.me]_Pole beschest'ya.torrent
 Торрент:   Зарегистрирован
 
Зарегистрируйтесь и скачайте торрент!
12 KB
Free Leech
Примагнититься
 Зарегистрирован:   08 Июл 2018 19:52:19
 Размер:   1,16 GB  (
 Рейтинг:    (Голосов: 3)
 Поблагодарили:   22
 Проверка:   Оформление проверено модератором 09 Июл 2018 10:15:27
WebMoney кошелек: R662717423455
Как cкачать  ·  Как раздать  ·  Правильно оформить  ·  Поднять ратио!  
Показать сообщения:   
Начать новую тему   Ответить на тему    Торрент-трекер NNM-Club -> Аудио и Видео -> Аудиокниги (AAC) Часовой пояс: GMT + 3
Страница 1 из 1