Классический форум-трекер
canvas not supported
Нас вместе: 4 076 488

Overlord III / Повелитель [ТВ-3] [2018, TV, 13 ep] WEB-DL 720p Raw+Rus


 
 
RSS
Начать новую тему   Ответить на тему    Торрент-трекер NNM-Club -> Аниме с озвучкой -> Аниме с озвучкой (HD)
Автор Сообщение
Ampho_DnB ®
RG Аниме
Uploader 100+
 
Стаж: 6 лет 9 мес.
Сообщений: 3297
Ratio: 206,065
Поблагодарили: 79012
100%
Откуда: дует?
roody.gif
Overlord III / Повелитель [ТВ-3]
Жанр: приключения, фэнтези
Тип: TV-сериал
Продолжительность: 13 эпизодов по 25 минут
Выпуск: c 10.07.2018 по 02.10.2018
Автор: Маруяма Куганэ
Режиссер: Ито Наоюки
Производство: Madhouse Studios
Информационные ссылки: AniDB || World Art || MAL || ANN
Релиз подготовлен студией Back Board Cinema
  • Тип озвучки: Дублированный, профессиональный

Описание:
2138 год. Виртуальная реальность развивается семимильными шагами, и в это же время популярная онлайн-игра «Иггдрасиль» неожиданно закрывается. Момонга, главный герой истории, решает не выходить из игры до полного отключения серверов. Но произошло невероятное: сервер не прервал подключение, игра продолжилась, а Момонга превратился в могущественного скелета-волшебника. Мир начал расширяться, а NPC-персонажи — испытывать эмоции. Не имея родителей, друзей и места в обществе, Момонга решает не пытаться найти выход из игры, а остаться в ней, управляя Великой Гробницей Назарик.

После событий в королевстве Ре-Эстизе, Айнз Ул Гоун и его прислужники решают обратить внимание на следующею страну – империю Бахарут. В скором времени группа «рабочих» из Бахарута получила заказ от имперского аристократа на исследование таинственной гробницы, обнаруженной неподалёку от королевского города Э-Рантэла. Тем временем между Ре-Эстизе и Бахарутом назревает очередная война.
Качество: WEB-DLRip | Энкод: HorribleSubs
Язык озвучки: Японский и Русский
Формат: MKV
Видео: x264, 1280x720, ~2 205 kbps, 23.976 fps
Аудио: AAC, 128 kbps, 44.1 kHz, 2 ch
Аудио: AAC, 192 kbps, 48.0 kHz, 2 ch
01. Меланхолия владыки
02. И снова деревня Карне
03. Дни Энри, полные забот и тревог
04. Гигант Востока, Змей Запада
05. Два предводителя
06. Приглашение на тот свет
07. Бабочка в паучьих сетях
08. Крупица надежды
09. Словесная баталия
10. Приготовления к войне
11. Другое сражение
12. Бойня
13. PVP
General
Unique ID : 43791066489977268458850922005106188498 (0x20F1DA45A149C2AE39C242D1C752E0D2)
Complete name : Overlord III [Wakanim]\Overlord III - 01 [720p].mkv
Format : Matroska
Format version : Version 4 / Version 2
File size : 428 MiB
Duration : 23 min 40 s
Overall bit rate : 2 526 kb/s
Encoded date : UTC 2018-07-11 21:42:44
Writing application : mkvmerge v24.0.0 ('Beyond The Pale') 64-bit
Writing library : libebml v1.3.6 + libmatroska v1.4.9

Video
ID : 1
Format : AVC
Format/Info : Advanced Video Codec
Format profile : High@L4
Format settings : CABAC / 6 Ref Frames
Format settings, CABAC : Yes
Format settings, ReFrames : 6 frames
Codec ID : V_MPEG4/ISO/AVC
Duration : 23 min 40 s
Bit rate : 2 205 kb/s
Width : 1 280 pixels
Height : 720 pixels
Display aspect ratio : 16:9
Frame rate mode : Constant
Frame rate : 23.976 (24000/1001) FPS
Color space : YUV
Chroma subsampling : 4:2:0
Bit depth : 8 bits
Scan type : Progressive
Bits/(Pixel*Frame) : 0.100
Stream size : 373 MiB (87%)
Writing library : x264 core 142
Encoding settings : cabac=1 / ref=6 / deblock=1:1:1 / analyse=0x3:0x113 / me=umh / subme=8 / psy=1 / psy_rd=0.40:0.00 / mixed_ref=1 / me_range=16 / chroma_me=1 / trellis=1 / 8x8dct=1 / cqm=0 / deadzone=21,11 / fast_pskip=1 / chroma_qp_offset=-2 / threads=10 / lookahead_threads=1 / sliced_threads=0 / nr=0 / decimate=1 / interlaced=0 / bluray_compat=0 / constrained_intra=0 / bframes=3 / b_pyramid=2 / b_adapt=2 / b_bias=0 / direct=3 / weightb=1 / open_gop=0 / weightp=2 / keyint=48 / keyint_min=24 / scenecut=40 / intra_refresh=0 / rc_lookahead=48 / rc=crf / mbtree=1 / crf=15.0 / qcomp=0.60 / qpmin=0 / qpmax=69 / qpstep=4 / vbv_maxrate=4000 / vbv_bufsize=6000 / crf_max=0.0 / nal_hrd=none / filler=0 / ip_ratio=1.40 / aq=1:0.60
Default : Yes
Forced : No

Audio #1
ID : 2
Format : AAC
Format/Info : Advanced Audio Codec
Format profile : LC
Codec ID : A_AAC-2
Duration : 23 min 40 s
Bit rate : 192 kb/s
Channel(s) : 2 channels
Channel positions : Front: L R
Sampling rate : 48.0 kHz
Frame rate : 46.875 FPS (1024 SPF)
Compression mode : Lossy
Delay relative to video : -83 ms
Stream size : 32.1 MiB (7%)
Language : Russian
Default : Yes
Forced : No

Audio #2
ID : 3
Format : AAC
Format/Info : Advanced Audio Codec
Format profile : LC
Codec ID : A_AAC-2
Duration : 23 min 40 s
Bit rate : 128 kb/s
Channel(s) : 2 channels
Channel positions : Front: L R
Sampling rate : 44.1 kHz
Frame rate : 43.066 FPS (1024 SPF)
Compression mode : Lossy
Delay relative to video : -83 ms
Stream size : 21.7 MiB (5%)
Language : Japanese
Default : No
Forced : No


Время раздачи: До первых сидов
[NNM-Club.me]_Overlord III [Wakanim].torrent
 Торрент:   Зарегистрирован
 
Зарегистрируйтесь и скачайте торрент!
30,6 KB

Примагнититься
 Зарегистрирован:   03 Окт 2018 22:35:19
 Размер:   5,9 GB  (
 Рейтинг:   4,7 (Голосов: 48)
 Поблагодарили:   141
 Проверка:   Оформление проверено модератором 04 Окт 2018 00:00:44
Как cкачать  ·  Как раздать  ·  Правильно оформить  ·  Поднять ратио!  

_________________
AMD Ryzen 1600 3.7GHz/ ASUS PRIME B350M-A/ PATRIOT Viper Elite DDR4-3200MHz 2x4096Mb/ SSD 128Gb + HDD 1000Gb/ ZOTAC GTX1060 3Gb/ Win 10 Ent LTSB x64
kiska-sakuya
Стаж: 4 года 9 мес.
Сообщений: 585
Ratio: 6,271
Раздал: 2,587 TB
71.76%
только 2й досняли и 3й пошел... что то их понесло)
Б.-Б.
Олигарх+
 
Стаж: 7 лет 5 мес.
Сообщений: 803
Ratio: 94,417
Раздал: 44,11 TB
Поблагодарили: 1010
100%
Откуда: Владивосток
ussr.gif
Я надеюсь, в этом сезоне всё же уделят побольше времени болотным ящеркам. )))
RazDvaTre
Стаж: 8 лет 3 мес.
Сообщений: 860
Ratio: 2,707
100%
Откуда: New Васюки
pirates.png
отличное продолжение и хороший старт.
Sh00tNik
Стаж: 7 лет
Сообщений: 11
Ratio: 169,382
100%
russia.gif
На постере за спиной Envy из алхимика
Avenger_Uchiha
Стаж: 5 лет 4 мес.
Сообщений: 16
Ratio: 4,378
4.56%
как же долго овер разгоняется... так мало серий, и так медленно события идут.
Ampho_DnB ®
RG Аниме
Uploader 100+
 
Стаж: 6 лет 9 мес.
Сообщений: 3297
Ratio: 206,065
Поблагодарили: 79012
100%
Откуда: дует?
roody.gif
Торрент обновлен. Добавлена 13 серия.
Релиз завершен.

_________________
AMD Ryzen 1600 3.7GHz/ ASUS PRIME B350M-A/ PATRIOT Viper Elite DDR4-3200MHz 2x4096Mb/ SSD 128Gb + HDD 1000Gb/ ZOTAC GTX1060 3Gb/ Win 10 Ent LTSB x64
Показать сообщения:   
Начать новую тему   Ответить на тему    Торрент-трекер NNM-Club -> Аниме с озвучкой -> Аниме с озвучкой (HD) Часовой пояс: GMT + 3
Страница 1 из 1