Классический форум-трекер
canvas not supported
Нас вместе: 4 078 844

Shingeki no Kyojin Season 3 / Attack on Titan / Атака титанов [ТВ-3] [2018, TV, 22 ep] WEB-DL 720p Raw+Rus


 
 
RSS
Начать новую тему   Ответить на тему    Торрент-трекер NNM-Club -> Аниме с озвучкой -> Аниме с озвучкой (HD)

Какая озвучка лучше?
Wakanim
30%
 30%  [ 33 ]
Kansai
70%
 70%  [ 77 ]
Всего голосов : 110

Автор Сообщение
Ampho_DnB ®
RG Аниме
Uploader 100+
 
Стаж: 7 лет 8 мес.
Сообщений: 3720
Ratio: 323,286
Поблагодарили: 86681
100%
Откуда: дует?
roody.gif
Shingeki no Kyojin Season 3 / Attack on Titan / Атака титанов [ТВ-3]
Жанр: приключения, фэнтези, драма
Тип: TV-сериал
Продолжительность: 22 эпизода по 25 минут
Выпуск: c 23.07.2018 по 01.07.2019
Автор: Исаяма Хадзимэ
Снято по манге: Shingeki no Kyojin
Режиссер: Араки Тэцуро
Производство: Wit Studio
Информационные ссылки: AniDB || World Art || MAL || ANN
Релиз подготовлен студией Back Board Cinema
  • Тип озвучки: Дублированный, профессиональный

Релиз подготовлен студией Kansai
  • Тип озвучки: Многоголосая, закадровая

Описание:
На протяжении ста лет человечество от остального мира отделяли стены. За ними простирались неизведанные территории: огненное море, ледяные земли и песчаные равнины... Описанные в книгах, они пробудили интерес одного мальчика. Со временем титаны разрушили стены, и теперь человечество стремится докопаться до истины. Какова же действительная природа титанов? Почему они оказались замурованы в стенах? Что это за особая сила, которой обладает Эрен Йегер? И что Хистории Рейсс известно об этом мире? Эрен, 104-й корпус, отряд Леви — все начинают действовать перед лицом могущественного врага.
Качество: WEB-DLRip | Энкод: HorribleSubs
Язык озвучки: Японский и Русский

Видео: x264, 1280x720, ~2 361 kbps, 23.976 fps
Аудио: AAC, 128 kbps, 44.1 kHz, 2 ch
Аудио: AAC, 192 kbps, 48.0 kHz, 2 ch [BBC]
Аудио: AAC, 192 kbps, 48.0 kHz, 2 ch [Kansai] (внешним файлом)
Серия 1: Огонь
Серия 2: Боль
Серия 3: Воспоминания
Серия 4: Доверие
Серия 5: Ответ
Серия 6: Грех
Серия 7: Желание
Серия 8: У стен Орвуда
Серия 9: Хозяйка стен
Серия 10: Друг
Серия 11: Всего лишь зритель
Серия 12: Ночь перед контрнаступлением
Серия 13: Город, с которого всё началось
Серия 14: Громовые копья
Серия 15: Пришествие
Серия 16: Идеальная игра
Серия 17: Храбрец
Серия 18: Белая ночь
Серия 19: Подвал
Серия 20: Тот день
Серия 21: Атакующий титан
Серия 22: По ту сторону стен
General
Unique ID : 339767414001937568022886479835014540368 (0xFF9CD2DC6300DEA2665F6325992EAC50)
Complete name : Shingeki no Kyojin S3 [Wakanim]\Shingeki no Kyojin S3 - 01 [720p].mkv
Format : Matroska
Format version : Version 4 / Version 2
File size : 459 MiB
Duration : 23 min 55 s
Overall bit rate : 2 681 kb/s
Encoded date : UTC 2018-07-22 21:38:11
Writing application : mkvmerge v25.0.0 ('Prog Noir') 64-bit
Writing library : libebml v1.3.6 + libmatroska v1.4.9

Video
ID : 1
Format : AVC
Format/Info : Advanced Video Codec
Format profile : High@L4
Format settings : CABAC / 6 Ref Frames
Format settings, CABAC : Yes
Format settings, ReFrames : 6 frames
Codec ID : V_MPEG4/ISO/AVC
Duration : 23 min 55 s
Bit rate : 2 361 kb/s
Width : 1 280 pixels
Height : 720 pixels
Display aspect ratio : 16:9
Frame rate mode : Constant
Frame rate : 23.976 (24000/1001) FPS
Color space : YUV
Chroma subsampling : 4:2:0
Bit depth : 8 bits
Scan type : Progressive
Bits/(Pixel*Frame) : 0.107
Stream size : 404 MiB (88%)
Writing library : x264 core 142
Encoding settings : cabac=1 / ref=6 / deblock=1:1:1 / analyse=0x3:0x113 / me=umh / subme=8 / psy=1 / psy_rd=0.40:0.00 / mixed_ref=1 / me_range=16 / chroma_me=1 / trellis=1 / 8x8dct=1 / cqm=0 / deadzone=21,11 / fast_pskip=1 / chroma_qp_offset=-2 / threads=10 / lookahead_threads=1 / sliced_threads=0 / nr=0 / decimate=1 / interlaced=0 / bluray_compat=0 / constrained_intra=0 / bframes=3 / b_pyramid=2 / b_adapt=2 / b_bias=0 / direct=3 / weightb=1 / open_gop=0 / weightp=2 / keyint=48 / keyint_min=24 / scenecut=40 / intra_refresh=0 / rc_lookahead=48 / rc=crf / mbtree=1 / crf=15.0 / qcomp=0.60 / qpmin=0 / qpmax=69 / qpstep=4 / vbv_maxrate=4000 / vbv_bufsize=6000 / crf_max=0.0 / nal_hrd=none / filler=0 / ip_ratio=1.40 / aq=1:0.60
Default : Yes
Forced : No

Audio #1
ID : 2
Format : AAC
Format/Info : Advanced Audio Codec
Format profile : LC
Codec ID : A_AAC-2
Duration : 23 min 55 s
Bit rate : 192 kb/s
Channel(s) : 2 channels
Channel positions : Front: L R
Sampling rate : 48.0 kHz
Frame rate : 46.875 FPS (1024 SPF)
Compression mode : Lossy
Delay relative to video : -83 ms
Stream size : 32.4 MiB (7%)
Language : Russian
Default : Yes
Forced : No

Audio #2
ID : 3
Format : AAC
Format/Info : Advanced Audio Codec
Format profile : LC
Codec ID : A_AAC-2
Duration : 23 min 55 s
Bit rate : 128 kb/s
Channel(s) : 2 channels
Channel positions : Front: L R
Sampling rate : 44.1 kHz
Frame rate : 43.066 FPS (1024 SPF)
Compression mode : Lossy
Delay relative to video : -83 ms
Stream size : 21.9 MiB (5%)
Language : Japanese
Default : No
Forced : No


Время раздачи: До первых сидов
[NNMClub.to]_Shingeki no Kyojin S3 [Wakanim].torrent
 Торрент: Платиновая раздача  Зарегистрирован
 
Скачать


Примагнититься
 Зарегистрирован:   02 Июл 2019 07:35:07
 Размер:   11,3 GB  (
 Рейтинг:   4,8 (Голосов: 67)
 Поблагодарили:   285
 Проверка:   Оформление проверено модератором 02 Июл 2019 08:15:37
Как cкачать  ·  Как раздать  ·  Правильно оформить  ·  Поднять ратио!  
Загрузка...
dobikun
Стаж: 9 лет 1 мес.
Сообщений: 150
Ratio: 2,431
100%
Откуда: Совсем не горжусь страной
estonia.gif
Первый парень на районе !
maerling20
Стаж: 8 лет 3 мес.
Сообщений: 116
Ratio: 5,099
100%
Нежданчик спс
NikkoFox
Стаж: 3 года 8 мес.
Сообщений: 11
Ratio: 3,593
5.07%
Откуда: Краснодар
witch.png
Голосую за кансай. У них есть топовый голос который участвовал в озвучке блич от реанимедиа
Такой мужичек. Жалко не знаю, кто он. Но он профессионал своего дела
roman-x748
Стаж: 9 лет 5 мес.
Сообщений: 31
Ratio: 17,108
8.15%
russia.gif
Еще б субтитры надписи
Ampho_DnB ®
RG Аниме
Uploader 100+
 
Стаж: 7 лет 8 мес.
Сообщений: 3720
Ratio: 323,286
Поблагодарили: 86681
100%
Откуда: дует?
roody.gif
roman-x748 писал(а): Перейти к сообщению
Еще б субтитры надписи

Не бывать этому!
hagen000
Стаж: 7 лет 5 мес.
Сообщений: 360
Ratio: 6,149
Раздал: 4,791 TB
100%
Откуда: Оттуда
ussr.gif
Супер. Спасибо огромное!
gaxx
Стаж: 5 лет 7 мес.
Сообщений: 60
Ratio: 131,203
Раздал: 25,88 TB
100%
Годнота!
Показать сообщения:   
Начать новую тему   Ответить на тему    Торрент-трекер NNM-Club -> Аниме с озвучкой -> Аниме с озвучкой (HD) Часовой пояс: GMT + 3
Страница 1 из 1