Классический форум-трекер
canvas not supported
Нас вместе: 4 093 934

Хранители: История Чёрной Шхуны / Watchmen: Tales of the Black Freighter (2009) BDRip


 
 
RSS
Начать новую тему   Ответить на тему    Торрент-трекер NNM-Club -> Мультфильмы -> Зарубежные Мультфильмы (HD, UHD, UHD-LQ)
Автор Сообщение
falc0n ®
 
Стаж: 13 лет 4 мес.
Сообщений: 305
Ratio: 161,454
Раздал: 87,46 TB
Поблагодарили: 5048
100%
Откуда: Россия
Хранители: История Чёрной Шхуны / Watchmen: Tales of the Black Freighter (2009) BDRip
Год выпуска: 2009
Выпущено: США, Warner Bros. Pictures Co.

Описание:
История Черной Шхуны - комикс со страниц графического романа Watchmen, который читает мальчик Берни у газетного киоска (в фильме он будет в режиссерской версии). По сюжету молодой моряк отчаянно пытается добраться до родных земель, чтобы успеть предупредить о приближении корабля-призрака "Черная Шхуна".

Режиссер: Майк Смит, Даниэль Дел Пургаторио
Персонажи: Gerard Butler - The Sea Captain, Cam Clarke - Money Lender, Siobhan Flynn - Sea Captain's Daughter, Jared Harris - Ridley, Salli Saffioti - Sea Captain's Daughter



Продолжительность: 0:25:41
Перевод: Многоголосый закадровый
Автор перевода: notabenoid
Релиз группа:
Язык субтитров: Russian, English
Вид субтитров: Вшитые
Мировая премьера: 24 марта 2009
Релиз на DVD: 1 сентября 2009

Формат: MKV
Битрейт видео: ~4255 kb/s
Размер кадра: 1280x544
Качество видео: BDRip
Аудиокодек: AC3 5.1
Битрейт аудио: Russian: AC3, 448 kb/s (6 ch) / English: DTS, 1536 kb/s (6 ch)
Сэмпл: Ссылка
Куда бы не уплыл моряк,
От смерти не уплыть ему.
И ждёт его зелёный мрак,
Пока моряк на берегу.

© «Агата Кристи»

«История Черной Шхуны» — это своего рода рассказ в рассказе — комикс в комиксе, если уж быть совсем точным: в печатной версии «Хранителей» комикс с таким названием читает некий мальчик по имени Берни вблизи газетного киоска. В версии «Хранителей», вышедшей на широкие экраны, ни мальчика с таким именем, ни упоминания о «Черной Шхуне» вы не встретите, потому что их там просто-напросто нет. Зато в режиссерской версии фильма время для Берни, а с ним и для «Черной Шхуны» найдется. Будучи производной от «Хранителей», «История Черной Шхуны» вполне может рассматриваться и как самобытное произведение в отрыве от комикса-прародителя.

В нашем мире — мире обычных людей — героями комиксов обычно становятся мутанты или какие-либо герои, обладающие сверхспособностями. Во вселенной «Хранителей» такие комиксы вряд ли пользовались бы большой популярностью, поскольку Доктор Манхэттэн и компания были у всех на виду и не были чем-то из ряда вон выходящим. Поэтому вместо супергеройской тематики в подкомиксе «История Черной Шхуны» обыграна пиратская: кораблекрушение, необитаемый остров, корабль-призрак со столь же призрачной командой на борту.

Главный герой повествования — моряк, говорящий голосом Джерарда Батлера, — приходит в себя, очутившись за бортом потерпевшего кораблекрушение судна, и видит, как погибает последний член его команды и как место кораблекрушения покидает корабль-призрак под названием «Черная Шхуна», борт которого «украшен» великим множеством человеческих черепов. Потеряв жизненные силы и веру в спасение, главный герой целиком и полностью вверяет свою судьбу на волю случая: распластавшись на обломке носовой фигуры с потерпевшего кораблекрушения корабля, моряк теряет сознание, которое возвращается к нему в тот момент, когда течение прибивает этот обломок вкупе с уже с почившими в бозе членами команды уничтоженного судна к побережью необитаемого острова.

Проведя на этом острове энное количество времени, главный герой, мучимый кошмарами, в которых команда корабля-призрака расправляется с его семьей, строит плот специфической конструкции, дабы не только самому добраться до материка, но и доставить на него останки товарищей. Кошмар ли видится ему или это явь — герою только предстоит узнать, когда, преодолев все преграды, он все-таки доберется до родных краев.

Что же общего помимо иерархической связи (комикс/подкомикс) между «Историей Черной Шхуны» и «Хранителями»? Алан Мур, создатель этих графических новелл, предлагает три связующих мостика между этими произведениями, лишь один из которых, на мой взгляд, можно назвать капитальным, два других же — этакие канатные дорожки. Этим капитальным мостиком являются проведенные параллели между историей Адриана Вейдта, который, выражаясь образно, к своей заветной цели прошел по косточкам своих товарищей (и не только товарищей, надо заметить), и «Историей Черной Шхуны», в которой главный герой обошелся без образных выражений в достижении менее глобальной цели. Менее очевидны параллели «Истории Черной Шхуны» с эпизодами заточения Роршаха и отрешения доктора Манхэттэна от земных проблем, но и они прослеживаются.
Общее
Уникальный идентификатор : 214452832899011069877137830531664598387 (0xA1561CFE34F0100189CD7A5D7CC65573)
Полное имя : G:\Tales.of.the.Black.Freighter.2009.BDRip.720p.x264-CGInfo.mkv
Формат : Matroska
Версия формата : Version 1
Размер файла : 1,12 Гбайт
Продолжительность : 25 м.
Общий поток : 6207 Кбит/сек
Дата кодирования : UTC 2009-05-13 12:43:44
Программа кодирования : mkvmerge v2.6.0 ('Kelly watch the Stars') built on Mar 24 2009 15:23:17
Библиотека кодирования : libebml v0.7.7 + libmatroska v0.8.1

Видео
Идентификатор : 1
Формат : AVC
Формат/Информация : Advanced Video Codec
Профиль формата : High@L5.1
Параметр CABAC формата : Да
Параметр ReFrames формата : 10 кадров
Идентификатор кодека : V_MPEG4/ISO/AVC
Продолжительность : 25 м.
Битрейт : 4255 Кбит/сек
Ширина : 1280 пикселей
Высота : 544 пикселя
Соотношение сторон : 2,35:1
Режим частоты кадров : Постоянный
Частота кадров : 23,976 кадра/сек
Цветовое пространство : YUV
Субдискретизация насыщенности : 4:2:0
Битовая глубина : 8 бит
Тип развёртки : Прогрессивная
Бит/(Пиксели*Кадры) : 0.255
Размер потока : 760 Мбайт (66%)
Заголовок : Tales of the Black Freighter / Encoded by DON /
Библиотека кодирования : x264 core 67 r1145M d2e1e1c
Настройки программы : cabac=1 / ref=10 / deblock=1:-3:-3 / analyse=0x3:0x133 / me=umh / subme=9 / psy_rd=1.0:0.0 / mixed_ref=1 / me_range=40 / chroma_me=1 / trellis=2 / 8x8dct=1 / cqm=0 / deadzone=21,11 / chroma_qp_offset=-2 / threads=6 / nr=0 / decimate=1 / mbaff=0 / bframes=7 / b_pyramid=1 / b_adapt=2 / b_bias=0 / direct=3 / wpredb=1 / keyint=250 / keyint_min=25 / scenecut=40 / rc=2pass / bitrate=4255 / ratetol=1.0 / qcomp=0.60 / qpmin=10 / qpmax=51 / qpstep=4 / cplxblur=20.0 / qblur=0.5 / ip_ratio=1.40 / pb_ratio=1.30 / aq=1:0.80
Язык : English
Default : Да
Forced : Нет

Аудио #1
Идентификатор : 2
Формат : AC-3
Формат/Информация : Audio Coding 3
Расширение режима : CM (complete main)
Параметр Endianness формата : Big
Идентификатор кодека : A_AC3
Продолжительность : 25 м.
Вид битрейта : Постоянный
Битрейт : 448 Кбит/сек
Каналы : 6 каналов
Расположение каналов : Front: L C R, Side: L R, LFE
Частота : 48,0 КГц
Битовая глубина : 16 бит
Метод сжатия : С потерями
Размер потока : 82,5 Мбайт (7%)
Заголовок : Russian - AC3, 6 ch, 48 kHz, 640 kbps
Язык : Russian
Default : Да
Forced : Нет

Аудио #2
Идентификатор : 3
Формат : DTS
Формат/Информация : Digital Theater Systems
Режим : 16
Параметр Endianness формата : Big
Идентификатор кодека : A_DTS
Продолжительность : 25 м.
Вид битрейта : Постоянный
Битрейт : 1510 Кбит/сек
Каналы : 6 каналов
Расположение каналов : Front: L C R, Side: L R, LFE
Частота : 48,0 КГц
Битовая глубина : 24 бит
Метод сжатия : С потерями
Размер потока : 278 Мбайт (24%)
Заголовок : Original - DTS, 6 ch, 48 kHz, 1536 Kbps
Язык : English
Default : Нет
Forced : Нет

Текст #1
Идентификатор : 4
Формат : UTF-8
Идентификатор кодека : S_TEXT/UTF8
Идентификатор кодека/Информация : UTF-8 Plain Text
Заголовок : Russian - SRT
Язык : Russian
Default : Да
Forced : Нет

Текст #2
Идентификатор : 5
Формат : UTF-8
Идентификатор кодека : S_TEXT/UTF8
Идентификатор кодека/Информация : UTF-8 Plain Text
Заголовок : English - SRT
Язык : English
Default : Нет
Forced : Нет
Скриншоты:




Время раздачи: 24/7
[NNM-Club.ru] Tales.of.the.Black.Freighter.2009.BDRip.720p.x264-CGInfo.mkv.torrent
 Торрент: Золотая раздача  Зарегистрирован
 
Зарегистрируйтесь и скачайте торрент!
11,4 KB

 Зарегистрирован:   15 Май 2009 21:44:02
 Размер:   1,12 GB  (
 Рейтинг:   4,5 (Голосов: 18)
 Поблагодарили:   81
 Проверка:   Оформление проверено модератором 16 Май 2009 12:36:08
Как cкачать  ·  Как раздать  ·  Правильно оформить  ·  Поднять ратио!  
kiika623
Стаж: 10 лет 9 мес.
Сообщений: 2
Ratio: 14,413
100%
Спасибо глянем
falc0n ®
 
Стаж: 13 лет 4 мес.
Сообщений: 305
Ratio: 161,454
Раздал: 87,46 TB
Поблагодарили: 5048
100%
Откуда: Россия
kiika623
Пожалуйста =)
Academon
Uploaders
 
Стаж: 13 лет
Сообщений: 669
Ratio: 41,881
100%
ukraine.gif
ох, от это суровый сюжет"! )))
falc0n ®
 
Стаж: 13 лет 4 мес.
Сообщений: 305
Ratio: 161,454
Раздал: 87,46 TB
Поблагодарили: 5048
100%
Откуда: Россия
Academon
Я сам в шоке был... В то время вообще народ суровый был)
grifon
Стаж: 13 лет 3 мес.
Сообщений: 24
Ratio: 3,904
100%
Откуда: Мать городов росийских - КИЕВ
ukraine.gif
Жесть. Второй раз смотреть не захочется , категорически не для детей!

_________________
Легенду по то, что человек не может жить без работы придумали те, кто никогда не работал, для тех, кто никогда не отдыхал.
master-13
Новогодний эрудит Реставратор

Online
Стаж: 10 лет 9 мес.
Сообщений: 736
Ratio: 541,49
Поблагодарили: 40309
100%
Откуда: из пролетариев
ussr.gif
Общее
Уникальный идентификатор : 214452832899011069877137830531664598387 (0xA1561CFE34F0100189CD7A5D7CC65573)
Полное имя : G:\Tales.of.the.Black.Freighter.2009.BDRip.720p.x264-CGInfo.mkv
Формат : Matroska
Версия формата : Version 1
Размер файла : 1,12 Гбайт
Продолжительность : 25 м.
Общий поток : 6207 Кбит/сек
Дата кодирования : UTC 2009-05-13 12:43:44
Программа кодирования : mkvmerge v2.6.0 ('Kelly watch the Stars') built on Mar 24 2009 15:23:17
Библиотека кодирования : libebml v0.7.7 + libmatroska v0.8.1

Видео
Идентификатор : 1
Формат : AVC
Формат/Информация : Advanced Video Codec
Профиль формата : High@L5.1
Параметр CABAC формата : Да
Параметр ReFrames формата : 10 кадров
Идентификатор кодека : V_MPEG4/ISO/AVC
Продолжительность : 25 м.
Битрейт : 4255 Кбит/сек
Ширина : 1280 пикселей
Высота : 544 пикселя
Соотношение сторон : 2,35:1
Режим частоты кадров : Постоянный
Частота кадров : 23,976 кадра/сек
Цветовое пространство : YUV
Субдискретизация насыщенности : 4:2:0
Битовая глубина : 8 бит
Тип развёртки : Прогрессивная
Бит/(Пиксели*Кадры) : 0.255
Размер потока : 760 Мбайт (66%)
Заголовок : Tales of the Black Freighter / Encoded by DON /
Библиотека кодирования : x264 core 67 r1145M d2e1e1c
Настройки программы : cabac=1 / ref=10 / deblock=1:-3:-3 / analyse=0x3:0x133 / me=umh / subme=9 / psy_rd=1.0:0.0 / mixed_ref=1 / me_range=40 / chroma_me=1 / trellis=2 / 8x8dct=1 / cqm=0 / deadzone=21,11 / chroma_qp_offset=-2 / threads=6 / nr=0 / decimate=1 / mbaff=0 / bframes=7 / b_pyramid=1 / b_adapt=2 / b_bias=0 / direct=3 / wpredb=1 / keyint=250 / keyint_min=25 / scenecut=40 / rc=2pass / bitrate=4255 / ratetol=1.0 / qcomp=0.60 / qpmin=10 / qpmax=51 / qpstep=4 / cplxblur=20.0 / qblur=0.5 / ip_ratio=1.40 / pb_ratio=1.30 / aq=1:0.80
Язык : English
Default : Да
Forced : Нет

Аудио #1
Идентификатор : 2
Формат : AC-3
Формат/Информация : Audio Coding 3
Расширение режима : CM (complete main)
Параметр Endianness формата : Big
Идентификатор кодека : A_AC3
Продолжительность : 25 м.
Вид битрейта : Постоянный
Битрейт : 448 Кбит/сек
Каналы : 6 каналов
Расположение каналов : Front: L C R, Side: L R, LFE
Частота : 48,0 КГц
Битовая глубина : 16 бит
Метод сжатия : С потерями
Размер потока : 82,5 Мбайт (7%)
Заголовок : Russian - AC3, 6 ch, 48 kHz, 640 kbps
Язык : Russian
Default : Да
Forced : Нет

Аудио #2
Идентификатор : 3
Формат : DTS
Формат/Информация : Digital Theater Systems
Режим : 16
Параметр Endianness формата : Big
Идентификатор кодека : A_DTS
Продолжительность : 25 м.
Вид битрейта : Постоянный
Битрейт : 1510 Кбит/сек
Каналы : 6 каналов
Расположение каналов : Front: L C R, Side: L R, LFE
Частота : 48,0 КГц
Битовая глубина : 24 бит
Метод сжатия : С потерями
Размер потока : 278 Мбайт (24%)
Заголовок : Original - DTS, 6 ch, 48 kHz, 1536 Kbps
Язык : English
Default : Нет
Forced : Нет

Текст #1
Идентификатор : 4
Формат : UTF-8
Идентификатор кодека : S_TEXT/UTF8
Идентификатор кодека/Информация : UTF-8 Plain Text
Заголовок : Russian - SRT
Язык : Russian
Default : Да
Forced : Нет

Текст #2
Идентификатор : 5
Формат : UTF-8
Идентификатор кодека : S_TEXT/UTF8
Идентификатор кодека/Информация : UTF-8 Plain Text
Заголовок : English - SRT
Язык : English
Default : Нет
Forced : Нет
Скриншоты:

Код:
[poster=right]http://img845.imageshack.us/img845/6370/rzwo.jpg[/poster]
[kp]428680[/kp]  [imdb]tt1295071[/imdb]

[hide=MediaInfo]Общее
Уникальный идентификатор                 : 214452832899011069877137830531664598387 (0xA1561CFE34F0100189CD7A5D7CC65573)
Полное имя                               : G:\Tales.of.the.Black.Freighter.2009.BDRip.720p.x264-CGInfo.mkv
Формат                                   : Matroska
Версия формата                           : Version 1
Размер файла                             : 1,12 Гбайт
Продолжительность                        : 25 м.
Общий поток                              : 6207 Кбит/сек
Дата кодирования                         : UTC 2009-05-13 12:43:44
Программа кодирования                    : mkvmerge v2.6.0 ('Kelly watch the Stars') built on Mar 24 2009 15:23:17
Библиотека кодирования                   : libebml v0.7.7 + libmatroska v0.8.1

Видео
Идентификатор                            : 1
Формат                                   : AVC
Формат/Информация                        : Advanced Video Codec
Профиль формата                          : High@L5.1
Параметр CABAC формата                   : Да
Параметр ReFrames формата                : 10 кадров
Идентификатор кодека                     : V_MPEG4/ISO/AVC
Продолжительность                        : 25 м.
Битрейт                                  : 4255 Кбит/сек
Ширина                                   : 1280 пикселей
Высота                                   : 544 пикселя
Соотношение сторон                       : 2,35:1
Режим частоты кадров                     : Постоянный
Частота кадров                           : 23,976 кадра/сек
Цветовое пространство                    : YUV
Субдискретизация насыщенности            : 4:2:0
Битовая глубина                          : 8 бит
Тип развёртки                            : Прогрессивная
Бит/(Пиксели*Кадры)                      : 0.255
Размер потока                            : 760 Мбайт (66%)
Заголовок                                : Tales of the Black Freighter / Encoded by DON /
Библиотека кодирования                   : x264 core 67 r1145M d2e1e1c
Настройки программы                      : cabac=1 / ref=10 / deblock=1:-3:-3 / analyse=0x3:0x133 / me=umh / subme=9 / psy_rd=1.0:0.0 / mixed_ref=1 / me_range=40 / chroma_me=1 / trellis=2 / 8x8dct=1 / cqm=0 / deadzone=21,11 / chroma_qp_offset=-2 / threads=6 / nr=0 / decimate=1 / mbaff=0 / bframes=7 / b_pyramid=1 / b_adapt=2 / b_bias=0 / direct=3 / wpredb=1 / keyint=250 / keyint_min=25 / scenecut=40 / rc=2pass / bitrate=4255 / ratetol=1.0 / qcomp=0.60 / qpmin=10 / qpmax=51 / qpstep=4 / cplxblur=20.0 / qblur=0.5 / ip_ratio=1.40 / pb_ratio=1.30 / aq=1:0.80
Язык                                     : English
Default                                  : Да
Forced                                   : Нет

Аудио #1
Идентификатор                            : 2
Формат                                   : AC-3
Формат/Информация                        : Audio Coding 3
Расширение режима                        : CM (complete main)
Параметр Endianness формата              : Big
Идентификатор кодека                     : A_AC3
Продолжительность                        : 25 м.
Вид битрейта                             : Постоянный
Битрейт                                  : 448 Кбит/сек
Каналы                                   : 6 каналов
Расположение каналов                     : Front: L C R, Side: L R, LFE
Частота                                  : 48,0 КГц
Битовая глубина                          : 16 бит
Метод сжатия                             : С потерями
Размер потока                            : 82,5 Мбайт (7%)
Заголовок                                : Russian - AC3, 6 ch, 48 kHz, 640 kbps
Язык                                     : Russian
Default                                  : Да
Forced                                   : Нет

Аудио #2
Идентификатор                            : 3
Формат                                   : DTS
Формат/Информация                        : Digital Theater Systems
Режим                                    : 16
Параметр Endianness формата              : Big
Идентификатор кодека                     : A_DTS
Продолжительность                        : 25 м.
Вид битрейта                             : Постоянный
Битрейт                                  : 1510 Кбит/сек
Каналы                                   : 6 каналов
Расположение каналов                     : Front: L C R, Side: L R, LFE
Частота                                  : 48,0 КГц
Битовая глубина                          : 24 бит
Метод сжатия                             : С потерями
Размер потока                            : 278 Мбайт (24%)
Заголовок                                : Original - DTS, 6 ch, 48 kHz, 1536 Kbps
Язык                                     : English
Default                                  : Нет
Forced                                   : Нет

Текст #1
Идентификатор                            : 4
Формат                                   : UTF-8
Идентификатор кодека                     : S_TEXT/UTF8
Идентификатор кодека/Информация          : UTF-8 Plain Text
Заголовок                                : Russian - SRT
Язык                                     : Russian
Default                                  : Да
Forced                                   : Нет

Текст #2
Идентификатор                            : 5
Формат                                   : UTF-8
Идентификатор кодека                     : S_TEXT/UTF8
Идентификатор кодека/Информация          : UTF-8 Plain Text
Заголовок                                : English - SRT
Язык                                     : English
Default                                  : Нет
Forced                                   : Нет

[/hide]

[align=center][b]Скриншоты:[/b]
[url=http://img545.imageshack.us/img545/8739/jt7.png][img]http://img15.imageshack.us/img15/6937/7gea.jpg[/img][/url]  [url=http://img94.imageshack.us/img94/1417/9wi0.png][img]http://img259.imageshack.us/img259/4741/awmq.jpg[/img][/url]  [url=http://img43.imageshack.us/img43/2660/9qou.png][img]http://img198.imageshack.us/img198/1897/xejs.jpg[/img][/url]  [url=http://img22.imageshack.us/img22/3610/z8ij.png][img]http://img607.imageshack.us/img607/4797/nxo2.jpg[/img][/url]  [url=http://img826.imageshack.us/img826/1842/2au.png][img]http://img33.imageshack.us/img33/5986/kvtn.jpg[/img][/url]  [url=http://img59.imageshack.us/img59/6306/cxex.png][img]http://img547.imageshack.us/img547/9879/ibgv.jpg[/img][/url]  [url=http://img837.imageshack.us/img837/6420/u6g.png][img]http://img195.imageshack.us/img195/341/rpzs.jpg[/img][/url]  [url=http://img7.imageshack.us/img7/3707/vy5.png][img]http://img37.imageshack.us/img37/8999/6x4g.jpg[/img][/url][/align]

_________________
230-220·0,5=5!
20-10:2=5!!
Показать сообщения:   
Начать новую тему   Ответить на тему    Торрент-трекер NNM-Club -> Мультфильмы -> Зарубежные Мультфильмы (HD, UHD, UHD-LQ) Часовой пояс: GMT + 3
Страница 1 из 1