Классический форум-трекер
canvas not supported
Нас вместе: 4 115 116

Marilyn Manson - The High End Of Low (2009) [FLAC|Lossless]<Alternative/Industrial Metal>


 
 
RSS
Начать новую тему   Ответить на тему    Торрент-трекер NNM-Club -> Rock, Alternative, Punk, Metal -> Alternative, Punk (Lossless)
Автор Сообщение
_cynic_ ®
Стаж: 11 лет 9 мес.
Сообщений: 1603
Ratio: 1112,939
Поблагодарили: 70870
100%
Откуда: 61
pirates.png
Marilyn Manson - The High End Of Low (Deluxe Japanese Edition) (2009)


Год: 2009
Жанр: Alternative/Industrial Metal
Продолжительность: 01:44:58

Кодек: FLAC
Битрейт: Lossless
Продолжительность: 01:12:03

Треклист:
01. Devour (3:46)
02. Pretty As A ($) (2:45)
03. Leave A Scar (3:55)
04. Four Rusted Horses (5:00)
05. Arma-Goddamn-Motherfuckin-Geddon (3:39)
06. Blank And White (4:27)
07. Running To The Edge Of The World (6:26)
08. I Want To Kill You Like They Do I (9:02)
09. WOW (4:55)
10. Wight Spider (5:33)
11. Unkillable Monster (3:44)
12. We're From America (5:04)
13. I Have To Look Up Just To See Hell (4:12)
14. Into The Fire (5:15)
15. 15 (4:21)
Код:
Exact Audio Copy V0.99 prebeta 4 from 23. January 2008

EAC ekstraheringsloggfil fra 20. Mai 2009, 13:30

Marilyn Manson / The High End Of Low

Benytt enhet  : MATSHITADVD-RAM UJ-831S   Adapter: 1  ID: 0

Lesemetode             : Sikker
Benytt accurate stream : Ja
Tшm audio cache        : Ja
Bruk C2 pekere         : Nei

Lese-offset-korrigering                           : 102
Les inn i Lead-In og Lead-Out                     : Nei
Fyll opp manglende offset-samplinger med stillhet : Ja
Slett stille blokker i innledning og pе slutten   : Nei
Null-samplinger brukt i CRC-kalkulasjner          : Ja
Brukt utseende                                    : Native Win32 grensesnitt for Win NT & 2000
Gap hеndtering                                    : Lagt til forrige spor

Benyttet output format                 : Brukerdefinert Omkoder
Valgt bitrate                          : 320 kBit/s
Kvalitet                               : Hшy
Legg til ID3 tag                       : Nei
Kommandolinje kompressor               : D:\Programfiler\Exact Audio Copy\Flac\flac.exe
Ytterligere kommandolinjeinnstillinger : -V -8 -T "artist=%a" -T "title=%t" -T "album=%g" -T "date=%y" -T "tracknumber=%n" -T "genre=%m" %s

Innholdsfortegnelse av ekstrahert CD

     Spor |   Start  |  Lengde  | Start sektor | Slutt sektor
    ----------------------------------------------------------
       1  |  0:00.00 |  3:45.38 |         0    |     16912
       2  |  3:45.38 |  2:45.10 |     16913    |     29297
       3  |  6:30.48 |  3:54.68 |     29298    |     46915
       4  | 10:25.41 |  5:00.37 |     46916    |     69452
       5  | 15:26.03 |  3:39.27 |     69453    |     85904
       6  | 19:05.30 |  4:27.32 |     85905    |    105961
       7  | 23:32.62 |  6:25.56 |    105962    |    134892
       8  | 29:58.43 |  9:01.48 |    134893    |    175515
       9  | 39:00.16 |  4:55.34 |    175516    |    197674
      10  | 43:55.50 |  5:32.50 |    197675    |    222624
      11  | 49:28.25 |  3:43.62 |    222625    |    239411
      12  | 53:12.12 |  5:04.24 |    239412    |    262235
      13  | 58:16.36 |  4:11.55 |    262236    |    281115
      14  | 62:28.16 |  5:14.38 |    281116    |    304703
      15  | 67:42.54 |  4:20.44 |    304704    |    324247

Spor  1

     Filnavn D:\Dokumenter\Torrents\ Marilyn Manson - The High End Of Low [FLAC]\01 - Devour.wav

     Pre-gap lengde  0:00:02.00

     Peak-nivе 98.8 %
     Sporkvalitet 100.0 %
     Tester CRC C7EAD4D0
     Kopierer CRC C7EAD4D0
     Kopi OK

Spor  2

     Filnavn D:\Dokumenter\Torrents\ Marilyn Manson - The High End Of Low [FLAC]\02 - Pretty As A ($).wav

     Peak-nivе 98.8 %
     Sporkvalitet 100.0 %
     Tester CRC 8596E27A
     Kopierer CRC 8596E27A
     Kopi OK

Spor  3

     Filnavn D:\Dokumenter\Torrents\ Marilyn Manson - The High End Of Low [FLAC]\03 - Leave A Scar.wav

     Peak-nivе 98.8 %
     Sporkvalitet 100.0 %
     Tester CRC BCABCA8D
     Kopierer CRC BCABCA8D
     Kopi OK

Spor  4

     Filnavn D:\Dokumenter\Torrents\ Marilyn Manson - The High End Of Low [FLAC]\04 - Four Rusted Horses.wav

     Peak-nivе 98.7 %
     Sporkvalitet 99.9 %
     Tester CRC AFDB979E
     Kopierer CRC AFDB979E
     Kopi OK

Spor  5

     Filnavn D:\Dokumenter\Torrents\ Marilyn Manson - The High End Of Low [FLAC]\05 - Arma-Goddamn-Motherfuckin-Geddon.wav

     Peak-nivе 98.8 %
     Sporkvalitet 100.0 %
     Tester CRC 2C1D3803
     Kopierer CRC 2C1D3803
     Kopi OK

Spor  6

     Filnavn D:\Dokumenter\Torrents\ Marilyn Manson - The High End Of Low [FLAC]\06 - Blank And White.wav

     Peak-nivе 100.0 %
     Sporkvalitet 100.0 %
     Tester CRC 42022887
     Kopierer CRC 42022887
     Kopi OK

Spor  7

     Filnavn D:\Dokumenter\Torrents\ Marilyn Manson - The High End Of Low [FLAC]\07 - Running To The Edge Of The World.wav

     Peak-nivе 98.8 %
     Sporkvalitet 100.0 %
     Tester CRC FA6C8F81
     Kopierer CRC FA6C8F81
     Kopi OK

Spor  8

     Filnavn D:\Dokumenter\Torrents\ Marilyn Manson - The High End Of Low [FLAC]\08 - I Want To Kill You Like They Do I.wav

     Peak-nivе 98.7 %
     Sporkvalitet 100.0 %
     Tester CRC B26C7431
     Kopierer CRC B26C7431
     Kopi OK

Spor  9

     Filnavn D:\Dokumenter\Torrents\ Marilyn Manson - The High End Of Low [FLAC]\09 - WOW.wav

     Peak-nivе 98.8 %
     Sporkvalitet 100.0 %
     Tester CRC C89F2F7B
     Kopierer CRC C89F2F7B
     Kopi OK

Spor 10

     Filnavn D:\Dokumenter\Torrents\ Marilyn Manson - The High End Of Low [FLAC]\10 - Wight Spider.wav

     Peak-nivе 98.8 %
     Sporkvalitet 100.0 %
     Tester CRC C04D3AF9
     Kopierer CRC C04D3AF9
     Kopi OK

Spor 11

     Filnavn D:\Dokumenter\Torrents\ Marilyn Manson - The High End Of Low [FLAC]\11 - Unkillable Monster.wav

     Peak-nivе 98.8 %
     Sporkvalitet 100.0 %
     Tester CRC 7FA22309
     Kopierer CRC 7FA22309
     Kopi OK

Spor 12

     Filnavn D:\Dokumenter\Torrents\ Marilyn Manson - The High End Of Low [FLAC]\12 - We're From America.wav

     Peak-nivе 98.8 %
     Sporkvalitet 100.0 %
     Tester CRC E76751BF
     Kopierer CRC E76751BF
     Kopi OK

Spor 13

     Filnavn D:\Dokumenter\Torrents\ Marilyn Manson - The High End Of Low [FLAC]\13 - I Have To Look Up Just To See Hell.wav

     Peak-nivе 98.8 %
     Sporkvalitet 100.0 %
     Tester CRC 969C5D8C
     Kopierer CRC 969C5D8C
     Kopi OK

Spor 14

     Filnavn D:\Dokumenter\Torrents\ Marilyn Manson - The High End Of Low [FLAC]\14 - Into The Fire.wav

     Peak-nivе 98.8 %
     Sporkvalitet 100.0 %
     Tester CRC 1FD55F25
     Kopierer CRC 1FD55F25
     Kopi OK

Spor 15

     Filnavn D:\Dokumenter\Torrents\ Marilyn Manson - The High End Of Low [FLAC]\15 - 15.wav

     Peak-nivе 98.8 %
     Sporkvalitet 100.0 %
     Tester CRC F48F63B9
     Kopierer CRC F48F63B9
     Kopi OK

No errors occurred

Slutt pе statusrapport
Код:
AUDIOCHECKER v2.0 beta (build 457) - by Dester - opdester@freemail.hu
~~~~~~~~~~~~~~~~~~~~~~~~~~~~~~~~~~
-=== DO NOT EDIT THIS FILE! ===-

Path: ...\Marilyn Manson - The High End Of Low [2009] [FLAC]

01 -=- 01 - Devour.flac -=- CDDA (100%)
02 -=- 02 - Pretty As A ($).flac -=- CDDA (100%)
03 -=- 03 - Leave A Scar.flac -=- CDDA (100%)
04 -=- 04 - Four Rusted Horses.flac -=- CDDA (100%)
05 -=- 05 - Arma-Goddamn-Motherfuckin-Geddon.flac -=- CDDA (100%)
06 -=- 06 - Blank And White.flac -=- CDDA (100%)
07 -=- 07 - Running To The Edge Of The World.flac -=- CDDA (100%)
08 -=- 08 - I Want To Kill You Like They Do I.flac -=- CDDA (100%)
09 -=- 09 - WOW.flac -=- CDDA (99%)
10 -=- 10 - Wight Spider.flac -=- CDDA (99%)
11 -=- 11 - Unkillable Monster.flac -=- CDDA (100%)
12 -=- 12 - We're From America.flac -=- CDDA (99%)
13 -=- 13 - I Have To Look Up Just To See Hell.flac -=- CDDA (99%)
14 -=- 14 - Into The Fire.flac -=- CDDA (100%)
15 -=- 15 - 15.flac -=- CDDA (100%)

Summary 99,73% CDDA

657444
Код:
REM GENRE Rock
REM DATE 2009
REM DISCID D210E30F
REM COMMENT "ExactAudioCopy v0.99pb4"
PERFORMER "Marilyn Manson"
TITLE "The High End Of Low"
FILE "01 - Devour.wav" WAVE
  TRACK 01 AUDIO
    TITLE "Devour"
    PERFORMER "Marilyn Manson"
    INDEX 01 00:00:00
FILE "02 - Pretty As A ($).wav" WAVE
  TRACK 02 AUDIO
    TITLE "Pretty As A ($)"
    PERFORMER "Marilyn Manson"
    INDEX 01 00:00:00
FILE "03 - Leave A Scar.wav" WAVE
  TRACK 03 AUDIO
    TITLE "Leave A Scar"
    PERFORMER "Marilyn Manson"
    INDEX 01 00:00:00
FILE "04 - Four Rusted Horses.wav" WAVE
  TRACK 04 AUDIO
    TITLE "Four Rusted Horses"
    PERFORMER "Marilyn Manson"
    INDEX 01 00:00:00
FILE "05 - Arma-Goddamn-Motherfuckin-Geddon.wav" WAVE
  TRACK 05 AUDIO
    TITLE "Arma-Goddamn-Motherfuckin-Geddon"
    PERFORMER "Marilyn Manson"
    INDEX 01 00:00:00
FILE "06 - Blank And White.wav" WAVE
  TRACK 06 AUDIO
    TITLE "Blank And White"
    PERFORMER "Marilyn Manson"
    INDEX 01 00:00:00
FILE "07 - Running To The Edge Of The World.wav" WAVE
  TRACK 07 AUDIO
    TITLE "Running To The Edge Of The World"
    PERFORMER "Marilyn Manson"
    INDEX 01 00:00:00
FILE "08 - I Want To Kill You Like They Do I.wav" WAVE
  TRACK 08 AUDIO
    TITLE "I Want To Kill You Like They Do I"
    PERFORMER "Marilyn Manson"
    INDEX 01 00:00:00
FILE "09 - WOW.wav" WAVE
  TRACK 09 AUDIO
    TITLE "WOW"
    PERFORMER "Marilyn Manson"
    INDEX 01 00:00:00
FILE "10 - Wight Spider.wav" WAVE
  TRACK 10 AUDIO
    TITLE "Wight Spider"
    PERFORMER "Marilyn Manson"
    INDEX 01 00:00:00
FILE "11 - Unkillable Monster.wav" WAVE
  TRACK 11 AUDIO
    TITLE "Unkillable Monster"
    PERFORMER "Marilyn Manson"
    INDEX 01 00:00:00
FILE "12 - We're From America.wav" WAVE
  TRACK 12 AUDIO
    TITLE "We're From America"
    PERFORMER "Marilyn Manson"
    INDEX 01 00:00:00
FILE "13 - I Have To Look Up Just To See Hell.wav" WAVE
  TRACK 13 AUDIO
    TITLE "I Have To Look Up Just To See Hell"
    PERFORMER "Marilyn Manson"
    INDEX 01 00:00:00
FILE "14 - Into The Fire.wav" WAVE
  TRACK 14 AUDIO
    TITLE "Into The Fire"
    PERFORMER "Marilyn Manson"
    INDEX 01 00:00:00
FILE "15 - 15.wav" WAVE
  TRACK 15 AUDIO
    TITLE "15"
    PERFORMER "Marilyn Manson"
    INDEX 01 00:00:00
Продолжительность: 00:32:55

Треклист:
01. Arma-goddamn-motherfuckin-geddon (Teddy Bears Remix) (3:31)
02. Leave A Scar (Alternate Version) (4:03)
03. Running To The Edge Of The World (Alternate Version) (6:08)
04. Wight Spider (Alternate Version) (5:28)
05. Four Rusted Horses (Opening Titles Version) (5:03)
06. I Have To Look Up Just To See Hell (Alternate Version) (4:08)
07. Into The Fire (Alternate Version) (4:34)
Код:
Exact Audio Copy V0.99 prebeta 4 from 23. January 2008

EAC extraction logfile from 20. May 2009, 15:27

Marilyn Manson / The High End Of Low [Bonus Disc]

Used drive  : MATSHITADVD-RAM UJ-831S   Adapter: 1  ID: 0

Read mode               : Secure
Utilize accurate stream : Yes
Defeat audio cache      : Yes
Make use of C2 pointers : No

Read offset correction                      : 102
Overread into Lead-In and Lead-Out          : No
Fill up missing offset samples with silence : Yes
Delete leading and trailing silent blocks   : No
Null samples used in CRC calculations       : Yes
Used interface                              : Native Win32 interface for Win NT & 2000
Gap handling                                : Not detected, thus appended to previous track

Used output format              : User Defined Encoder
Selected bitrate                : 320 kBit/s
Quality                         : High
Add ID3 tag                     : No
Command line compressor         : D:\Programfiler\Exact Audio Copy\Flac\flac.exe
Additional command line options : -V -8 -T "artist=%a" -T "title=%t" -T "album=%g" -T "date=%y" -T "tracknumber=%n" -T "genre=%m" %s

TOC of the extracted CD

     Track |   Start  |  Length  | Start sector | End sector
    ---------------------------------------------------------
        1  |  0:00.00 |  3:30.66 |         0    |    15815
        2  |  3:30.66 |  4:02.59 |     15816    |    34024
        3  |  7:33.50 |  6:07.71 |     34025    |    61620
        4  | 13:41.46 |  5:28.12 |     61621    |    86232
        5  | 19:09.58 |  5:02.61 |     86233    |   108943
        6  | 24:12.44 |  4:08.34 |    108944    |   127577
        7  | 28:21.03 |  4:34.14 |    127578    |   148141

Track  1

     Filename D:\Dokumenter\Torrents\ Marilyn Manson - The High End Of Low [Bonus Disc] [FLAC]\01 - Arma-goddamn-motherfuckin-geddon (Teddy Bears Remix).wav

     Peak level 99.9 %
     Track quality 100.0 %
     Test CRC 4FA098E0
     Copy CRC 4FA098E0
     Copy OK

Track  2

     Filename D:\Dokumenter\Torrents\ Marilyn Manson - The High End Of Low [Bonus Disc] [FLAC]\02 - Leave A Scar (Alternate Version).wav

     Peak level 98.8 %
     Track quality 100.0 %
     Test CRC 4B8F3DFE
     Copy CRC 4B8F3DFE
     Copy OK

Track  3

     Filename D:\Dokumenter\Torrents\ Marilyn Manson - The High End Of Low [Bonus Disc] [FLAC]\03 - Running To The Edge Of The World (Alternate Version).wav

     Peak level 98.8 %
     Track quality 99.9 %
     Test CRC 10AE54D6
     Copy CRC 10AE54D6
     Copy OK

Track  4

     Filename D:\Dokumenter\Torrents\ Marilyn Manson - The High End Of Low [Bonus Disc] [FLAC]\04 - Wight Spider (Alternate Version).wav

     Peak level 98.8 %
     Track quality 100.0 %
     Test CRC DCAAFDE8
     Copy CRC DCAAFDE8
     Copy OK

Track  5

     Filename D:\Dokumenter\Torrents\ Marilyn Manson - The High End Of Low [Bonus Disc] [FLAC]\05 - Four Rusted Horses (Opening Titles Version).wav

     Peak level 98.8 %
     Track quality 99.9 %
     Test CRC AE617118
     Copy CRC AE617118
     Copy OK

Track  6

     Filename D:\Dokumenter\Torrents\ Marilyn Manson - The High End Of Low [Bonus Disc] [FLAC]\06 - I Have To Look Up Just To See Hell (Alternate Version).wav

     Peak level 98.8 %
     Track quality 100.0 %
     Test CRC 23CF6108
     Copy CRC 23CF6108
     Copy OK

Track  7

     Filename D:\Dokumenter\Torrents\ Marilyn Manson - The High End Of Low [Bonus Disc] [FLAC]\07 - Into The Fire (Alternate Version).wav

     Peak level 98.4 %
     Track quality 100.0 %
     Test CRC 8B08E06F
     Copy CRC 8B08E06F
     Copy OK

No errors occurred

End of status report
Код:
AUDIOCHECKER v2.0 beta (build 457) - by Dester - opdester@freemail.hu
~~~~~~~~~~~~~~~~~~~~~~~~~~~~~~~~~~
-=== DO NOT EDIT THIS FILE! ===-

Path: ...\Bonus Disc

01 -=- 01 - Arma-goddamn-motherfuckin-geddon (Teddy Bears Remix).flac -=- CDDA (100%)
02 -=- 02 - Leave A Scar (Alternate Version).flac -=- MPEG (79%)
03 -=- 03 - Running To The Edge Of The World (Alternate Version).flac -=- CDDA (100%)
04 -=- 04 - Wight Spider (Alternate Version).flac -=- CDDA (100%)
05 -=- 05 - Four Rusted Horses (Opening Titles Version).flac -=- CDDA (100%)
06 -=- 06 - I Have To Look Up Just To See Hell (Alternate Version).flac -=- CDDA (100%)
07 -=- 07 - Into The Fire (Alternate Version).flac -=- CDDA (100%)

Summary 88,71% CDDA

240990020
Время раздачи: 23:00 до 03:00
[NNM-Club.ru] Marilyn Manson - The High End Of Low [2009] [FLAC].torrent
 Торрент: Платиновая раздача  Зарегистрирован
 
Скачать


 Зарегистрирован:   20 Май 2009 22:22:55
 Размер:   729 MB  (
 Рейтинг:   4,9 (Голосов: 41)
 Поблагодарили:   121
 Проверка:   Оформление проверено модератором 20 Май 2009 22:28:02
Как cкачать  ·  Как раздать  ·  Правильно оформить  ·  Поднять ратио!  
uniqal
Стаж: 11 лет
Сообщений: 2
Ratio: 5,805
14.29%
блин, всем качать полюбому! =)
альбом очень даже. автору за FLAC отдельное спасибо!
0pium
Стаж: 11 лет 11 мес.
Сообщений: 3
Ratio: 5,59
4.84%
ussr.gif
альбом отличный, звук супер, спасибо!
ZeNo!!!
Стаж: 11 лет
Сообщений: 12
Ratio: 4,467
Откуда: N-TagiL
russia.gif
:крутой: MANSON-рулит :респект: спасибо за качество!

Добавлено спустя 12 минут 17 секунд:

А нового видео нет, случайно?
JuriusArt
Стаж: 11 лет 8 мес.
Сообщений: 18
Ratio: 13,782
Поблагодарили: 69
20%
Откуда: Новосибирск
russia.gif
За флаки вери мач!
amanol
Стаж: 11 лет 1 мес.
Сообщений: 26
Ratio: 1,563
0%
THANKS =)
_cynic_ ®
Стаж: 11 лет 9 мес.
Сообщений: 1603
Ratio: 1112,939
Поблагодарили: 70870
100%
Откуда: 61
pirates.png
Всем пожалуйста. =)
Wild_Lucifer
Стаж: 12 лет 3 мес.
Сообщений: 82
Ratio: 9,467
Раздал: 6,492 TB
Поблагодарили: 92
97.74%
ukraine.gif
Очень хороший альбом, честно говоря, ожидал от Мэнсона гораздо меньшего, а он приятно удивил. Спасибо за релиз :)
SadRobo
Стаж: 12 лет 3 мес.
Сообщений: 8
Ratio: 1,596
6.67%
ussr.gif
Спасибо за отличную музыку.
amanol
Стаж: 11 лет 1 мес.
Сообщений: 26
Ratio: 1,563
0%
thank you
rockempire2009
Стаж: 10 лет 10 мес.
Сообщений: 1
100%
russia.gif
Слушал в мр3...ТОРКНУЛ....теперь в качестве....СПАСИБО!
Albertych
Стаж: 13 лет 2 мес.
Сообщений: 229
Ratio: 2,741
Раздал: 4,155 TB
56.52%
russia.gif
Спасибо огромное за флаки!
Вопрос: лазил, искал задницу диска, не нашел, она в принципе отсутствует?
DesideriuM
Реставратор Клуба
 
Стаж: 10 лет 8 мес.
Сообщений: 1363
Ratio: 74,138
Поблагодарили: 13906
100%
belarus.gif
Marilyn Manson - The High End Of Low (Deluxe Japanese Edition) (2009)


Год: 2009
Жанр: Alternative/Industrial Metal
Продолжительность: 01:44:58

Кодек: FLAC
Битрейт: Lossless
Продолжительность: 01:12:03

Треклист:
01. Devour (3:46)
02. Pretty As A ($) (2:45)
03. Leave A Scar (3:55)
04. Four Rusted Horses (5:00)
05. Arma-Goddamn-Motherfuckin-Geddon (3:39)
06. Blank And White (4:27)
07. Running To The Edge Of The World (6:26)
08. I Want To Kill You Like They Do I (9:02)
09. WOW (4:55)
10. Wight Spider (5:33)
11. Unkillable Monster (3:44)
12. We're From America (5:04)
13. I Have To Look Up Just To See Hell (4:12)
14. Into The Fire (5:15)
15. 15 (4:21)
Код:
Exact Audio Copy V0.99 prebeta 4 from 23. January 2008

EAC ekstraheringsloggfil fra 20. Mai 2009, 13:30

Marilyn Manson / The High End Of Low

Benytt enhet  : MATSHITADVD-RAM UJ-831S   Adapter: 1  ID: 0

Lesemetode             : Sikker
Benytt accurate stream : Ja
Tшm audio cache        : Ja
Bruk C2 pekere         : Nei

Lese-offset-korrigering                           : 102
Les inn i Lead-In og Lead-Out                     : Nei
Fyll opp manglende offset-samplinger med stillhet : Ja
Slett stille blokker i innledning og pе slutten   : Nei
Null-samplinger brukt i CRC-kalkulasjner          : Ja
Brukt utseende                                    : Native Win32 grensesnitt for Win NT & 2000
Gap hеndtering                                    : Lagt til forrige spor

Benyttet output format                 : Brukerdefinert Omkoder
Valgt bitrate                          : 320 kBit/s
Kvalitet                               : Hшy
Legg til ID3 tag                       : Nei
Kommandolinje kompressor               : D:\Programfiler\Exact Audio Copy\Flac\flac.exe
Ytterligere kommandolinjeinnstillinger : -V -8 -T "artist=%a" -T "title=%t" -T "album=%g" -T "date=%y" -T "tracknumber=%n" -T "genre=%m" %s

Innholdsfortegnelse av ekstrahert CD

     Spor |   Start  |  Lengde  | Start sektor | Slutt sektor
    ----------------------------------------------------------
       1  |  0:00.00 |  3:45.38 |         0    |     16912
       2  |  3:45.38 |  2:45.10 |     16913    |     29297
       3  |  6:30.48 |  3:54.68 |     29298    |     46915
       4  | 10:25.41 |  5:00.37 |     46916    |     69452
       5  | 15:26.03 |  3:39.27 |     69453    |     85904
       6  | 19:05.30 |  4:27.32 |     85905    |    105961
       7  | 23:32.62 |  6:25.56 |    105962    |    134892
       8  | 29:58.43 |  9:01.48 |    134893    |    175515
       9  | 39:00.16 |  4:55.34 |    175516    |    197674
      10  | 43:55.50 |  5:32.50 |    197675    |    222624
      11  | 49:28.25 |  3:43.62 |    222625    |    239411
      12  | 53:12.12 |  5:04.24 |    239412    |    262235
      13  | 58:16.36 |  4:11.55 |    262236    |    281115
      14  | 62:28.16 |  5:14.38 |    281116    |    304703
      15  | 67:42.54 |  4:20.44 |    304704    |    324247

Spor  1

     Filnavn D:\Dokumenter\Torrents\ Marilyn Manson - The High End Of Low [FLAC]\01 - Devour.wav

     Pre-gap lengde  0:00:02.00

     Peak-nivе 98.8 %
     Sporkvalitet 100.0 %
     Tester CRC C7EAD4D0
     Kopierer CRC C7EAD4D0
     Kopi OK

Spor  2

     Filnavn D:\Dokumenter\Torrents\ Marilyn Manson - The High End Of Low [FLAC]\02 - Pretty As A ($).wav

     Peak-nivе 98.8 %
     Sporkvalitet 100.0 %
     Tester CRC 8596E27A
     Kopierer CRC 8596E27A
     Kopi OK

Spor  3

     Filnavn D:\Dokumenter\Torrents\ Marilyn Manson - The High End Of Low [FLAC]\03 - Leave A Scar.wav

     Peak-nivе 98.8 %
     Sporkvalitet 100.0 %
     Tester CRC BCABCA8D
     Kopierer CRC BCABCA8D
     Kopi OK

Spor  4

     Filnavn D:\Dokumenter\Torrents\ Marilyn Manson - The High End Of Low [FLAC]\04 - Four Rusted Horses.wav

     Peak-nivе 98.7 %
     Sporkvalitet 99.9 %
     Tester CRC AFDB979E
     Kopierer CRC AFDB979E
     Kopi OK

Spor  5

     Filnavn D:\Dokumenter\Torrents\ Marilyn Manson - The High End Of Low [FLAC]\05 - Arma-Goddamn-Motherfuckin-Geddon.wav

     Peak-nivе 98.8 %
     Sporkvalitet 100.0 %
     Tester CRC 2C1D3803
     Kopierer CRC 2C1D3803
     Kopi OK

Spor  6

     Filnavn D:\Dokumenter\Torrents\ Marilyn Manson - The High End Of Low [FLAC]\06 - Blank And White.wav

     Peak-nivе 100.0 %
     Sporkvalitet 100.0 %
     Tester CRC 42022887
     Kopierer CRC 42022887
     Kopi OK

Spor  7

     Filnavn D:\Dokumenter\Torrents\ Marilyn Manson - The High End Of Low [FLAC]\07 - Running To The Edge Of The World.wav

     Peak-nivе 98.8 %
     Sporkvalitet 100.0 %
     Tester CRC FA6C8F81
     Kopierer CRC FA6C8F81
     Kopi OK

Spor  8

     Filnavn D:\Dokumenter\Torrents\ Marilyn Manson - The High End Of Low [FLAC]\08 - I Want To Kill You Like They Do I.wav

     Peak-nivе 98.7 %
     Sporkvalitet 100.0 %
     Tester CRC B26C7431
     Kopierer CRC B26C7431
     Kopi OK

Spor  9

     Filnavn D:\Dokumenter\Torrents\ Marilyn Manson - The High End Of Low [FLAC]\09 - WOW.wav

     Peak-nivе 98.8 %
     Sporkvalitet 100.0 %
     Tester CRC C89F2F7B
     Kopierer CRC C89F2F7B
     Kopi OK

Spor 10

     Filnavn D:\Dokumenter\Torrents\ Marilyn Manson - The High End Of Low [FLAC]\10 - Wight Spider.wav

     Peak-nivе 98.8 %
     Sporkvalitet 100.0 %
     Tester CRC C04D3AF9
     Kopierer CRC C04D3AF9
     Kopi OK

Spor 11

     Filnavn D:\Dokumenter\Torrents\ Marilyn Manson - The High End Of Low [FLAC]\11 - Unkillable Monster.wav

     Peak-nivе 98.8 %
     Sporkvalitet 100.0 %
     Tester CRC 7FA22309
     Kopierer CRC 7FA22309
     Kopi OK

Spor 12

     Filnavn D:\Dokumenter\Torrents\ Marilyn Manson - The High End Of Low [FLAC]\12 - We're From America.wav

     Peak-nivе 98.8 %
     Sporkvalitet 100.0 %
     Tester CRC E76751BF
     Kopierer CRC E76751BF
     Kopi OK

Spor 13

     Filnavn D:\Dokumenter\Torrents\ Marilyn Manson - The High End Of Low [FLAC]\13 - I Have To Look Up Just To See Hell.wav

     Peak-nivе 98.8 %
     Sporkvalitet 100.0 %
     Tester CRC 969C5D8C
     Kopierer CRC 969C5D8C
     Kopi OK

Spor 14

     Filnavn D:\Dokumenter\Torrents\ Marilyn Manson - The High End Of Low [FLAC]\14 - Into The Fire.wav

     Peak-nivе 98.8 %
     Sporkvalitet 100.0 %
     Tester CRC 1FD55F25
     Kopierer CRC 1FD55F25
     Kopi OK

Spor 15

     Filnavn D:\Dokumenter\Torrents\ Marilyn Manson - The High End Of Low [FLAC]\15 - 15.wav

     Peak-nivе 98.8 %
     Sporkvalitet 100.0 %
     Tester CRC F48F63B9
     Kopierer CRC F48F63B9
     Kopi OK

No errors occurred

Slutt pе statusrapport
Код:
AUDIOCHECKER v2.0 beta (build 457) - by Dester - opdester@freemail.hu
~~~~~~~~~~~~~~~~~~~~~~~~~~~~~~~~~~
-=== DO NOT EDIT THIS FILE! ===-

Path: ...\Marilyn Manson - The High End Of Low [2009] [FLAC]

01 -=- 01 - Devour.flac -=- CDDA (100%)
02 -=- 02 - Pretty As A ($).flac -=- CDDA (100%)
03 -=- 03 - Leave A Scar.flac -=- CDDA (100%)
04 -=- 04 - Four Rusted Horses.flac -=- CDDA (100%)
05 -=- 05 - Arma-Goddamn-Motherfuckin-Geddon.flac -=- CDDA (100%)
06 -=- 06 - Blank And White.flac -=- CDDA (100%)
07 -=- 07 - Running To The Edge Of The World.flac -=- CDDA (100%)
08 -=- 08 - I Want To Kill You Like They Do I.flac -=- CDDA (100%)
09 -=- 09 - WOW.flac -=- CDDA (99%)
10 -=- 10 - Wight Spider.flac -=- CDDA (99%)
11 -=- 11 - Unkillable Monster.flac -=- CDDA (100%)
12 -=- 12 - We're From America.flac -=- CDDA (99%)
13 -=- 13 - I Have To Look Up Just To See Hell.flac -=- CDDA (99%)
14 -=- 14 - Into The Fire.flac -=- CDDA (100%)
15 -=- 15 - 15.flac -=- CDDA (100%)

Summary 99,73% CDDA

657444
Код:
REM GENRE Rock
REM DATE 2009
REM DISCID D210E30F
REM COMMENT "ExactAudioCopy v0.99pb4"
PERFORMER "Marilyn Manson"
TITLE "The High End Of Low"
FILE "01 - Devour.wav" WAVE
  TRACK 01 AUDIO
    TITLE "Devour"
    PERFORMER "Marilyn Manson"
    INDEX 01 00:00:00
FILE "02 - Pretty As A ($).wav" WAVE
  TRACK 02 AUDIO
    TITLE "Pretty As A ($)"
    PERFORMER "Marilyn Manson"
    INDEX 01 00:00:00
FILE "03 - Leave A Scar.wav" WAVE
  TRACK 03 AUDIO
    TITLE "Leave A Scar"
    PERFORMER "Marilyn Manson"
    INDEX 01 00:00:00
FILE "04 - Four Rusted Horses.wav" WAVE
  TRACK 04 AUDIO
    TITLE "Four Rusted Horses"
    PERFORMER "Marilyn Manson"
    INDEX 01 00:00:00
FILE "05 - Arma-Goddamn-Motherfuckin-Geddon.wav" WAVE
  TRACK 05 AUDIO
    TITLE "Arma-Goddamn-Motherfuckin-Geddon"
    PERFORMER "Marilyn Manson"
    INDEX 01 00:00:00
FILE "06 - Blank And White.wav" WAVE
  TRACK 06 AUDIO
    TITLE "Blank And White"
    PERFORMER "Marilyn Manson"
    INDEX 01 00:00:00
FILE "07 - Running To The Edge Of The World.wav" WAVE
  TRACK 07 AUDIO
    TITLE "Running To The Edge Of The World"
    PERFORMER "Marilyn Manson"
    INDEX 01 00:00:00
FILE "08 - I Want To Kill You Like They Do I.wav" WAVE
  TRACK 08 AUDIO
    TITLE "I Want To Kill You Like They Do I"
    PERFORMER "Marilyn Manson"
    INDEX 01 00:00:00
FILE "09 - WOW.wav" WAVE
  TRACK 09 AUDIO
    TITLE "WOW"
    PERFORMER "Marilyn Manson"
    INDEX 01 00:00:00
FILE "10 - Wight Spider.wav" WAVE
  TRACK 10 AUDIO
    TITLE "Wight Spider"
    PERFORMER "Marilyn Manson"
    INDEX 01 00:00:00
FILE "11 - Unkillable Monster.wav" WAVE
  TRACK 11 AUDIO
    TITLE "Unkillable Monster"
    PERFORMER "Marilyn Manson"
    INDEX 01 00:00:00
FILE "12 - We're From America.wav" WAVE
  TRACK 12 AUDIO
    TITLE "We're From America"
    PERFORMER "Marilyn Manson"
    INDEX 01 00:00:00
FILE "13 - I Have To Look Up Just To See Hell.wav" WAVE
  TRACK 13 AUDIO
    TITLE "I Have To Look Up Just To See Hell"
    PERFORMER "Marilyn Manson"
    INDEX 01 00:00:00
FILE "14 - Into The Fire.wav" WAVE
  TRACK 14 AUDIO
    TITLE "Into The Fire"
    PERFORMER "Marilyn Manson"
    INDEX 01 00:00:00
FILE "15 - 15.wav" WAVE
  TRACK 15 AUDIO
    TITLE "15"
    PERFORMER "Marilyn Manson"
    INDEX 01 00:00:00
Продолжительность: 00:32:55

Треклист:
01. Arma-goddamn-motherfuckin-geddon (Teddy Bears Remix) (3:31)
02. Leave A Scar (Alternate Version) (4:03)
03. Running To The Edge Of The World (Alternate Version) (6:08)
04. Wight Spider (Alternate Version) (5:28)
05. Four Rusted Horses (Opening Titles Version) (5:03)
06. I Have To Look Up Just To See Hell (Alternate Version) (4:08)
07. Into The Fire (Alternate Version) (4:34)
Код:
Exact Audio Copy V0.99 prebeta 4 from 23. January 2008

EAC extraction logfile from 20. May 2009, 15:27

Marilyn Manson / The High End Of Low [Bonus Disc]

Used drive  : MATSHITADVD-RAM UJ-831S   Adapter: 1  ID: 0

Read mode               : Secure
Utilize accurate stream : Yes
Defeat audio cache      : Yes
Make use of C2 pointers : No

Read offset correction                      : 102
Overread into Lead-In and Lead-Out          : No
Fill up missing offset samples with silence : Yes
Delete leading and trailing silent blocks   : No
Null samples used in CRC calculations       : Yes
Used interface                              : Native Win32 interface for Win NT & 2000
Gap handling                                : Not detected, thus appended to previous track

Used output format              : User Defined Encoder
Selected bitrate                : 320 kBit/s
Quality                         : High
Add ID3 tag                     : No
Command line compressor         : D:\Programfiler\Exact Audio Copy\Flac\flac.exe
Additional command line options : -V -8 -T "artist=%a" -T "title=%t" -T "album=%g" -T "date=%y" -T "tracknumber=%n" -T "genre=%m" %s

TOC of the extracted CD

     Track |   Start  |  Length  | Start sector | End sector
    ---------------------------------------------------------
        1  |  0:00.00 |  3:30.66 |         0    |    15815
        2  |  3:30.66 |  4:02.59 |     15816    |    34024
        3  |  7:33.50 |  6:07.71 |     34025    |    61620
        4  | 13:41.46 |  5:28.12 |     61621    |    86232
        5  | 19:09.58 |  5:02.61 |     86233    |   108943
        6  | 24:12.44 |  4:08.34 |    108944    |   127577
        7  | 28:21.03 |  4:34.14 |    127578    |   148141

Track  1

     Filename D:\Dokumenter\Torrents\ Marilyn Manson - The High End Of Low [Bonus Disc] [FLAC]\01 - Arma-goddamn-motherfuckin-geddon (Teddy Bears Remix).wav

     Peak level 99.9 %
     Track quality 100.0 %
     Test CRC 4FA098E0
     Copy CRC 4FA098E0
     Copy OK

Track  2

     Filename D:\Dokumenter\Torrents\ Marilyn Manson - The High End Of Low [Bonus Disc] [FLAC]\02 - Leave A Scar (Alternate Version).wav

     Peak level 98.8 %
     Track quality 100.0 %
     Test CRC 4B8F3DFE
     Copy CRC 4B8F3DFE
     Copy OK

Track  3

     Filename D:\Dokumenter\Torrents\ Marilyn Manson - The High End Of Low [Bonus Disc] [FLAC]\03 - Running To The Edge Of The World (Alternate Version).wav

     Peak level 98.8 %
     Track quality 99.9 %
     Test CRC 10AE54D6
     Copy CRC 10AE54D6
     Copy OK

Track  4

     Filename D:\Dokumenter\Torrents\ Marilyn Manson - The High End Of Low [Bonus Disc] [FLAC]\04 - Wight Spider (Alternate Version).wav

     Peak level 98.8 %
     Track quality 100.0 %
     Test CRC DCAAFDE8
     Copy CRC DCAAFDE8
     Copy OK

Track  5

     Filename D:\Dokumenter\Torrents\ Marilyn Manson - The High End Of Low [Bonus Disc] [FLAC]\05 - Four Rusted Horses (Opening Titles Version).wav

     Peak level 98.8 %
     Track quality 99.9 %
     Test CRC AE617118
     Copy CRC AE617118
     Copy OK

Track  6

     Filename D:\Dokumenter\Torrents\ Marilyn Manson - The High End Of Low [Bonus Disc] [FLAC]\06 - I Have To Look Up Just To See Hell (Alternate Version).wav

     Peak level 98.8 %
     Track quality 100.0 %
     Test CRC 23CF6108
     Copy CRC 23CF6108
     Copy OK

Track  7

     Filename D:\Dokumenter\Torrents\ Marilyn Manson - The High End Of Low [Bonus Disc] [FLAC]\07 - Into The Fire (Alternate Version).wav

     Peak level 98.4 %
     Track quality 100.0 %
     Test CRC 8B08E06F
     Copy CRC 8B08E06F
     Copy OK

No errors occurred

End of status report
Код:
AUDIOCHECKER v2.0 beta (build 457) - by Dester - opdester@freemail.hu
~~~~~~~~~~~~~~~~~~~~~~~~~~~~~~~~~~
-=== DO NOT EDIT THIS FILE! ===-

Path: ...\Bonus Disc

01 -=- 01 - Arma-goddamn-motherfuckin-geddon (Teddy Bears Remix).flac -=- CDDA (100%)
02 -=- 02 - Leave A Scar (Alternate Version).flac -=- MPEG (79%)
03 -=- 03 - Running To The Edge Of The World (Alternate Version).flac -=- CDDA (100%)
04 -=- 04 - Wight Spider (Alternate Version).flac -=- CDDA (100%)
05 -=- 05 - Four Rusted Horses (Opening Titles Version).flac -=- CDDA (100%)
06 -=- 06 - I Have To Look Up Just To See Hell (Alternate Version).flac -=- CDDA (100%)
07 -=- 07 - Into The Fire (Alternate Version).flac -=- CDDA (100%)

Summary 88,71% CDDA

240990020
Время раздачи: 23:00 до 03:00

Код:
[align=center][color=indigo][size=20][b]Marilyn Manson - The High End Of Low (Deluxe Japanese Edition) (2009)[/b][/size][/color][hr]
[poster]http://img689.imageshack.us/img689/1325/gj8g.jpg[/poster]

[b]Год:[/b] 2009
[b]Жанр:[/b] Alternative/Industrial Metal
[b]Продолжительность:[/b] 01:44:58

[b]Кодек:[/b] FLAC
[b]Битрейт:[/b] Lossless[/align]

[hide=CD 1]
[b]Продолжительность:[/b] 01:12:03

[b]Треклист:[/b]
01. Devour (3:46)
02. Pretty As A ($) (2:45)
03. Leave A Scar (3:55)
04. Four Rusted Horses (5:00)
05. Arma-Goddamn-Motherfuckin-Geddon (3:39)
06. Blank And White (4:27)
07. Running To The Edge Of The World (6:26)
08. I Want To Kill You Like They Do I (9:02)
09. WOW (4:55)
10. Wight Spider (5:33)
11. Unkillable Monster (3:44)
12. We're From America (5:04)
13. I Have To Look Up Just To See Hell (4:12)
14. Into The Fire (5:15)
15. 15 (4:21)

[hide=Отчёт ЕАС:][code]Exact Audio Copy V0.99 prebeta 4 from 23. January 2008

EAC ekstraheringsloggfil fra 20. Mai 2009, 13:30

Marilyn Manson / The High End Of Low

Benytt enhet  : MATSHITADVD-RAM UJ-831S   Adapter: 1  ID: 0

Lesemetode             : Sikker
Benytt accurate stream : Ja
Tшm audio cache        : Ja
Bruk C2 pekere         : Nei

Lese-offset-korrigering                           : 102
Les inn i Lead-In og Lead-Out                     : Nei
Fyll opp manglende offset-samplinger med stillhet : Ja
Slett stille blokker i innledning og pе slutten   : Nei
Null-samplinger brukt i CRC-kalkulasjner          : Ja
Brukt utseende                                    : Native Win32 grensesnitt for Win NT & 2000
Gap hеndtering                                    : Lagt til forrige spor

Benyttet output format                 : Brukerdefinert Omkoder
Valgt bitrate                          : 320 kBit/s
Kvalitet                               : Hшy
Legg til ID3 tag                       : Nei
Kommandolinje kompressor               : D:\Programfiler\Exact Audio Copy\Flac\flac.exe
Ytterligere kommandolinjeinnstillinger : -V -8 -T "artist=%a" -T "title=%t" -T "album=%g" -T "date=%y" -T "tracknumber=%n" -T "genre=%m" %s

Innholdsfortegnelse av ekstrahert CD

     Spor |   Start  |  Lengde  | Start sektor | Slutt sektor
    ----------------------------------------------------------
       1  |  0:00.00 |  3:45.38 |         0    |     16912
       2  |  3:45.38 |  2:45.10 |     16913    |     29297
       3  |  6:30.48 |  3:54.68 |     29298    |     46915
       4  | 10:25.41 |  5:00.37 |     46916    |     69452
       5  | 15:26.03 |  3:39.27 |     69453    |     85904
       6  | 19:05.30 |  4:27.32 |     85905    |    105961
       7  | 23:32.62 |  6:25.56 |    105962    |    134892
       8  | 29:58.43 |  9:01.48 |    134893    |    175515
       9  | 39:00.16 |  4:55.34 |    175516    |    197674
      10  | 43:55.50 |  5:32.50 |    197675    |    222624
      11  | 49:28.25 |  3:43.62 |    222625    |    239411
      12  | 53:12.12 |  5:04.24 |    239412    |    262235
      13  | 58:16.36 |  4:11.55 |    262236    |    281115
      14  | 62:28.16 |  5:14.38 |    281116    |    304703
      15  | 67:42.54 |  4:20.44 |    304704    |    324247

Spor  1

     Filnavn D:\Dokumenter\Torrents\ Marilyn Manson - The High End Of Low [FLAC]\01 - Devour.wav

     Pre-gap lengde  0:00:02.00

     Peak-nivе 98.8 %
     Sporkvalitet 100.0 %
     Tester CRC C7EAD4D0
     Kopierer CRC C7EAD4D0
     Kopi OK

Spor  2

     Filnavn D:\Dokumenter\Torrents\ Marilyn Manson - The High End Of Low [FLAC]\02 - Pretty As A ($).wav

     Peak-nivе 98.8 %
     Sporkvalitet 100.0 %
     Tester CRC 8596E27A
     Kopierer CRC 8596E27A
     Kopi OK

Spor  3

     Filnavn D:\Dokumenter\Torrents\ Marilyn Manson - The High End Of Low [FLAC]\03 - Leave A Scar.wav

     Peak-nivе 98.8 %
     Sporkvalitet 100.0 %
     Tester CRC BCABCA8D
     Kopierer CRC BCABCA8D
     Kopi OK

Spor  4

     Filnavn D:\Dokumenter\Torrents\ Marilyn Manson - The High End Of Low [FLAC]\04 - Four Rusted Horses.wav

     Peak-nivе 98.7 %
     Sporkvalitet 99.9 %
     Tester CRC AFDB979E
     Kopierer CRC AFDB979E
     Kopi OK

Spor  5

     Filnavn D:\Dokumenter\Torrents\ Marilyn Manson - The High End Of Low [FLAC]\05 - Arma-Goddamn-Motherfuckin-Geddon.wav

     Peak-nivе 98.8 %
     Sporkvalitet 100.0 %
     Tester CRC 2C1D3803
     Kopierer CRC 2C1D3803
     Kopi OK

Spor  6

     Filnavn D:\Dokumenter\Torrents\ Marilyn Manson - The High End Of Low [FLAC]\06 - Blank And White.wav

     Peak-nivе 100.0 %
     Sporkvalitet 100.0 %
     Tester CRC 42022887
     Kopierer CRC 42022887
     Kopi OK

Spor  7

     Filnavn D:\Dokumenter\Torrents\ Marilyn Manson - The High End Of Low [FLAC]\07 - Running To The Edge Of The World.wav

     Peak-nivе 98.8 %
     Sporkvalitet 100.0 %
     Tester CRC FA6C8F81
     Kopierer CRC FA6C8F81
     Kopi OK

Spor  8

     Filnavn D:\Dokumenter\Torrents\ Marilyn Manson - The High End Of Low [FLAC]\08 - I Want To Kill You Like They Do I.wav

     Peak-nivе 98.7 %
     Sporkvalitet 100.0 %
     Tester CRC B26C7431
     Kopierer CRC B26C7431
     Kopi OK

Spor  9

     Filnavn D:\Dokumenter\Torrents\ Marilyn Manson - The High End Of Low [FLAC]\09 - WOW.wav

     Peak-nivе 98.8 %
     Sporkvalitet 100.0 %
     Tester CRC C89F2F7B
     Kopierer CRC C89F2F7B
     Kopi OK

Spor 10

     Filnavn D:\Dokumenter\Torrents\ Marilyn Manson - The High End Of Low [FLAC]\10 - Wight Spider.wav

     Peak-nivе 98.8 %
     Sporkvalitet 100.0 %
     Tester CRC C04D3AF9
     Kopierer CRC C04D3AF9
     Kopi OK

Spor 11

     Filnavn D:\Dokumenter\Torrents\ Marilyn Manson - The High End Of Low [FLAC]\11 - Unkillable Monster.wav

     Peak-nivе 98.8 %
     Sporkvalitet 100.0 %
     Tester CRC 7FA22309
     Kopierer CRC 7FA22309
     Kopi OK

Spor 12

     Filnavn D:\Dokumenter\Torrents\ Marilyn Manson - The High End Of Low [FLAC]\12 - We're From America.wav

     Peak-nivе 98.8 %
     Sporkvalitet 100.0 %
     Tester CRC E76751BF
     Kopierer CRC E76751BF
     Kopi OK

Spor 13

     Filnavn D:\Dokumenter\Torrents\ Marilyn Manson - The High End Of Low [FLAC]\13 - I Have To Look Up Just To See Hell.wav

     Peak-nivе 98.8 %
     Sporkvalitet 100.0 %
     Tester CRC 969C5D8C
     Kopierer CRC 969C5D8C
     Kopi OK

Spor 14

     Filnavn D:\Dokumenter\Torrents\ Marilyn Manson - The High End Of Low [FLAC]\14 - Into The Fire.wav

     Peak-nivе 98.8 %
     Sporkvalitet 100.0 %
     Tester CRC 1FD55F25
     Kopierer CRC 1FD55F25
     Kopi OK

Spor 15

     Filnavn D:\Dokumenter\Torrents\ Marilyn Manson - The High End Of Low [FLAC]\15 - 15.wav

     Peak-nivе 98.8 %
     Sporkvalitet 100.0 %
     Tester CRC F48F63B9
     Kopierer CRC F48F63B9
     Kopi OK

No errors occurred

Slutt pе statusrapport
[/code][/hide]

[hide=Отчёт Audiochecker:][code]AUDIOCHECKER v2.0 beta (build 457) - by Dester - opdester@freemail.hu
~~~~~~~~~~~~~~~~~~~~~~~~~~~~~~~~~~
-=== DO NOT EDIT THIS FILE! ===-

Path: ...\Marilyn Manson - The High End Of Low [2009] [FLAC]

01 -=- 01 - Devour.flac -=- CDDA (100%)
02 -=- 02 - Pretty As A ($).flac -=- CDDA (100%)
03 -=- 03 - Leave A Scar.flac -=- CDDA (100%)
04 -=- 04 - Four Rusted Horses.flac -=- CDDA (100%)
05 -=- 05 - Arma-Goddamn-Motherfuckin-Geddon.flac -=- CDDA (100%)
06 -=- 06 - Blank And White.flac -=- CDDA (100%)
07 -=- 07 - Running To The Edge Of The World.flac -=- CDDA (100%)
08 -=- 08 - I Want To Kill You Like They Do I.flac -=- CDDA (100%)
09 -=- 09 - WOW.flac -=- CDDA (99%)
10 -=- 10 - Wight Spider.flac -=- CDDA (99%)
11 -=- 11 - Unkillable Monster.flac -=- CDDA (100%)
12 -=- 12 - We're From America.flac -=- CDDA (99%)
13 -=- 13 - I Have To Look Up Just To See Hell.flac -=- CDDA (99%)
14 -=- 14 - Into The Fire.flac -=- CDDA (100%)
15 -=- 15 - 15.flac -=- CDDA (100%)

Summary 99,73% CDDA

657444
[/code][/hide]

[hide=Содержание индексной карты (.CUE)][code]REM GENRE Rock
REM DATE 2009
REM DISCID D210E30F
REM COMMENT "ExactAudioCopy v0.99pb4"
PERFORMER "Marilyn Manson"
TITLE "The High End Of Low"
FILE "01 - Devour.wav" WAVE
  TRACK 01 AUDIO
    TITLE "Devour"
    PERFORMER "Marilyn Manson"
    INDEX 01 00:00:00
FILE "02 - Pretty As A ($).wav" WAVE
  TRACK 02 AUDIO
    TITLE "Pretty As A ($)"
    PERFORMER "Marilyn Manson"
    INDEX 01 00:00:00
FILE "03 - Leave A Scar.wav" WAVE
  TRACK 03 AUDIO
    TITLE "Leave A Scar"
    PERFORMER "Marilyn Manson"
    INDEX 01 00:00:00
FILE "04 - Four Rusted Horses.wav" WAVE
  TRACK 04 AUDIO
    TITLE "Four Rusted Horses"
    PERFORMER "Marilyn Manson"
    INDEX 01 00:00:00
FILE "05 - Arma-Goddamn-Motherfuckin-Geddon.wav" WAVE
  TRACK 05 AUDIO
    TITLE "Arma-Goddamn-Motherfuckin-Geddon"
    PERFORMER "Marilyn Manson"
    INDEX 01 00:00:00
FILE "06 - Blank And White.wav" WAVE
  TRACK 06 AUDIO
    TITLE "Blank And White"
    PERFORMER "Marilyn Manson"
    INDEX 01 00:00:00
FILE "07 - Running To The Edge Of The World.wav" WAVE
  TRACK 07 AUDIO
    TITLE "Running To The Edge Of The World"
    PERFORMER "Marilyn Manson"
    INDEX 01 00:00:00
FILE "08 - I Want To Kill You Like They Do I.wav" WAVE
  TRACK 08 AUDIO
    TITLE "I Want To Kill You Like They Do I"
    PERFORMER "Marilyn Manson"
    INDEX 01 00:00:00
FILE "09 - WOW.wav" WAVE
  TRACK 09 AUDIO
    TITLE "WOW"
    PERFORMER "Marilyn Manson"
    INDEX 01 00:00:00
FILE "10 - Wight Spider.wav" WAVE
  TRACK 10 AUDIO
    TITLE "Wight Spider"
    PERFORMER "Marilyn Manson"
    INDEX 01 00:00:00
FILE "11 - Unkillable Monster.wav" WAVE
  TRACK 11 AUDIO
    TITLE "Unkillable Monster"
    PERFORMER "Marilyn Manson"
    INDEX 01 00:00:00
FILE "12 - We're From America.wav" WAVE
  TRACK 12 AUDIO
    TITLE "We're From America"
    PERFORMER "Marilyn Manson"
    INDEX 01 00:00:00
FILE "13 - I Have To Look Up Just To See Hell.wav" WAVE
  TRACK 13 AUDIO
    TITLE "I Have To Look Up Just To See Hell"
    PERFORMER "Marilyn Manson"
    INDEX 01 00:00:00
FILE "14 - Into The Fire.wav" WAVE
  TRACK 14 AUDIO
    TITLE "Into The Fire"
    PERFORMER "Marilyn Manson"
    INDEX 01 00:00:00
FILE "15 - 15.wav" WAVE
  TRACK 15 AUDIO
    TITLE "15"
    PERFORMER "Marilyn Manson"
    INDEX 01 00:00:00
[/code][/hide][/hide]

[hide=Deluxe Edition Bonus Disc:]
[b]Продолжительность:[/b] 00:32:55

[b]Треклист:[/b]
01. Arma-goddamn-motherfuckin-geddon (Teddy Bears Remix) (3:31)
02. Leave A Scar (Alternate Version) (4:03)
03. Running To The Edge Of The World (Alternate Version) (6:08)
04. Wight Spider (Alternate Version) (5:28)
05. Four Rusted Horses (Opening Titles Version) (5:03)
06. I Have To Look Up Just To See Hell (Alternate Version) (4:08)
07. Into The Fire (Alternate Version) (4:34)

[hide=Отчёт ЕАС:][code]Exact Audio Copy V0.99 prebeta 4 from 23. January 2008

EAC extraction logfile from 20. May 2009, 15:27

Marilyn Manson / The High End Of Low [Bonus Disc]

Used drive  : MATSHITADVD-RAM UJ-831S   Adapter: 1  ID: 0

Read mode               : Secure
Utilize accurate stream : Yes
Defeat audio cache      : Yes
Make use of C2 pointers : No

Read offset correction                      : 102
Overread into Lead-In and Lead-Out          : No
Fill up missing offset samples with silence : Yes
Delete leading and trailing silent blocks   : No
Null samples used in CRC calculations       : Yes
Used interface                              : Native Win32 interface for Win NT & 2000
Gap handling                                : Not detected, thus appended to previous track

Used output format              : User Defined Encoder
Selected bitrate                : 320 kBit/s
Quality                         : High
Add ID3 tag                     : No
Command line compressor         : D:\Programfiler\Exact Audio Copy\Flac\flac.exe
Additional command line options : -V -8 -T "artist=%a" -T "title=%t" -T "album=%g" -T "date=%y" -T "tracknumber=%n" -T "genre=%m" %s

TOC of the extracted CD

     Track |   Start  |  Length  | Start sector | End sector
    ---------------------------------------------------------
        1  |  0:00.00 |  3:30.66 |         0    |    15815
        2  |  3:30.66 |  4:02.59 |     15816    |    34024
        3  |  7:33.50 |  6:07.71 |     34025    |    61620
        4  | 13:41.46 |  5:28.12 |     61621    |    86232
        5  | 19:09.58 |  5:02.61 |     86233    |   108943
        6  | 24:12.44 |  4:08.34 |    108944    |   127577
        7  | 28:21.03 |  4:34.14 |    127578    |   148141

Track  1

     Filename D:\Dokumenter\Torrents\ Marilyn Manson - The High End Of Low [Bonus Disc] [FLAC]\01 - Arma-goddamn-motherfuckin-geddon (Teddy Bears Remix).wav

     Peak level 99.9 %
     Track quality 100.0 %
     Test CRC 4FA098E0
     Copy CRC 4FA098E0
     Copy OK

Track  2

     Filename D:\Dokumenter\Torrents\ Marilyn Manson - The High End Of Low [Bonus Disc] [FLAC]\02 - Leave A Scar (Alternate Version).wav

     Peak level 98.8 %
     Track quality 100.0 %
     Test CRC 4B8F3DFE
     Copy CRC 4B8F3DFE
     Copy OK

Track  3

     Filename D:\Dokumenter\Torrents\ Marilyn Manson - The High End Of Low [Bonus Disc] [FLAC]\03 - Running To The Edge Of The World (Alternate Version).wav

     Peak level 98.8 %
     Track quality 99.9 %
     Test CRC 10AE54D6
     Copy CRC 10AE54D6
     Copy OK

Track  4

     Filename D:\Dokumenter\Torrents\ Marilyn Manson - The High End Of Low [Bonus Disc] [FLAC]\04 - Wight Spider (Alternate Version).wav

     Peak level 98.8 %
     Track quality 100.0 %
     Test CRC DCAAFDE8
     Copy CRC DCAAFDE8
     Copy OK

Track  5

     Filename D:\Dokumenter\Torrents\ Marilyn Manson - The High End Of Low [Bonus Disc] [FLAC]\05 - Four Rusted Horses (Opening Titles Version).wav

     Peak level 98.8 %
     Track quality 99.9 %
     Test CRC AE617118
     Copy CRC AE617118
     Copy OK

Track  6

     Filename D:\Dokumenter\Torrents\ Marilyn Manson - The High End Of Low [Bonus Disc] [FLAC]\06 - I Have To Look Up Just To See Hell (Alternate Version).wav

     Peak level 98.8 %
     Track quality 100.0 %
     Test CRC 23CF6108
     Copy CRC 23CF6108
     Copy OK

Track  7

     Filename D:\Dokumenter\Torrents\ Marilyn Manson - The High End Of Low [Bonus Disc] [FLAC]\07 - Into The Fire (Alternate Version).wav

     Peak level 98.4 %
     Track quality 100.0 %
     Test CRC 8B08E06F
     Copy CRC 8B08E06F
     Copy OK

No errors occurred

End of status report
[/code][/hide]

[hide=Отчёт Audiochecker:][code]AUDIOCHECKER v2.0 beta (build 457) - by Dester - opdester@freemail.hu
~~~~~~~~~~~~~~~~~~~~~~~~~~~~~~~~~~
-=== DO NOT EDIT THIS FILE! ===-

Path: ...\Bonus Disc

01 -=- 01 - Arma-goddamn-motherfuckin-geddon (Teddy Bears Remix).flac -=- CDDA (100%)
02 -=- 02 - Leave A Scar (Alternate Version).flac -=- MPEG (79%)
03 -=- 03 - Running To The Edge Of The World (Alternate Version).flac -=- CDDA (100%)
04 -=- 04 - Wight Spider (Alternate Version).flac -=- CDDA (100%)
05 -=- 05 - Four Rusted Horses (Opening Titles Version).flac -=- CDDA (100%)
06 -=- 06 - I Have To Look Up Just To See Hell (Alternate Version).flac -=- CDDA (100%)
07 -=- 07 - Into The Fire (Alternate Version).flac -=- CDDA (100%)

Summary 88,71% CDDA

240990020
[/code][/hide][/hide]

[b]Время раздачи:[/b] 23:00 до 03:00
Показать сообщения:   
Начать новую тему   Ответить на тему    Торрент-трекер NNM-Club -> Rock, Alternative, Punk, Metal -> Alternative, Punk (Lossless) Часовой пояс: GMT + 3
Страница 1 из 1