Классический форум-трекер
canvas not supported
Нас вместе: 4 079 470

Форпост (2007) DVDRip


Страницы:  1, 2  След. 
 
RSS
Начать новую тему   Ответить на тему    Торрент-трекер NNM-Club -> Документалистика и Телепередачи -> Тележурналистика
Автор Сообщение
newfolder ®
Стаж: 10 лет 6 мес.
Сообщений: 3
Ratio: 2,07
Поблагодарили: 169
0%
ukraine.gif
Форпост (2007) DVDRip
Год выпуска: 2007
Производство: Украина, Православный канал "Глас"
Жанр: Документальный

Описание фильма:
«Форпост» — это фильм откровение. Фильм — проверка на душевную вшивость. Сумел досмотреть до финала, значит сердце еще не заросло мхом, и ты еще не окончательно отделился от мира броней ороговевшей кожи. Фильм о чуде. Реальном и абсолютно не сказочном. Фильм об исцелении совершенно больных детей и об исцелении взрослых. Уже давно, особенно в кинематографе, понятие «герой» это безжалостный и решительный комок мышц.

Оказывается можно и по другому. Не скулить, не жаловаться на здоровье, а стиснув зубы делать добро. Тем более, что его сейчас так мало. Ведь мы до сих пор не знаем, что такое жизнь. Временная командировка перед погружением в вечность или пешая прогулка из пункта «А» в пункт «Б». Фильм динамичен, с хорошим текстом и совсем не скучный. Бери и смотри.

Режиссер: Михаил Шадрин

Продолжительность: 00:55:24
Качество видео: DVDRip



Видео: DivX 5, 2 949 Kbps, 712 x 428 pixels, 25.000 fps, Bits/(Pixel*Frame) : 0.387
Аудио: AC-3 , 192 Kbps, 2 channels, 48.0 KHz
forpost.avi
Format : AVI
Format/Info : Audio Video Interleave
File size : 1.22 GiB
Duration : 55mn 24s
Overall bit rate : 3 150 Kbps
Writing library : VirtualDub build 30009/release

Video
ID : 0
Format : MPEG-4 Visual
Format settings, BVOP : Yes
Format settings, QPel : No
Format settings, GMC : No warppoints
Format settings, Matrix : Default (H.263)
Codec ID : DX50
Codec ID/Hint : DivX 5
Duration : 55mn 24s
Bit rate : 2 949 Kbps
Width : 712 pixels
Height : 428 pixels
Display aspect ratio : 1.664
Frame rate : 25.000 fps
Color space : YUV
Chroma subsampling : 4:2:0
Bit depth : 8 bits
Scan type : Progressive
Compression mode : Lossy
Bits/(Pixel*Frame) : 0.387
Stream size : 1.14 GiB (94%)
Writing library : DivX 6.8.5 (UTC 2009-08-20)

Audio
ID : 1
Format : AC-3
Format/Info : Audio Coding 3
Mode extension : CM (complete main)
Format settings, Endianness : Big
Codec ID : 2000
Duration : 55mn 24s
Bit rate mode : Constant
Bit rate : 192 Kbps
Channel(s) : 2 channels
Channel positions : Front: L R
Sampling rate : 48.0 KHz
Bit depth : 16 bits
Compression mode : Lossy
Stream size : 76.1 MiB (6%)
Alignment : Aligned on interleaves
Interleave, duration : 40 ms (1.00 video frame)
Interleave, preload duration : 512 ms
Скриншоты:



Реставрация релиза: smaster67

Все релизы фильма на NNM-club
[NNM-Club.ru] forpost.avi.torrent
 Торрент: Платиновая раздача  Зарегистрирован
 
Скачать


 Зарегистрирован:   27 Май 2009 05:52:40
 Размер:   1,22 GB  (
 Рейтинг:   4,9 (Голосов: 43)
 Поблагодарили:   165
 Проверка:   Оформление проверено модератором 30 Май 2009 14:55:37
Как cкачать  ·  Как раздать  ·  Правильно оформить  ·  Поднять ратио!  
piranya2
Стаж: 12 лет
Сообщений: 1131
Ratio: 25,824
Поблагодарили: 6389
100%
Откуда: Уагадугу
burkinafaso.gif
newfolder писал(а):
Форпост (Михаил Шадрин) (2007) DVDRip

newfolder писал(а):
Русское название: Форпост (Михаил Шадрин)

имя режиссера тут лишнее. для него есть строка ниже.
newfolder писал(а):
Актеры: люди

не пойдет. объяснять - почему - думаю, не надо.

исправьте.
jWizard
Стаж: 10 лет 7 мес.
Сообщений: 37
Ratio: 1,762
100%
russia.gif
встаньте на раздачу, плиз
V_i_S
Стаж: 10 лет
Сообщений: 1314
Ratio: 10,133
Раздал: 8,645 TB
Поблагодарили: 10362
100%
Откуда: Планета Земля
russia.gif
Рекомендую этот фильм не только верующим, но всем, кому не безразлична тема нашего духовного возраждения. Всем кто еще не окаменел душой и ценит духовную искренность и чистоту.
Тит 180
Стаж: 9 лет 7 мес.
Сообщений: 3
Ratio: 4,125
0%
guatemala.gif
Хороший фильм. Настоящий.
StaticVG1
Стаж: 10 лет 3 мес.
Сообщений: 33
Ratio: 7,867
3.75%
Откуда: Санкт-Петербург
russia.gif
Спасибо большое!
22091973
Стаж: 9 лет 6 мес.
Сообщений: 218
Ratio: 28,959
Поблагодарили: 3546
100%
Откуда: Из Царской России...
Очень стоящий и нужный фильм , его стоит посмотреть каждому. Почему ? Ответ в конце просмотра.
Большое спасибо .

_________________
За Вѣру, Царя и Отечество !!!
Lusima
Стаж: 8 лет 7 мес.
Сообщений: 1
Ratio: 22,669
100%
russia.gif
Очень трогательный фильм! Сейчас столько здоровых детей, которые не понимают ценности самой жизни и постоянно ворчат, недовольные! Собираюсь показать своим ученикам.
Спаси Господь!!!
RiFLe
Стаж: 10 лет 1 мес.
Сообщений: 49
Ratio: 0,905
Поблагодарили: 212
0%
посмотреть стоит

_________________
ЛУЧШЕЯ БЛАГОДАРНОСТЬ ЗА СКАЧАВШИЙСЯ РЕЛИЗ - ВАШЕ ПОЯВЛЕНИЕ В СПИСКЕ СИДЕРОВ, ХОТЯ БЫ ДО СЛЕДУЮЩЕГО СИДЕРА!!!!!!
m@xmaster
Стаж: 9 лет 2 мес.
Сообщений: 20
Ratio: 24,661
49.5%
russia.gif
Помогите с скачать. Фильм оставлю у себя, будет раздаваться
A.Dobry
Стаж: 8 лет 9 мес.
Сообщений: 175
Ratio: 10,737
100%
belarus.gif
Отличный фильм. Пересматриваю в третий раз. Очень помогает прийти в себя и посмотреть на мир иными глазами. Спасибо автору, спасибо за раздачу. Скачал без проблем.
pusik48
Стаж: 10 лет 2 мес.
Сообщений: 17
Ratio: 4,531
100%
russia.gif
Благодарю за раздачу!
Санченко
Стаж: 7 лет 10 мес.
Сообщений: 1
Ratio: 0,097
0%
Почему раздача красная?
Puhx
Стаж: 9 лет 4 мес.
Сообщений: 44
Ratio: 2,701
Поблагодарили: 198
100%
russia.gif
Очень.
Благодарю за релиз!
smaster67
Модератор Видео
Покровитель талантов Uploader 300+
Стаж: 10 лет 3 мес.
Сообщений: 7117
Ratio: 225,339
Поблагодарили: 215383
100%
Показать сообщения:   
Начать новую тему   Ответить на тему    Торрент-трекер NNM-Club -> Документалистика и Телепередачи -> Тележурналистика Часовой пояс: GMT + 3
Страницы:  1, 2  След.
Страница 1 из 2