Классический форум-трекер
canvas not supported
Нас вместе: 4 079 278

Konohana Kitan / Сказания о Конохане [2017, TV, 12] Blu-ray 1080p raw


 
 
RSS
Начать новую тему   Ответить на тему    Торрент-трекер NNM-Club -> Аниме разное -> Аниме Blu-ray, Remux
Автор Сообщение
kvaking ®
RG Аниме
Uploader 100+
 
Стаж: 9 лет 2 мес.
Сообщений: 2495
Ratio: 201,079
Раздал: 320,8 TB
Поблагодарили: 16514
100%
Откуда: Осака
roody.gif
このはな綺譚
Konohana Kitan
Сказания о Конохане

Жанр: повседневность, фэнтези
Количество серий: 12
Продолжительность: 12 серий по 25 мин
Качество видео: Blu-ray (оригинал, 4-ре диска)
Дата премьеры / период выхода: c 04.10.2017 по 20.12.2017

Производство/студия:

Автор оригинала: Амано Сакуя
Режиссер: Окамото Хидэки

Битрейт видео: ~27.1 Mb/s
Формат видио: M2TS (MPEG-4 AVC)
Размер кадра: 1920x1080
Аудио: PCM 1 536 kb/s
Язык озвучки: Японский
Язык субтитров: Русский [SoraSubs] (цепляющеюся за видио, внутри папок, отключаемые)

Описание:
Каких только удобств нет у людей! И рестораны, и клубы, и библиотеки, и гостиницы… А вы думали, что ёкаям этого не нужно? Они так же, как и мы, желают жить на полную катушку и с комфортом! Гостиница "Конохана” полностью соответствует притязательным желаниям ёкаев. Она оформлена в традиционном японском стиле, расположена на горячих источниках, а работают в ней девушки-лисички. Что ещё можно пожелать для счастья?

Лисичка по имени Юзу в детстве была выброшена в снег, но её подобрала и воспитала добрая буддистская монахиня. Юзу не слишком умеет общаться, немного неклюжа, но она искренне хочет узнать побольше об обществе, поэтому устраивается работать в "Конохану”. Вскоре дружелюбная и жизнерадостная Юзу становится незаменимой частью команды гувернанток гостиницы. Каждый день там останавливаются самые разные ёкаи, с разными предпочтениями и характерами, а задача лисичек заключается в том, чтобы у клиента остались только хорошие впечатления об этом месте! Но что скрывается за их стараниями, сможем увидеть только мы.



Ссылки:

Скриншоты:
01. Сакуя Конохана
02. Весеннее путешествие
03. Томительно ожидание
04. Плавучий мост грёз
05. С ним приходят весенние дожди
06. Страшные истории Конаханатей
07. Ночь летнего фестиваля
08. Временный жилец
09. Мимолётно...
10. Атака старшой сестры
11. Божественный праздник
12. Новогоднее чудо
Код: выделить все
General
ID                             : 0 (0x0)
Complete name                  : D:\Konohana Kitan (Blu-ray)\DISC1\BDMV\STREAM\00001.m2ts
Format                         : BDAV
Format/Info                    : Blu-ray Video
File size                      : 5.24 GiB
Duration                       : 23 min 52 s
Overall bit rate mode          : Variable
Overall bit rate               : 31.4 Mb/s
Maximum Overall bit rate       : 48.0 Mb/s

Video
ID                             : 4113 (0x1011)
Menu ID                        : 1 (0x1)
Format                         : AVC
Format/Info                    : Advanced Video Codec
Format profile                 : High@L4.1
Format settings                : CABAC / 4 Ref Frames
Format settings, CABAC         : Yes
Format settings, ReFrames      : 4 frames
Codec ID                       : 27
Duration                       : 23 min 52 s
Bit rate mode                  : Variable
Bit rate                       : 27.1 Mb/s
Maximum bit rate               : 40.0 Mb/s
Width                          : 1 920 pixels
Height                         : 1 080 pixels
Display aspect ratio           : 16:9
Frame rate                     : 23.976 (24000/1001) FPS
Color space                    : YUV
Chroma subsampling             : 4:2:0
Bit depth                      : 8 bits
Scan type                      : Progressive
Bits/(Pixel*Frame)             : 0.545
Stream size                    : 4.52 GiB (86%)

Audio #1
ID                             : 4352 (0x1100)
Menu ID                        : 1 (0x1)
Format                         : PCM
Format settings                : Big / Signed
Muxing mode                    : Blu-ray
Codec ID                       : 128
Duration                       : 23 min 52 s
Bit rate mode                  : Constant
Bit rate                       : 1 536 kb/s
Channel(s)                     : 2 channels
Channel positions              : Front: L R
Sampling rate                  : 48.0 kHz
Bit depth                      : 16 bits
Stream size                    : 262 MiB (5%)
Код: выделить все
General
Complete name                  : D:\Konohana Kitan (Blu-ray)\DISC1\BDMV\PLAYLIST\00001.mpls
Format                         : Blu-ray Playlist
File size                      : 772 Bytes
Duration                       : 1 h 11 min
Overall bit rate mode          : Variable
Overall bit rate               : 1 b/s

Video #1
ID                             : 4113 (0x1011)
Menu ID                        : 1 (0x1)
Format                         : AVC
Format/Info                    : Advanced Video Codec
Format profile                 : High@L4.1
Format settings                : CABAC / 4 Ref Frames
Format settings, CABAC         : Yes
Format settings, ReFrames      : 4 frames
Codec ID                       : 27
Duration                       : 23 min 52 s
Bit rate mode                  : Variable
Bit rate                       : 27.1 Mb/s
Maximum bit rate               : 40.0 Mb/s
Width                          : 1 920 pixels
Height                         : 1 080 pixels
Display aspect ratio           : 16:9
Frame rate                     : 23.976 (24000/1001) FPS
Color space                    : YUV
Chroma subsampling             : 4:2:0
Bit depth                      : 8 bits
Scan type                      : Progressive
Bits/(Pixel*Frame)             : 0.545
Stream size                    : 4.52 GiB
format_identifier              : HDMV
Source                         : 00001.m2ts

Video #2
ID                             : 4113 (0x1011)
Menu ID                        : 1 (0x1)
Format                         : AVC
Format/Info                    : Advanced Video Codec
Format profile                 : High@L4.1
Format settings                : CABAC / 4 Ref Frames
Format settings, CABAC         : Yes
Format settings, ReFrames      : 4 frames
Codec ID                       : 27
Duration                       : 23 min 51 s
Bit rate mode                  : Variable
Bit rate                       : 27.1 Mb/s
Maximum bit rate               : 40.0 Mb/s
Width                          : 1 920 pixels
Height                         : 1 080 pixels
Display aspect ratio           : 16:9
Frame rate                     : 23.976 (24000/1001) FPS
Color space                    : YUV
Chroma subsampling             : 4:2:0
Bit depth                      : 8 bits
Scan type                      : Progressive
Bits/(Pixel*Frame)             : 0.545
Stream size                    : 4.52 GiB
format_identifier              : HDMV
Source                         : 00002.m2ts

Video #3
ID                             : 4113 (0x1011)
Menu ID                        : 1 (0x1)
Format                         : AVC
Format/Info                    : Advanced Video Codec
Format profile                 : High@L4.1
Format settings                : CABAC / 4 Ref Frames
Format settings, CABAC         : Yes
Format settings, ReFrames      : 4 frames
Codec ID                       : 27
Duration                       : 23 min 52 s
Bit rate mode                  : Variable
Bit rate                       : 27.1 Mb/s
Maximum bit rate               : 40.0 Mb/s
Width                          : 1 920 pixels
Height                         : 1 080 pixels
Display aspect ratio           : 16:9
Frame rate                     : 23.976 (24000/1001) FPS
Color space                    : YUV
Chroma subsampling             : 4:2:0
Bit depth                      : 8 bits
Scan type                      : Progressive
Bits/(Pixel*Frame)             : 0.545
Stream size                    : 4.52 GiB
format_identifier              : HDMV
Source                         : 00003.m2ts

Video #4
ID                             : 4113 (0x1011)
Menu ID                        : 1 (0x1)
Format                         : AVC
Format/Info                    : Advanced Video Codec
Format profile                 : High@L4.1
Format settings                : CABAC / 4 Ref Frames
Format settings, CABAC         : Yes
Format settings, ReFrames      : 4 frames
Codec ID                       : 27
Duration                       : 6 s 6 ms
Bit rate mode                  : Variable
Bit rate                       : 5 761 kb/s
Maximum bit rate               : 40.0 Mb/s
Width                          : 1 920 pixels
Height                         : 1 080 pixels
Display aspect ratio           : 16:9
Frame rate                     : 23.976 (24000/1001) FPS
Color space                    : YUV
Chroma subsampling             : 4:2:0
Bit depth                      : 8 bits
Scan type                      : Progressive
Bits/(Pixel*Frame)             : 0.116
Stream size                    : 4.12 MiB
format_identifier              : HDMV
Source                         : 00004.m2ts

Audio #1
ID                             : 4352 (0x1100)
Menu ID                        : 1 (0x1)
Format                         : PCM
Format settings                : Big / Signed
Muxing mode                    : Blu-ray
Codec ID                       : 128
Duration                       : 23 min 52 s
Bit rate mode                  : Constant
Bit rate                       : 1 536 kb/s
Channel(s)                     : 2 channels
Channel positions              : Front: L R
Sampling rate                  : 48.0 kHz
Bit depth                      : 16 bits
Stream size                    : 262 MiB
Language                       : Japanese
format_identifier              : HDMV
Source                         : 00001.m2ts

Audio #2
ID                             : 4353 (0x1101)
Menu ID                        : 1 (0x1)
Format                         : PCM
Format settings                : Big / Signed
Muxing mode                    : Blu-ray
Codec ID                       : 128
Duration                       : 23 min 52 s
Bit rate mode                  : Constant
Bit rate                       : 1 536 kb/s
Channel(s)                     : 2 channels
Channel positions              : Front: L R
Sampling rate                  : 48.0 kHz
Bit depth                      : 16 bits
Stream size                    : 262 MiB
Language                       : Japanese
format_identifier              : HDMV
Source                         : 00001.m2ts

Audio #3
ID                             : 4352 (0x1100)
Menu ID                        : 1 (0x1)
Format                         : PCM
Format settings                : Big / Signed
Muxing mode                    : Blu-ray
Codec ID                       : 128
Duration                       : 23 min 51 s
Bit rate mode                  : Constant
Bit rate                       : 1 536 kb/s
Channel(s)                     : 2 channels
Channel positions              : Front: L R
Sampling rate                  : 48.0 kHz
Bit depth                      : 16 bits
Stream size                    : 262 MiB
Language                       : Japanese
format_identifier              : HDMV
Source                         : 00002.m2ts

Audio #4
ID                             : 4353 (0x1101)
Menu ID                        : 1 (0x1)
Format                         : PCM
Format settings                : Big / Signed
Muxing mode                    : Blu-ray
Codec ID                       : 128
Duration                       : 23 min 51 s
Bit rate mode                  : Constant
Bit rate                       : 1 536 kb/s
Channel(s)                     : 2 channels
Channel positions              : Front: L R
Sampling rate                  : 48.0 kHz
Bit depth                      : 16 bits
Stream size                    : 262 MiB
Language                       : Japanese
format_identifier              : HDMV
Source                         : 00002.m2ts

Audio #5
ID                             : 4352 (0x1100)
Menu ID                        : 1 (0x1)
Format                         : PCM
Format settings                : Big / Signed
Muxing mode                    : Blu-ray
Codec ID                       : 128
Duration                       : 23 min 52 s
Bit rate mode                  : Constant
Bit rate                       : 1 536 kb/s
Channel(s)                     : 2 channels
Channel positions              : Front: L R
Sampling rate                  : 48.0 kHz
Bit depth                      : 16 bits
Stream size                    : 262 MiB
Language                       : Japanese
format_identifier              : HDMV
Source                         : 00003.m2ts

Audio #6
ID                             : 4353 (0x1101)
Menu ID                        : 1 (0x1)
Format                         : PCM
Format settings                : Big / Signed
Muxing mode                    : Blu-ray
Codec ID                       : 128
Duration                       : 23 min 52 s
Bit rate mode                  : Constant
Bit rate                       : 1 536 kb/s
Channel(s)                     : 2 channels
Channel positions              : Front: L R
Sampling rate                  : 48.0 kHz
Bit depth                      : 16 bits
Stream size                    : 262 MiB
Language                       : Japanese
format_identifier              : HDMV
Source                         : 00003.m2ts

Audio #7
ID                             : 4352 (0x1100)
Menu ID                        : 1 (0x1)
Format                         : PCM
Format settings                : Big / Signed
Muxing mode                    : Blu-ray
Codec ID                       : 128
Duration                       : 6 s 0 ms
Bit rate mode                  : Constant
Bit rate                       : 1 536 kb/s
Channel(s)                     : 2 channels
Channel positions              : Front: L R
Sampling rate                  : 48.0 kHz
Bit depth                      : 16 bits
Stream size                    : 1.10 MiB
Language                       : Japanese
format_identifier              : HDMV
Source                         : 00004.m2ts

Audio #8
ID                             : 4353 (0x1101)
Menu ID                        : 1 (0x1)
Format                         : PCM
Format settings                : Big / Signed
Muxing mode                    : Blu-ray
Codec ID                       : 128
Duration                       : 6 s 0 ms
Bit rate mode                  : Constant
Bit rate                       : 1 536 kb/s
Channel(s)                     : 2 channels
Channel positions              : Front: L R
Sampling rate                  : 48.0 kHz
Bit depth                      : 16 bits
Stream size                    : 1.10 MiB
Language                       : Japanese
format_identifier              : HDMV
Source                         : 00004.m2ts

Menu
00:00:00.000                   : Chapter 1
00:01:18.995                   : Chapter 2
00:02:49.043                   : Chapter 3
00:14:49.054                   : Chapter 4
00:22:06.033                   : Chapter 5
00:23:36.039                   : Chapter 6
Копия дисков купленных самолично. (kvaking)
Другие раздачи:
Konohana Kitan: HDTV 720p, BDrip 1080p, BDRemux, Blu-ray.

Время раздачи: 24/7
[NNM-Club.me]_Konohana Kitan (Blu-ray).torrent
 Торрент: Платиновая раздача  Зарегистрирован
 
Скачать


Примагнититься
 Зарегистрирован:   14 Янв 2019 19:52:05
 Размер:   81,7 GB  (
 Рейтинг:   4,7 (Голосов: 12)
 Поблагодарили:   14
 Проверка:   Оформление проверено модератором 14 Янв 2019 20:10:18
Не забывайте поблагодарить релизера, нажав на клавишу Спасибо!
Вам не сложно, а мне приятно. =)
Как cкачать  ·  Как раздать  ·  Правильно оформить  ·  Поднять ратио!  

_________________

[Double-Raws] - Да начнётся война за качество!
Тестер нового формата.
Показать сообщения:   
Начать новую тему   Ответить на тему    Торрент-трекер NNM-Club -> Аниме разное -> Аниме Blu-ray, Remux Часовой пояс: GMT + 3
Страница 1 из 1