Классический форум-трекер
canvas not supported
Нас вместе: 4 079 278

Kimetsu no Yaiba / Demon Slayer / Клинок, рассекающий демонов [2019, TV, 26 ep] WEB-DL 1080p Rus


Страницы:  1, 2  След. 
 
RSS
Начать новую тему   Ответить на тему    Торрент-трекер NNM-Club -> Аниме с озвучкой -> Аниме с озвучкой (FullHD)
Автор Сообщение
Ampho_DnB ®
RG Аниме
Uploader 100+
 
Стаж: 7 лет 9 мес.
Сообщений: 3733
Ratio: 326,228
Поблагодарили: 86800
100%
Откуда: Душанбе
roody.gif
Kimetsu no Yaiba / Demon Slayer / Клинок, рассекающий демонов
Жанр: приключения, фэнтези
Тип: TV-сериал
Продолжительность: 26 эпизодов по 25 минут
Выпуск: c 06.04.2019 по 28.09.2019
Автор: Готогэ Коёхару
Снято по манге: Kimetsu no Yaiba
Режиссер: Сотодзаки Харуо
Производство: UFO Table
Информационные ссылки: AniDB || World Art || MAL || ANN
Релиз подготовлен студией Wakanim
  • Тип озвучки: Дублированный, профессиональный

Описание:
С незапамятных времён земля японская полнится слухами о демонах-людоедах, что скрываются в лесной чаще. В страхе перед ними обычные селяне предпочитают не покидать свои жилища после захода солнца. Быть может, именно эти чувства и породили легенду об охотниках на демонов, истребляющих нечисть по ночам. С тех пор, как погиб его отец, Тандзиро в одиночку добывает хлеб для своей семьи — матери, братьев и сестёр. Однако тяжёлые, но счастливые будни подходят к концу, когда юноша находит близких зверски убитыми. Удаётся выжить лишь сестре Тандзиро, Нэдзуко, обратившейся демоном. Но девушка чуть не погибает от руки загадочного мечника — в последний миг тот останавливается, поражённый взаимной верностью человека и демона. Разглядев в Тандзиро потенциал охотника на демонов, странник направляет его к своему наставнику, дабы тот обучил юношу азам нового ремесла...
Качество: WEB-DLRip | Энкод: HorribleSubs
Язык озвучки: Японский и Русский
Формат: MKV
Видео: x264, 1920x1080, ~5 959 kbps, 23.976 fps
Аудио: AAC, 128 kbps, 44.1 kHz, 2 ch
Аудио: AAC, 192 kbps, 48.0 kHz, 2 ch
Серия 1: Жестокость
Серия 2: Воспитатель Сакондзи Урокодаки
Серия 3: Сабито и Макомо
Серия 4: Окончательный отбор
Серия 5: Собственная сталь
Серия 6: Мечник с демоном
Серия 7: Мудзан Кибуцудзи
Серия 8: Кровавый аромат иллюзий
Серия 9: Демон мячей и демон стрелок
Серия 10: Всегда вместе
Серия 11: Дом барабанов
Серия 12: Кабан обнажает клыки, Дзэницу засыпает
Серия 13: Дороже всего на свете
Серия 14: Дом с гербом глицинии
Серия 15: Гора Натагумо
Серия 16: Пропуская других вперёд
Серия 17: Доведи до совершенства что-то одно
Серия 18: Фальшивые узы
Серия 19: Бог огня
Серия 20: Несвязанная семья
Серия 21: Нарушение устава
Серия 22: Глава
Серия 23: Собрание столпов
Серия 24: Оздоровительная тренировка
Серия 25: Наследница Канао Цуюри
Серия 26: Новое задание
General
Unique ID : 315389967072419262826528248360008528312 (0xED45E5EEC20AFE8B5072480B1EE5B1B8)
Complete name : Kimetsu no Yaiba [Wakanim]\[Wakanim] Kimetsu no Yaiba - 01 [1080p].mkv
Format : Matroska
Format version : Version 4
File size : 1.04 GiB
Duration : 23 min 40 s
Overall bit rate : 6 279 kb/s
Encoded date : UTC 2019-04-09 10:34:09
Writing application : mkvmerge v32.0.0 ('Astral Progressions') 64-bit
Writing library : libebml v1.3.7 + libmatroska v1.5.0

Video
ID : 1
Format : AVC
Format/Info : Advanced Video Codec
Format profile : High@L4
Format settings : CABAC / 4 Ref Frames
Format settings, CABAC : Yes
Format settings, ReFrames : 4 frames
Codec ID : V_MPEG4/ISO/AVC
Duration : 23 min 39 s
Bit rate : 5 959 kb/s
Width : 1 920 pixels
Height : 1 080 pixels
Display aspect ratio : 16:9
Frame rate mode : Constant
Frame rate : 23.976 (24000/1001) FPS
Color space : YUV
Chroma subsampling : 4:2:0
Bit depth : 8 bits
Scan type : Progressive
Bits/(Pixel*Frame) : 0.120
Stream size : 1 009 MiB (95%)
Writing library : x264 core 142
Encoding settings : cabac=1 / ref=4 / deblock=1:1:1 / analyse=0x3:0x113 / me=umh / subme=8 / psy=1 / psy_rd=0.40:0.00 / mixed_ref=1 / me_range=16 / chroma_me=1 / trellis=1 / 8x8dct=1 / cqm=0 / deadzone=21,11 / fast_pskip=1 / chroma_qp_offset=-2 / threads=12 / lookahead_threads=2 / sliced_threads=0 / nr=0 / decimate=1 / interlaced=0 / bluray_compat=0 / constrained_intra=0 / bframes=3 / b_pyramid=2 / b_adapt=2 / b_bias=0 / direct=3 / weightb=1 / open_gop=0 / weightp=2 / keyint=9999999 / keyint_min=5000000 / scenecut=0 / intra_refresh=0 / rc_lookahead=50 / rc=crf / mbtree=1 / crf=15.0 / qcomp=0.60 / qpmin=0 / qpmax=69 / qpstep=4 / vbv_maxrate=8000 / vbv_bufsize=12000 / crf_max=0.0 / nal_hrd=none / filler=0 / ip_ratio=1.40 / aq=1:0.60
Default : Yes
Forced : No

Audio #1
ID : 2
Format : AAC LC
Format/Info : Advanced Audio Codec Low Complexity
Codec ID : A_AAC-2
Duration : 23 min 40 s
Bit rate : 192 kb/s
Channel(s) : 2 channels
Channel layout : L R
Sampling rate : 48.0 kHz
Frame rate : 46.875 FPS (1024 SPF)
Compression mode : Lossy
Delay relative to video : -83 ms
Stream size : 32.1 MiB (3%)
Language : Russian
Default : Yes
Forced : No

Audio #2
ID : 3
Format : AAC LC
Format/Info : Advanced Audio Codec Low Complexity
Codec ID : A_AAC-2
Duration : 23 min 40 s
Bit rate : 128 kb/s
Channel(s) : 2 channels
Channel layout : L R
Sampling rate : 44.1 kHz
Frame rate : 43.066 FPS (1024 SPF)
Compression mode : Lossy
Delay relative to video : -83 ms
Stream size : 21.7 MiB (2%)
Language : Japanese
Default : No
Forced : No


Время раздачи: До первых сидов
[NNMClub.to]_Kimetsu no Yaiba [Wakanim].torrent
 Торрент:   Зарегистрирован
 
Зарегистрируйтесь и скачайте торрент!
135 KB

Примагнититься
 Зарегистрирован:   29 Сен 2019 05:44:54
 Размер:   26,6 GB  (
 Рейтинг:   4,8 (Голосов: 78)
 Поблагодарили:   215
 Проверка:   Оформление проверено модератором 29 Сен 2019 13:31:57
Как cкачать  ·  Как раздать  ·  Правильно оформить  ·  Поднять ратио!  
Diesel_Primo
Стаж: 5 лет 10 мес.
Сообщений: 5
Ratio: 7,651
26.19%
Спасибо за раздачу, 4 серия просто бомба, не заметил как закончилась)
pompey21
 
Стаж: 5 лет 10 мес.
Сообщений: 23
Ratio: 4,875
81.34%
witch.png
огромное спасибо!
Xsenoka
Стаж: 1 год 9 мес.
Сообщений: 188
Ratio: 0,891
68.89%
Joi_MD
Стаж: 7 лет 8 мес.
Сообщений: 227
Ratio: 8,451
Раздал: 9,352 TB
Поблагодарили: 256
100%
pirates.png
Ваще ГУД, начал смотреть когда вышла 18 серия, посмотрел залпом за один день. Теперь жду выхода каждой серии!!!

_________________
Макс. скорость: 9,28 MB/s, 9,51 MB/s
a2s_ru
Стаж: 8 лет 10 мес.
Сообщений: 94
Ratio: 29,311
26.2%
Откуда: Сталинград
russia.gif
На удивление годный сериал.

_________________
В.Б.Д. - видимость бурной деятельности - основной вид деятельности бурноработающих работников. Вид деятельности, часто встречающаяся в офисах крупных и средних компаний,
реже, за пределами офисов. Очень часто встречается в среде дорожных работников, и автомастерских.
monkdt
Стаж: 4 мес. 14 дней
Сообщений: 445
Ratio: 0,976
100%
germany.gif
рыжий меня всегда убивает :смех:
monkdt
Стаж: 4 мес. 14 дней
Сообщений: 445
Ratio: 0,976
100%
germany.gif
вообще-то довольно брутальный мульт, 19 серию было больно смотреть. Странно что нет ограничений по возрасту
Ampho_DnB ®
RG Аниме
Uploader 100+
 
Стаж: 7 лет 9 мес.
Сообщений: 3733
Ratio: 326,228
Поблагодарили: 86800
100%
Откуда: Душанбе
roody.gif
monkdt писал(а): Перейти к сообщению
Странно что нет ограничений по возрасту

Если вы посмотрите на постер, то увидите возрастное ограничение.
monkdt
Стаж: 4 мес. 14 дней
Сообщений: 445
Ratio: 0,976
100%
germany.gif
Ampho_DnB

не обратил внимания, спасибо. 16+ это справедливо
pompey21
 
Стаж: 5 лет 10 мес.
Сообщений: 23
Ratio: 4,875
81.34%
witch.png
спасибо за оперативность
Gepardus
Стаж: 8 лет 8 мес.
Сообщений: 368
Ratio: 3,163
100%
japan.gif
Смесь жести с детским наивняком
и вездесущий дзен со срединностью.
И как японцы умудряются кислое с мягким мешать?...
Gepardus
Стаж: 8 лет 8 мес.
Сообщений: 368
Ratio: 3,163
100%
japan.gif
Хорошая вещь, втянула сильно. Спасибо за старания и японский дух!
Gepardus
Стаж: 8 лет 8 мес.
Сообщений: 368
Ratio: 3,163
100%
japan.gif
Оранжевый придурок бесит. Другого героя не нашлось, похоже.
Ampho_DnB ®
RG Аниме
Uploader 100+
 
Стаж: 7 лет 9 мес.
Сообщений: 3733
Ratio: 326,228
Поблагодарили: 86800
100%
Откуда: Душанбе
roody.gif
Торрент обновлен. Добавлена 26 серия.
Релиз завершен.
Показать сообщения:   
Начать новую тему   Ответить на тему    Торрент-трекер NNM-Club -> Аниме с озвучкой -> Аниме с озвучкой (FullHD) Часовой пояс: GMT + 3
Страницы:  1, 2  След.
Страница 1 из 2