Классический форум-трекер
canvas not supported
Нас вместе: 4 103 518

Major Complete Collection | Мэйджор Полное собрание (6 Сезонов + Фильм + 2 OVA) [2004 - 2012, HDTVRip, 720p, Raw]


 
 
RSS
Начать новую тему   Ответить на тему    Торрент-трекер NNM-Club -> Аниме с субтитрами -> Аниме (HD)
Автор Сообщение
хИНАРИх ®
Uploader 100+
Стаж: 3 года 3 мес.
Сообщений: 242
Ratio: 11K
Раздал: 165,2 TB
Поблагодарили: 5249
100%
roody.gif
Major Complete Collection
Мэйджор Полное Собрание


Жанр: спорт, драма, комедия, романтика
Тип: 6 Сезонов + Фильм + 2 OVA
Период выхода: с 13.11.2004 по 17.01.2012
Автор оригинала: Мицуда Такуя
Снято по манге: Мэйджор

Качество видео: HDTVRip
Видео: AVC, 1280x720, ~1060 кб\с
Аудио: AAC, 48KHz, 2 ch, ~140 кб\с | Звук: Японский
Субтитры: внешние русские


Major / Major 1st Season / Мэйджор [ТВ-1]

Продолжительность: 26 серии по 25 минут
Период выхода: 13.11.2004 по 21.05.2005
Производство: Studio Hibari
Режиссер: Касай Кэнъити
Описание:
Сигэхару Хонда — начинающий бэттер Высшей лиги. Его сын Горо — питчер Младшей лиги, надеющийся однажды пойти по стопам отца. Момоко Хосино — учительница Горо и первая женщина, к которой его отец проявил интерес со времени смерти своей жены. Судьбы этих троих переплетутся, когда отец и сын станут испытывать радость побед и горечь поражений на поприще бейсбола. И они продолжат следовать за своей мечтой, что бы ни случилось.

Скриншоты:


General
Complete name : [heponeko] Major #01 [BS-ANIMAX 1280x720 h264 AAC].mp4
Format : MPEG-4
Format profile : Base Media
Codec ID : isom (isom/avc1/iso6)
File size : 201 MiB
Duration : 25 min 1 s
Overall bit rate mode : Variable
Overall bit rate : 1 124 kb/s
Encoded date : UTC 2016-09-19 07:25:41
Tagged date : UTC 2016-09-19 07:25:41

Video
ID : 1
Format : AVC
Format/Info : Advanced Video Codec
Format profile : High@L4.1
Format settings : CABAC / 8 Ref Frames
Format settings, CABAC : Yes
Format settings, ReFrames : 8 frames
Codec ID : avc1
Codec ID/Info : Advanced Video Coding
Duration : 25 min 1 s
Bit rate : 980 kb/s
Maximum bit rate : 20.6 Mb/s
Width : 1 280 pixels
Height : 720 pixels
Display aspect ratio : 16:9
Frame rate mode : Constant
Frame rate : 23.976 (24000/1001) FPS
Color space : YUV
Chroma subsampling : 4:2:0
Bit depth : 8 bits
Scan type : Progressive
Bits/(Pixel*Frame) : 0.044
Stream size : 175 MiB (87%)
Title : 264@GPAC0.5.2-DEV-rev248-g39d5978-master
Writing library : x264 core 129 r2245+729M 1a52e03
Encoding settings : cabac=1 / ref=8 / deblock=1:0:0 / analyse=0x3:0x133 / me=umh / subme=9 / psy=1 / fade_compensate=0.00 / psy_rd=1.00:0.00 / mixed_ref=1 / me_range=16 / chroma_me=1 / trellis=2 / 8x8dct=1 / cqm=0 / deadzone=21,11 / fast_pskip=1 / chroma_qp_offset=-2 / threads=6 / lookahead_threads=1 / sliced_threads=0 / nr=0 / decimate=1 / interlaced=0 / bluray_compat=0 / constrained_intra=0 / fgo=0 / bframes=3 / b_pyramid=2 / b_adapt=2 / b_bias=0 / direct=3 / weightb=1 / open_gop=0 / weightp=2 / keyint=250 / keyint_min=23 / scenecut=40 / intra_refresh=0 / rc_lookahead=60 / rc=crf / mbtree=1 / crf=19.0 / qcomp=0.60 / qpmin=0 / qpmax=69 / qpstep=4 / ip_ratio=1.40 / aq=1:1.00
Encoded date : UTC 2016-09-19 07:25:41
Tagged date : UTC 2016-09-19 07:25:43
Color range : Limited
Color primaries : BT.709
Transfer characteristics : BT.709
Matrix coefficients : BT.709
Codec configuration box : avcC

Audio
ID : 2
Format : AAC LC
Format/Info : Advanced Audio Codec Low Complexity
Codec ID : mp4a-40-2
Duration : 25 min 1 s
Bit rate mode : Variable
Bit rate : 140 kb/s
Maximum bit rate : 150 kb/s
Channel(s) : 2 channels
Channel layout : L R
Sampling rate : 48.0 kHz
Frame rate : 46.875 FPS (1024 SPF)
Compression mode : Lossy
Stream size : 25.1 MiB (12%)
Encoded date : UTC 2016-09-19 06:52:23
Tagged date : UTC 2016-09-19 07:25:43
01. Goro's Dream and Daddy's Dream
02. Their Friendship
03. I Hate You, Daddy!
04. A Birthday One Day Late
05. The Man From the Majors
06. Farewell...
07. Goro Honda, Age Nine!
08. Team Complete!
09. Alone on the Mound
10. Showdown in the Rain
11. The Team Dad Played On
12. An Invitation From Gibson
13. Summer! Baseball! Training Camp!
14. Reckless Practice Match!
15. The Coach's Feelings
16. Yameta!
17. Tournament begins!
18. Aim for victory!
19. Mother's happiness
20. Goro's mistake!?
21. This is basebell!
22. The night before the match
23. Do not lose!
24. Chase it! Ovecome it!
25. Everyone together
26. Don't say goodbye

Gekijouban Major: Yuujou no Winning Shot
Major Movie: Ball of Friendship
Мэйджор Фильм: Мяч дружбы

Продолжительность: 143 минуты
Период выхода: 13.12.2008
Производство: Xebec
Режиссер: Като Такао
Описание:
Полнометражный фильм основанный на манге Мицуда Такуя, о молодом питчере, который стремится идти по стопам своего отца. Горо возвращается в Японию после триумфа в США. Он направляется в Фукуоку, где играл когда-то в бейсбол, будучи пятиклассником, и по пути предаётся воспоминаниям, в которых рассказывается не показанные в сериале события, в которых он получил травму.

Скриншоты:


General
Complete name : [heponeko] Major - Yujo no Winning Shot (2008) [BS-ANIMAX 1280x720 h264 AAC].mp4
Format : MPEG-4
Format profile : Base Media
Codec ID : isom (isom/avc1/iso6)
File size : 1.29 GiB
Duration : 1 h 43 min
Overall bit rate mode : Variable
Overall bit rate : 1 792 kb/s
Encoded date : UTC 2017-01-23 10:06:41
Tagged date : UTC 2017-01-23 10:06:41

Video
ID : 1
Format : AVC
Format/Info : Advanced Video Codec
Format profile : High@L4.1
Format settings : CABAC / 8 Ref Frames
Format settings, CABAC : Yes
Format settings, ReFrames : 8 frames
Codec ID : avc1
Codec ID/Info : Advanced Video Coding
Duration : 1 h 43 min
Bit rate : 1 648 kb/s
Maximum bit rate : 18.5 Mb/s
Width : 1 280 pixels
Height : 720 pixels
Display aspect ratio : 16:9
Frame rate mode : Constant
Frame rate : 23.976 (24000/1001) FPS
Color space : YUV
Chroma subsampling : 4:2:0
Bit depth : 8 bits
Scan type : Progressive
Bits/(Pixel*Frame) : 0.075
Stream size : 1.19 GiB (92%)
Title : 264@GPAC0.5.2-DEV-rev248-g39d5978-master
Writing library : x264 core 129 r2245+729M 1a52e03
Encoding settings : cabac=1 / ref=8 / deblock=1:0:0 / analyse=0x3:0x133 / me=umh / subme=9 / psy=1 / fade_compensate=0.00 / psy_rd=1.00:0.00 / mixed_ref=1 / me_range=16 / chroma_me=1 / trellis=2 / 8x8dct=1 / cqm=0 / deadzone=21,11 / fast_pskip=1 / chroma_qp_offset=-2 / threads=6 / lookahead_threads=1 / sliced_threads=0 / nr=0 / decimate=1 / interlaced=0 / bluray_compat=0 / constrained_intra=0 / fgo=0 / bframes=3 / b_pyramid=2 / b_adapt=2 / b_bias=0 / direct=3 / weightb=1 / open_gop=0 / weightp=2 / keyint=250 / keyint_min=23 / scenecut=40 / intra_refresh=0 / rc_lookahead=60 / rc=crf / mbtree=1 / crf=19.0 / qcomp=0.60 / qpmin=0 / qpmax=69 / qpstep=4 / ip_ratio=1.40 / aq=1:1.00
Encoded date : UTC 2017-01-23 10:06:41
Tagged date : UTC 2017-01-23 10:07:06
Color range : Limited
Color primaries : BT.709
Transfer characteristics : BT.709
Matrix coefficients : BT.709
Codec configuration box : avcC

Audio
ID : 2
Format : AAC LC
Format/Info : Advanced Audio Codec Low Complexity
Codec ID : mp4a-40-2
Duration : 1 h 43 min
Bit rate mode : Variable
Bit rate : 140 kb/s
Maximum bit rate : 148 kb/s
Channel(s) : 2 channels
Channel layout : L R
Sampling rate : 48.0 kHz
Frame rate : 46.875 FPS (1024 SPF)
Compression mode : Lossy
Stream size : 103 MiB (8%)
Encoded date : UTC 2017-01-23 07:40:18
Tagged date : UTC 2017-01-23 10:07:06

Major / Major 2nd Season / Мэйджор [ТВ-2]
Продолжительность: 26 серии по 25 минут
Период выхода: c 10.12.2005 по 10.06.2006
Производство: Studio Hibari
Режиссер: Касай Кэнъити
Описание:
Действие сериала происходит через несколько лет после первого сезона. Горо повзрослел и вернулся в родной город где встречается со своими старыми друзьями и пытается поступить в элитную школу бейсбола Кайдо.

Скриншоты:



General
Complete name : [heponeko] Major 2nd Season #01 [BS-ANIMAX 1280x720 h264 AAC].mp4
Format : MPEG-4
Format profile : Base Media
Codec ID : isom (isom)
File size : 257 MiB
Duration : 25 min 2 s
Overall bit rate mode : Variable
Overall bit rate : 1 436 kb/s
Encoded date : UTC 2017-07-20 18:45:38
Tagged date : UTC 2017-07-20 18:45:38

Video
ID : 1
Format : AVC
Format/Info : Advanced Video Codec
Format profile : High@L4.1
Format settings : CABAC / 8 Ref Frames
Format settings, CABAC : Yes
Format settings, ReFrames : 8 frames
Codec ID : avc1
Codec ID/Info : Advanced Video Coding
Duration : 25 min 2 s
Bit rate : 1 292 kb/s
Maximum bit rate : 16.3 Mb/s
Width : 1 280 pixels
Height : 720 pixels
Display aspect ratio : 16:9
Frame rate mode : Constant
Frame rate : 23.976 (24000/1001) FPS
Color space : YUV
Chroma subsampling : 4:2:0
Bit depth : 8 bits
Scan type : Progressive
Bits/(Pixel*Frame) : 0.058
Stream size : 231 MiB (90%)
Writing library : x264 core 129 r2245+729M 1a52e03
Encoding settings : cabac=1 / ref=8 / deblock=1:0:0 / analyse=0x3:0x133 / me=umh / subme=9 / psy=1 / fade_compensate=0.00 / psy_rd=1.00:0.00 / mixed_ref=1 / me_range=16 / chroma_me=1 / trellis=2 / 8x8dct=1 / cqm=0 / deadzone=21,11 / fast_pskip=1 / chroma_qp_offset=-2 / threads=6 / lookahead_threads=1 / sliced_threads=0 / nr=0 / decimate=1 / interlaced=0 / bluray_compat=0 / constrained_intra=0 / fgo=0 / bframes=3 / b_pyramid=2 / b_adapt=2 / b_bias=0 / direct=3 / weightb=1 / open_gop=0 / weightp=2 / keyint=250 / keyint_min=23 / scenecut=40 / intra_refresh=0 / rc_lookahead=60 / rc=crf / mbtree=1 / crf=19.0 / qcomp=0.60 / qpmin=0 / qpmax=69 / qpstep=4 / ip_ratio=1.40 / aq=1:1.00
Encoded date : UTC 2016-10-24 14:29:08
Tagged date : UTC 2017-07-20 18:45:43
Color range : Limited
Color primaries : BT.709
Transfer characteristics : BT.709
Matrix coefficients : BT.709
Codec configuration box : avcC

Audio
ID : 2
Format : AAC LC
Format/Info : Advanced Audio Codec Low Complexity
Codec ID : mp4a-40-2
Duration : 25 min 1 s
Bit rate mode : Variable
Bit rate : 140 kb/s
Maximum bit rate : 147 kb/s
Channel(s) : 2 channels
Channel layout : L R
Sampling rate : 48.0 kHz
Frame rate : 46.875 FPS (1024 SPF)
Compression mode : Lossy
Stream size : 25.1 MiB (10%)
Encoded date : UTC 2017-07-20 18:44:29
Tagged date : UTC 2017-07-20 18:45:43
01. He Returns...
02. There is one dream!
03. The Baseball Club Starts!
04. Rivals Reunite
05. Toshiya's Past
06. The Recruiter's Conspiracy
07. Powerful Rival! Tomonoura
08. ...For What Reason?
09. The End of the Battle
10. A Fresh Resolve
11. The Narrow Gate to Kaido
12. Ticket to Kaido
13. See Ya...
14. The Island of Dreams
15. The Requirements of a Pitcher
16. A Genuine Baseball Kid
17. Fleeting Summer Break
18. Distasteful Baseball
19. The Force of Scholarship Students
20. Goro vs. Manual Baseball
21. Together with You
22. Kaido's Secret
23. Egashira's Expectations
24. Varsity Challenge
25. With My Own Two Feet
26. Goodbye!

Major / Major 3rd Season / Мэйджор [ТВ-3]
Продолжительность: 26 серии по 25 минут
Период выхода: c 06.01.2007 по 30.06.2007
Производство: Studio Hibari
Режиссер: Касай Кэнъити
Описание:
Продолжение истории Шигено Горо. Покинув Кайдо, Горо решает вернуться в Мифуне, желая встретиться с игроками Кайдо. Однако, он обнаруживает, что за прошедшее время команда сама достаточно сильно окрепла. Решив не вносить смуту в команду, Горо решает поступить в высшую школу Эдовара, но его заявку отклонили из-за вмешательства помощника директора Кайдо - Егаширы. В итоге Горо поступил в высшую школу Сейшу, которая ранее была школой исключительно для девушек и поэтому там нет бейсбольной команды. Наш герой решает создать в школе команду с нуля. Однако, найдет ли он соратников среди столь малого числа мальчишек? Если его план удастся, смогут ли они попасть на Косиэн? Встретятся ли они с Кайдо?

Скриншоты:



General
Complete name : [heponeko] Major 3rd Season #01 [BS-ANIMAX 1280x720 h264 AAC].mp4
Format : MPEG-4
Format profile : Base Media
Codec ID : isom (isom/avc1/iso6)
File size : 200 MiB
Duration : 25 min 0 s
Overall bit rate mode : Variable
Overall bit rate : 1 119 kb/s
Encoded date : UTC 2016-11-08 13:29:17
Tagged date : UTC 2016-11-08 13:29:17

Video
ID : 1
Format : AVC
Format/Info : Advanced Video Codec
Format profile : High@L4.1
Format settings : CABAC / 8 Ref Frames
Format settings, CABAC : Yes
Format settings, ReFrames : 8 frames
Codec ID : avc1
Codec ID/Info : Advanced Video Coding
Duration : 25 min 0 s
Bit rate : 975 kb/s
Maximum bit rate : 6 572 kb/s
Width : 1 280 pixels
Height : 720 pixels
Display aspect ratio : 16:9
Frame rate mode : Constant
Frame rate : 23.976 (24000/1001) FPS
Color space : YUV
Chroma subsampling : 4:2:0
Bit depth : 8 bits
Scan type : Progressive
Bits/(Pixel*Frame) : 0.044
Stream size : 174 MiB (87%)
Title : 264@GPAC0.5.2-DEV-rev248-g39d5978-master
Writing library : x264 core 129 r2245+729M 1a52e03
Encoding settings : cabac=1 / ref=8 / deblock=1:0:0 / analyse=0x3:0x133 / me=umh / subme=9 / psy=1 / fade_compensate=0.00 / psy_rd=1.00:0.00 / mixed_ref=1 / me_range=16 / chroma_me=1 / trellis=2 / 8x8dct=1 / cqm=0 / deadzone=21,11 / fast_pskip=1 / chroma_qp_offset=-2 / threads=6 / lookahead_threads=1 / sliced_threads=0 / nr=0 / decimate=1 / interlaced=0 / bluray_compat=0 / constrained_intra=0 / fgo=0 / bframes=3 / b_pyramid=2 / b_adapt=2 / b_bias=0 / direct=3 / weightb=1 / open_gop=0 / weightp=2 / keyint=250 / keyint_min=23 / scenecut=40 / intra_refresh=0 / rc_lookahead=60 / rc=crf / mbtree=1 / crf=19.0 / qcomp=0.60 / qpmin=0 / qpmax=69 / qpstep=4 / ip_ratio=1.40 / aq=1:1.00
Encoded date : UTC 2016-11-08 13:29:17
Tagged date : UTC 2016-11-08 13:29:19
Color range : Limited
Color primaries : BT.709
Transfer characteristics : BT.709
Matrix coefficients : BT.709
Codec configuration box : avcC

Audio
ID : 2
Format : AAC LC
Format/Info : Advanced Audio Codec Low Complexity
Codec ID : mp4a-40-2
Duration : 25 min 0 s
Bit rate mode : Variable
Bit rate : 140 kb/s
Maximum bit rate : 150 kb/s
Channel(s) : 2 channels
Channel layout : L R
Sampling rate : 48.0 kHz
Frame rate : 46.875 FPS (1024 SPF)
Compression mode : Lossy
Stream size : 25.0 MiB (13%)
Encoded date : UTC 2016-11-08 12:50:16
Tagged date : UTC 2016-11-08 13:29:19
01. Start from Zero
02. New friends
03. From father to son
04. Reckless gamble
05. Our Grounds
06. Their Respective Choices
07. Unexpected Visitor
08. Egashira's Plot
09. Absent Ace
10. Contagious Fighting Spirit
11. Wounded Ace
12. Battle against Mifune, Start!
13. Climax! Mifune Battle
14. Willpower vs. Willpower
15. Full Swing!
16. Unexpected Reunion
17. Pitching Battle!
18. Last Spurt!
19. Challenge to the Top
20. Chance! Manual Baseball
21. Toshiya's Secret Plan
22. Head to Head Battle
23. A Close Fight
24. The End of the Strategy
25. Ace Full of Injuries
26. Towards Your Dreams

Major / Major 4th Season / Мэйджор [ТВ-4]
Продолжительность: 26 серии по 25 минут
Период выхода: с 05.01.2008 по 28.06.2008
Производство: SynergySP
Режиссер: Фукусима Тосинори
Описание:
В этот раз Горо решает бросить вызов самому себе. Попрощавшись с Шимизу и друзьями он покидает Японию и отправляется в США в надежде пройти отбор в Низшию Лигу (Minor League) в надежде однажды перейти в Высшую Лигу (Major League) и сразитвся с Гибсоном Старшим...

Скриншоты:



General
Complete name : [heponeko] Major 4th Season #01 [BS-ANIMAX 1280x720 h264 AAC].mp4
Format : MPEG-4
Format profile : Base Media
Codec ID : isom (isom/avc1/iso6)
File size : 210 MiB
Duration : 24 min 30 s
Overall bit rate mode : Variable
Overall bit rate : 1 197 kb/s
Encoded date : UTC 2016-11-17 12:10:09
Tagged date : UTC 2016-11-17 12:10:09

Video
ID : 1
Format : AVC
Format/Info : Advanced Video Codec
Format profile : High@L4.1
Format settings : CABAC / 8 Ref Frames
Format settings, CABAC : Yes
Format settings, ReFrames : 8 frames
Codec ID : avc1
Codec ID/Info : Advanced Video Coding
Duration : 24 min 30 s
Bit rate : 1 053 kb/s
Maximum bit rate : 7 265 kb/s
Width : 1 280 pixels
Height : 720 pixels
Display aspect ratio : 16:9
Frame rate mode : Constant
Frame rate : 23.976 (24000/1001) FPS
Color space : YUV
Chroma subsampling : 4:2:0
Bit depth : 8 bits
Scan type : Progressive
Bits/(Pixel*Frame) : 0.048
Stream size : 185 MiB (88%)
Title : 264@GPAC0.5.2-DEV-rev248-g39d5978-master
Writing library : x264 core 129 r2245+729M 1a52e03
Encoding settings : cabac=1 / ref=8 / deblock=1:0:0 / analyse=0x3:0x133 / me=umh / subme=9 / psy=1 / fade_compensate=0.00 / psy_rd=1.00:0.00 / mixed_ref=1 / me_range=16 / chroma_me=1 / trellis=2 / 8x8dct=1 / cqm=0 / deadzone=21,11 / fast_pskip=1 / chroma_qp_offset=-2 / threads=6 / lookahead_threads=1 / sliced_threads=0 / nr=0 / decimate=1 / interlaced=0 / bluray_compat=0 / constrained_intra=0 / fgo=0 / bframes=3 / b_pyramid=2 / b_adapt=2 / b_bias=0 / direct=3 / weightb=1 / open_gop=0 / weightp=2 / keyint=250 / keyint_min=23 / scenecut=40 / intra_refresh=0 / rc_lookahead=60 / rc=crf / mbtree=1 / crf=19.0 / qcomp=0.60 / qpmin=0 / qpmax=69 / qpstep=4 / ip_ratio=1.40 / aq=1:1.00
Encoded date : UTC 2016-11-17 12:10:09
Tagged date : UTC 2016-11-17 12:10:11
Color range : Limited
Color primaries : BT.709
Transfer characteristics : BT.709
Matrix coefficients : BT.709
Codec configuration box : avcC

Audio
ID : 2
Format : AAC LC
Format/Info : Advanced Audio Codec Low Complexity
Codec ID : mp4a-40-2
Duration : 24 min 30 s
Bit rate mode : Variable
Bit rate : 140 kb/s
Maximum bit rate : 147 kb/s
Channel(s) : 2 channels
Channel layout : L R
Sampling rate : 48.0 kHz
Frame rate : 46.875 FPS (1024 SPF)
Compression mode : Lossy
Stream size : 24.5 MiB (12%)
Encoded date : UTC 2016-11-17 11:32:11
Tagged date : UTC 2016-11-17 12:10:11
01. To the Birthplace of Baseball
02. Tryouts
03. Try it!
04. This is the Majors!
05. Sign towards the World
06. Unforgivable!!
07. Courage, full score!
08. Debut!
09. Challenger
10. It's not impossible
11. Try and aim for it
12. Liar!
13. A Stupid Bet
14. Keene's Past
15. Hero
16. I'm fed up!
17. Where to Aim
18. Alice's Dream, Everyone's Dream
19. Responsibility
20. Get out!
21. Trouble from the Start
22. The Single Ball of Fate
23. One More Deciding Match
24. A Great Man
25. A Truly Worthy Rival
26. An Oath

Major / Major 5th Season / Мэйджор [ТВ-5]
Продолжительность: 25 серии по 25 минут
Период выхода: с 10.01.2009 по 27.06.2009
Производство: SynergySP
Режиссер: Фукусима Тосинори
Описание:
Горо вернулся домой и узнал, что сборная Японии готовится к участию в Чемпионате мира по бейсболу, который будет проходить в США. Кроме того, его приемный отец - член тренерской группы национальной сборной. Есть ли у Горо шансы попасть в основной состав?

Скриншоты:



General
Complete name : [heponeko] Major 5th Season #01 [BS-ANIMAX 1280x720 h264 AAC].mp4
Format : MPEG-4
Format profile : Base Media
Codec ID : isom (isom)
File size : 166 MiB
Duration : 24 min 30 s
Overall bit rate mode : Variable
Overall bit rate : 949 kb/s
Encoded date : UTC 2017-03-21 18:00:52
Tagged date : UTC 2017-03-21 18:00:52

Video
ID : 1
Format : AVC
Format/Info : Advanced Video Codec
Format profile : High@L4.1
Format settings : CABAC / 8 Ref Frames
Format settings, CABAC : Yes
Format settings, ReFrames : 8 frames
Codec ID : avc1
Codec ID/Info : Advanced Video Coding
Duration : 24 min 30 s
Bit rate : 805 kb/s
Maximum bit rate : 5 424 kb/s
Width : 1 280 pixels
Height : 720 pixels
Display aspect ratio : 16:9
Frame rate mode : Constant
Frame rate : 23.976 (24000/1001) FPS
Color space : YUV
Chroma subsampling : 4:2:0
Bit depth : 8 bits
Scan type : Progressive
Bits/(Pixel*Frame) : 0.036
Stream size : 141 MiB (85%)
Writing library : x264 core 129 r2245+729M 1a52e03
Encoding settings : cabac=1 / ref=8 / deblock=1:0:0 / analyse=0x3:0x133 / me=umh / subme=9 / psy=1 / fade_compensate=0.00 / psy_rd=1.00:0.00 / mixed_ref=1 / me_range=16 / chroma_me=1 / trellis=2 / 8x8dct=1 / cqm=0 / deadzone=21,11 / fast_pskip=1 / chroma_qp_offset=-2 / threads=6 / lookahead_threads=1 / sliced_threads=0 / nr=0 / decimate=1 / interlaced=0 / bluray_compat=0 / constrained_intra=0 / fgo=0 / bframes=3 / b_pyramid=2 / b_adapt=2 / b_bias=0 / direct=3 / weightb=1 / open_gop=0 / weightp=2 / keyint=250 / keyint_min=23 / scenecut=40 / intra_refresh=0 / rc_lookahead=60 / rc=crf / mbtree=1 / crf=19.0 / qcomp=0.60 / qpmin=0 / qpmax=69 / qpstep=4 / ip_ratio=1.40 / aq=1:1.00
Encoded date : UTC 2017-01-24 07:45:17
Tagged date : UTC 2017-03-21 18:00:55
Color range : Limited
Color primaries : BT.709
Transfer characteristics : BT.709
Matrix coefficients : BT.709
Codec configuration box : avcC

Audio
ID : 2
Format : AAC LC
Format/Info : Advanced Audio Codec Low Complexity
Codec ID : mp4a-40-2
Duration : 24 min 30 s
Bit rate mode : Variable
Bit rate : 140 kb/s
Maximum bit rate : 149 kb/s
Channel(s) : 2 channels
Channel layout : L R
Sampling rate : 48.0 kHz
Frame rate : 46.875 FPS (1024 SPF)
Compression mode : Lossy
Stream size : 24.5 MiB (15%)
Encoded date : UTC 2017-03-21 17:58:27
Tagged date : UTC 2017-03-21 18:00:55
01. Once again
02. The Temperature Difference Between The Two
03. Gathered Representatives!
04. Trial and Error
05. Young Japan
06. Unselfish Fastball
07. An Unexpected Notification
08. Everyone's Respective Expectations
09. Pressure and Real Worth
10. Polished-Up Fang
11. That's Not Being a Man!!
12. The Curse
13. Baseball of Japan
14. Safe!
15. Aggressive Baseball
16. Everyone's Resolution
17. America's Pride
18. Towards the Promised Place
19. Pitching's Origin
20. With Chest of Pride
21. For Oneself's Sake
22. The Dream's Over
23. Father's Back
24. End of the Struggle
25. The Road to Tomorrow

Major / Major 6th Season / Мэйджор [ТВ-6]
Продолжительность: 25 серии по 25 минут
Период выхода: с 03.04.2010 по 25.09.2010
Производство: SynergySP
Режиссер: Фукусима Тосинори
Описание:
После драматичного матча в финале Кубка Мира Горо Сигэно получил широкую известность и попал в МЛБ – главную бейсбольную лигу Америки. Публика, репортеры и владелец клуба «Индиана Хорнетс» возлагают на 19-летнего питчера большие надежды, но опытные игроки, в том числе новые товарищи по команде, не спешат с оценками – молодых да ранних в большом спорте видали с избытком. Сам же Горо, несмотря на бодрый вид, на деле находится в глубоком кризисе. Дело всей его жизни, соперничество с Джо Гибсоном-старшим, завершилось, и теперь парень идет вперед по инерции, не понимая, к чему стремиться.

Для каждого действия нужна причина, после достижения одних целей надо ставить другие. Вот с этим у парня, оказавшегося вдали от семьи и друзей, пока тяжело. Юному таланту еще предстоит осознать, что силы для самоутверждения в лучшей мировой лиге и соперничества с таким же молодым гением бейсбола Гибсоном-младшим нужно искать не в поверхностной браваде и гордыне, а в глубинах собственной души. Конечно, понимание придет с опытом – не зря на Востоке говорят: «Чем старше – тем лучше». Главное, у Горо есть необходимые качества, чтобы стать великим игроком, нужно только время. Ну и появление Симидзу-тян явно не помешает!
© Hollow, WorldArt

Скриншоты:



General
Complete name :[heponeko] Major 6th Season #01 [BS-ANIMAX 1280x720 h264 AAC].mp4
Format : MPEG-4
Format profile : Base Media
Codec ID : isom (isom/avc1/iso6)
File size : 240 MiB
Duration : 24 min 30 s
Overall bit rate mode : Variable
Overall bit rate : 1 371 kb/s
Encoded date : UTC 2017-03-27 09:29:11
Tagged date : UTC 2017-03-27 09:29:11

Video
ID : 1
Format : AVC
Format/Info : Advanced Video Codec
Format profile : High@L4.1
Format settings : CABAC / 8 Ref Frames
Format settings, CABAC : Yes
Format settings, ReFrames : 8 frames
Codec ID : avc1
Codec ID/Info : Advanced Video Coding
Duration : 24 min 30 s
Bit rate : 1 227 kb/s
Maximum bit rate : 16.5 Mb/s
Width : 1 280 pixels
Height : 720 pixels
Display aspect ratio : 16:9
Frame rate mode : Constant
Frame rate : 23.976 (24000/1001) FPS
Color space : YUV
Chroma subsampling : 4:2:0
Bit depth : 8 bits
Scan type : Progressive
Bits/(Pixel*Frame) : 0.056
Stream size : 215 MiB (89%)
Title : 264@GPAC0.5.2-DEV-rev248-g39d5978-master
Writing library : x264 core 129 r2245+729M 1a52e03
Encoding settings : cabac=1 / ref=8 / deblock=1:0:0 / analyse=0x3:0x133 / me=umh / subme=9 / psy=1 / fade_compensate=0.00 / psy_rd=1.00:0.00 / mixed_ref=1 / me_range=16 / chroma_me=1 / trellis=2 / 8x8dct=1 / cqm=0 / deadzone=21,11 / fast_pskip=1 / chroma_qp_offset=-2 / threads=6 / lookahead_threads=1 / sliced_threads=0 / nr=0 / decimate=1 / interlaced=0 / bluray_compat=0 / constrained_intra=0 / fgo=0 / bframes=3 / b_pyramid=2 / b_adapt=2 / b_bias=0 / direct=3 / weightb=1 / open_gop=0 / weightp=2 / keyint=250 / keyint_min=23 / scenecut=40 / intra_refresh=0 / rc_lookahead=60 / rc=crf / mbtree=1 / crf=19.0 / qcomp=0.60 / qpmin=0 / qpmax=69 / qpstep=4 / ip_ratio=1.40 / aq=1:1.00
Encoded date : UTC 2017-03-27 09:29:11
Tagged date : UTC 2017-03-27 09:29:14
Color range : Limited
Color primaries : BT.709
Transfer characteristics : BT.709
Matrix coefficients : BT.709
Codec configuration box : avcC

Audio
ID : 2
Format : AAC LC
Format/Info : Advanced Audio Codec Low Complexity
Codec ID : mp4a-40-2
Duration : 24 min 30 s
Bit rate mode : Variable
Bit rate : 140 kb/s
Maximum bit rate : 145 kb/s
Channel(s) : 2 channels
Channel layout : L R
Sampling rate : 48.0 kHz
Frame rate : 46.875 FPS (1024 SPF)
Compression mode : Lossy
Stream size : 24.5 MiB (10%)
Encoded date : UTC 2017-03-27 08:54:57
Tagged date : UTC 2017-03-27 09:29:14
01. Super Rookie
02. A Prominent Debut!
03. In an Impossible Dilemma
04. The Southpaw in Distress
05. The Fruits of the Treatment
06. What it Takes to be a Pro
07. Rookies' Troubles
08. An Electrifying Return
09. Fully Back on the Mound
10. Each Person's Summer
11. Committed Dreams
12. The Unspoken Rule
13. Chain of Negativity
14. Responsibility of the Ace
15. Weak Point
16. A Resolute Will
17. Uninvited Guest
18. Different?!
19. The Creeping Shadow
20. That Dream
21. Don't Give Up!
22. Remaining Opportunity
23. Beyond Capability
24. With Tenacity Towards Glory
25. To the Future

Major: World Series | Мэйджор: Мировая Серия
Продолжительность: 70 минут
Период выхода: 17.06.2012
Производство: SynergySP
Режиссер: Като Такао
Описание:
Мэйджор: Мировая Серия позволяет нам пережить все тяготы и драматизм последней финальной 7-ой игры Мировой Серии между Индианой Хорнетс и Техас Райдэрс. Прошло восемь лет с того момента, как Хорентс в последний раз выходили в плей-офф. И вот шершни как никогда близки к успеху. Однако много поменялось за это время. Гибсон все также могуч, но уже в другом амплуа, новые травмы Горо не дают расслабиться, а старые соперники из Японии теперь также в Мэйджор...

В 17 июня 2012 года канал Disney XD Japan выпустил OVA Мэйджор: Мировая Серия с дополнительными 15 минутами ранее не вошедшими в оригинальные OVA-II выпущенные в 2011 и 2012 годах.


В данный момент имеются лишь раздельные субтитры для 1-го и 2-го эпизода.

Скриншоты:


General
Complete name : [heponeko] Major World Series Hen - Yume no Shunkan e (2011) [BS-ANIMAX 1280x720 h264 AAC].mp4
Format : MPEG-4
Format profile : Base Media
Codec ID : isom (isom/avc1/iso6)
File size : 599 MiB
Duration : 1 h 9 min
Overall bit rate mode : Variable
Overall bit rate : 1 196 kb/s
Encoded date : UTC 2017-06-21 11:23:33
Tagged date : UTC 2017-06-21 11:23:33

Video
ID : 1
Format : AVC
Format/Info : Advanced Video Codec
Format profile : High@L4.1
Format settings : CABAC / 8 Ref Frames
Format settings, CABAC : Yes
Format settings, ReFrames : 8 frames
Codec ID : avc1
Codec ID/Info : Advanced Video Coding
Duration : 1 h 9 min
Bit rate : 1 052 kb/s
Maximum bit rate : 21.1 Mb/s
Width : 1 280 pixels
Height : 720 pixels
Display aspect ratio : 16:9
Frame rate mode : Constant
Frame rate : 23.976 (24000/1001) FPS
Color space : YUV
Chroma subsampling : 4:2:0
Bit depth : 8 bits
Scan type : Progressive
Bits/(Pixel*Frame) : 0.048
Stream size : 526 MiB (88%)
Title : 264@GPAC0.5.2-DEV-rev248-g39d5978-master
Writing library : x264 core 129 r2245+729M 1a52e03
Encoding settings : cabac=1 / ref=8 / deblock=1:0:0 / analyse=0x3:0x133 / me=umh / subme=9 / psy=1 / fade_compensate=0.00 / psy_rd=1.00:0.00 / mixed_ref=1 / me_range=16 / chroma_me=1 / trellis=2 / 8x8dct=1 / cqm=0 / deadzone=21,11 / fast_pskip=1 / chroma_qp_offset=-2 / threads=6 / lookahead_threads=1 / sliced_threads=0 / nr=0 / decimate=1 / interlaced=0 / bluray_compat=0 / constrained_intra=0 / fgo=0 / bframes=3 / b_pyramid=2 / b_adapt=2 / b_bias=0 / direct=3 / weightb=1 / open_gop=0 / weightp=2 / keyint=250 / keyint_min=23 / scenecut=40 / intra_refresh=0 / rc_lookahead=60 / rc=crf / mbtree=1 / crf=19.0 / qcomp=0.60 / qpmin=0 / qpmax=69 / qpstep=4 / ip_ratio=1.40 / aq=1:1.00
Encoded date : UTC 2017-06-21 11:23:33
Tagged date : UTC 2017-06-21 11:23:40
Color range : Limited
Color primaries : BT.709
Transfer characteristics : BT.709
Matrix coefficients : BT.709
Codec configuration box : avcC

Audio
ID : 2
Format : AAC LC
Format/Info : Advanced Audio Codec Low Complexity
Codec ID : mp4a-40-2
Duration : 1 h 9 min
Bit rate mode : Variable
Bit rate : 140 kb/s
Maximum bit rate : 150 kb/s
Channel(s) : 2 channels
Channel layout : L R
Sampling rate : 48.0 kHz
Frame rate : 46.875 FPS (1024 SPF)
Compression mode : Lossy
Stream size : 70.1 MiB (12%)
Encoded date : UTC 2017-06-21 09:44:09
Tagged date : UTC 2017-06-21 11:23:40

Major: Message | Мэйджор: Послание
Продолжительность: 25 минут
Период выхода: 17.12.2010
Производство: SynergySP
Режиссер: Като Такао
Описание:
Горо играет в Высшей Лиге уже четырнадцать лет. Однако, очередная травма, из-за которой пришлось делать операцию вынуждает его закончить свою карьеру питчера. Горо не сдается и собирается вернуться на поле в качестве полевого игрока. Семья не одобряет решение Горо, особенно его дочь – Изуми. Ведь из-за бейсбола отец не часто уделял ей время, и она не понимает почему эта игра для отца настолько важна.

Скриншоты:



General
Complete name : [heponeko] Major - Message (2010) [BS-ANIMAX 1280x720 h264 AAC].mp4
Format : MPEG-4
Format profile : Base Media
Codec ID : isom (isom/avc1/iso6)
File size : 206 MiB
Duration : 24 min 29 s
Overall bit rate mode : Variable
Overall bit rate : 1 177 kb/s
Encoded date : UTC 2017-11-27 08:14:04
Tagged date : UTC 2017-11-27 08:14:04

Video
ID : 1
Format : AVC
Format/Info : Advanced Video Codec
Format profile : High@L4.1
Format settings : CABAC / 8 Ref Frames
Format settings, CABAC : Yes
Format settings, ReFrames : 8 frames
Codec ID : avc1
Codec ID/Info : Advanced Video Coding
Duration : 24 min 29 s
Bit rate : 1 032 kb/s
Maximum bit rate : 7 212 kb/s
Width : 1 280 pixels
Height : 720 pixels
Display aspect ratio : 16:9
Frame rate mode : Constant
Frame rate : 23.976 (24000/1001) FPS
Color space : YUV
Chroma subsampling : 4:2:0
Bit depth : 8 bits
Scan type : Progressive
Bits/(Pixel*Frame) : 0.047
Stream size : 181 MiB (88%)
Title : 264@GPAC0.5.2-DEV-rev248-g39d5978-master
Writing library : x264 core 129 r2245+729M 1a52e03
Encoding settings : cabac=1 / ref=8 / deblock=1:0:0 / analyse=0x3:0x133 / me=umh / subme=9 / psy=1 / fade_compensate=0.00 / psy_rd=1.00:0.00 / mixed_ref=1 / me_range=16 / chroma_me=1 / trellis=2 / 8x8dct=1 / cqm=0 / deadzone=21,11 / fast_pskip=1 / chroma_qp_offset=-2 / threads=6 / lookahead_threads=1 / sliced_threads=0 / nr=0 / decimate=1 / interlaced=0 / bluray_compat=0 / constrained_intra=0 / fgo=0 / bframes=3 / b_pyramid=2 / b_adapt=2 / b_bias=0 / direct=3 / weightb=1 / open_gop=0 / weightp=2 / keyint=250 / keyint_min=23 / scenecut=40 / intra_refresh=0 / rc_lookahead=60 / rc=crf / mbtree=1 / crf=19.0 / qcomp=0.60 / qpmin=0 / qpmax=69 / qpstep=4 / ip_ratio=1.40 / aq=1:1.00
Encoded date : UTC 2017-11-27 08:14:04
Tagged date : UTC 2017-11-27 08:14:06
Color range : Limited
Color primaries : BT.709
Transfer characteristics : BT.709
Matrix coefficients : BT.709
Codec configuration box : avcC

Audio
ID : 2
Format : AAC LC
Format/Info : Advanced Audio Codec Low Complexity
Codec ID : mp4a-40-2
Duration : 24 min 29 s
Bit rate mode : Variable
Bit rate : 140 kb/s
Maximum bit rate : 150 kb/s
Channel(s) : 2 channels
Channel layout : L R
Sampling rate : 48.0 kHz
Frame rate : 46.875 FPS (1024 SPF)
Compression mode : Lossy
Stream size : 24.5 MiB (12%)
Encoded date : UTC 2017-11-27 07:39:56
Tagged date : UTC 2017-11-27 08:14:06



[NNM-Club.me]_Major [Polnoe sobranie].torrent
 Торрент: Платиновая раздача  Зарегистрирован
 
Скачать


Примагнититься
 Зарегистрирован:   20 Апр 2019 00:17:23
 Размер:   38,5 GB  (
 Рейтинг:   4,7 (Голосов: 13)
 Поблагодарили:   15
 Проверка:   Оформление проверено модератором 20 Апр 2019 03:03:35
Как cкачать  ·  Как раздать  ·  Правильно оформить  ·  Поднять ратио!  
Показать сообщения:   
Начать новую тему   Ответить на тему    Торрент-трекер NNM-Club -> Аниме с субтитрами -> Аниме (HD) Часовой пояс: GMT + 3
Страница 1 из 1