Классический форум-трекер
canvas not supported
Нас вместе: 4 078 976

Марк Калашников | Во имя Веры! (2018) [M4B|AAC]


 
 
RSS
Начать новую тему   Ответить на тему    Торрент-трекер NNM-Club -> Аудио и Видео -> Аудиокниги (AAC)
Автор Сообщение
trybag ®
Стаж: 6 лет 6 мес.
Сообщений: 198
Ratio: 15,15
Поблагодарили: 6112
100%
Марк Калашников | Во имя Веры!
Автор: Марк Калашников
Год: 2018
Жанр: Фантастика
Продолжительность: 15:18:08
Читает: Олег Кейнз
Издательство: Творческая группа "СамИздат"

Описание: Обитель Веры – событие межконтинентального уровня, исход которого способен пробудить спящих богов. Счастливчиком, что сумеют выполнить задание обещают золотые горы и немного сверху, но нашего героя это мало интересует.
Много шумихи, мало шансов сорвать куш – взвесив все «за» и «против», Алькор со спокойной душой отказывается от Крестового Похода, вот только у системы на этот счёт имелись собственные планы. Статус дезертира и служба в Грешном Легионе – не самое удачное начало, Проклятого со стажем подобным не напугать.

Формат: M4B
Аудиокодек: AAC
Битрейт: 192 kbps
Частота: 44,1 KHz
Разбивка на главы: есть
Вшитая обложка: есть
Музыкальное сопровождение: есть

1. Меж сном и явью
2. Во имя Веры!
3. Путь Зверя
4. Прайд
5. Разлом

Код: выделить все
Общее
Полное имя                               : Во имя веры! 1.m4b
Формат                                   : MPEG-4
Профиль формата                          : Apple audio with iTunes position
Идентификатор кодека                     : M4B  (M4B /mp42/isom)
Размер файла                             : 447 Мбайт
Продолжительность                        : 6 ч. 43 м.
Режим общего битрейта                    : Переменный
Общий поток                              : 155 Кбит/сек
Альбом                                   : Трансформа
Альбом/Исполнитель                       : Марк Калашников
Часть/Положение                          : 2
Часть/Всего                              : 5
Трек                                     : Во имя веры! 1
Трек/Положение                           : 1
Трек/Всего                               : 2
Исполнитель                              : Марк Калашников
Композитор                               : Олег Кейнз
Издатель                                 : СамИздат
Жанр                                     : Фантастика
Дата записи                              : 2018
Дата кодирования                         : UTC 2019-04-20 09:17:54
Дата пометки                             : UTC 2019-04-20 10:00:41
Обложка                                  : Yes
art                                      : Марк Калашников

Аудио
Идентификатор                            : 1
Формат                                   : AAC LC
Формат/Информация                        : Advanced Audio Codec Low Complexity
Идентификатор кодека                     : mp4a-40-2
Продолжительность                        : 6 ч. 43 м.
Вид битрейта                             : Переменный
Битрейт                                  : 153 Кбит/сек
Номинальный битрейт                      : 192 Кбит/сек
Максимальный битрейт                     : 289 Кбит/сек
Каналы                                   : 2 канала
Channel layout                           : L R
Частота                                  : 44,1 КГц
Частота кадров                           : 43,066 кадра/сек (1024 SPF)
Метод сжатия                             : С потерями
Размер потока                            : 443 Мбайт (99%)
Дата кодирования                         : UTC 2019-04-20 09:17:54
Дата пометки                             : UTC 2019-04-20 10:00:41
Menus                                    : 2

Меню
Идентификатор                            : 2
Идентификатор кодека                     : text
Продолжительность                        : 6 ч. 43 м.
Язык                                     : English
Дата кодирования                         : UTC 2019-04-20 09:48:33
Дата пометки                             : UTC 2019-04-20 09:48:33
Menu For                                 : 1
00:00:00.000                             : Любимчик Фортуны
01:12:10.475                             : Дезертир
01:56:49.384                             : Находка
02:39:19.307                             : Ритуал
03:16:06.665                             : Ночная вылазка
04:11:34.897                             : Чужие Тайны
04:51:52.373                             : Крысиный вопрос
05:29:56.590                             : Дыра в груди
06:06:08.515                             : Вне закона
Вид битрейта                             : VBR

Общее
Полное имя                               : Во имя веры! 2.m4b
Формат                                   : MPEG-4
Профиль формата                          : Apple audio with iTunes position
Идентификатор кодека                     : M4B  (M4B /mp42/isom)
Размер файла                             : 571 Мбайт
Продолжительность                        : 8 ч. 34 м.
Режим общего битрейта                    : Переменный
Общий поток                              : 155 Кбит/сек
Альбом                                   : Трансформа
Альбом/Исполнитель                       : Марк Калашников
Часть/Положение                          : 2
Часть/Всего                              : 5
Трек                                     : Во имя веры! 2
Трек/Положение                           : 2
Трек/Всего                               : 2
Исполнитель                              : Марк Калашников
Композитор                               : Олег Кейнз
Издатель                                 : СамИздат
Жанр                                     : Фантастика
Дата записи                              : 2018
Дата кодирования                         : UTC 2019-04-20 09:29:19
Дата пометки                             : UTC 2019-04-20 10:00:49
Обложка                                  : Yes
art                                      : Марк Калашников

Аудио
Идентификатор                            : 1
Формат                                   : AAC LC
Формат/Информация                        : Advanced Audio Codec Low Complexity
Идентификатор кодека                     : mp4a-40-2
Продолжительность                        : 8 ч. 34 м.
Вид битрейта                             : Переменный
Битрейт                                  : 154 Кбит/сек
Номинальный битрейт                      : 192 Кбит/сек
Максимальный битрейт                     : 278 Кбит/сек
Каналы                                   : 2 канала
Channel layout                           : L R
Частота                                  : 44,1 КГц
Частота кадров                           : 43,066 кадра/сек (1024 SPF)
Метод сжатия                             : С потерями
Размер потока                            : 566 Мбайт (99%)
Дата кодирования                         : UTC 2019-04-20 09:29:19
Дата пометки                             : UTC 2019-04-20 10:00:49
Menus                                    : 2

Меню
Идентификатор                            : 2
Идентификатор кодека                     : text
Продолжительность                        : 8 ч. 34 м.
Язык                                     : English
Дата кодирования                         : UTC 2019-04-20 09:49:04
Дата пометки                             : UTC 2019-04-20 09:49:04
Menu For                                 : 1
00:00:00.000                             : Призвание
01:03:32.554                             : Соседи
01:53:35.544                             : Лидер
02:38:44.036                             : Скорбь
03:26:20.439                             : Засада
04:14:57.747                             : Трофей
04:57:30.921                             : Последний приют
05:31:22.574                             : Время выбора
06:19:56.284                             : Оскал
07:03:23.745                             : Необычная лягушка
07:34:21.876                             : 30 секунд
08:09:10.139                             : Возвращение домой
Вид битрейта                             : VBR

[NNM-Club.me]_Vo imya veryi!.torrent
 Торрент: Платиновая раздача  Зарегистрирован
 
Скачать


Примагнититься
 Зарегистрирован:   20 Апр 2019 10:25:30
 Размер:   1019 MB  (
 Рейтинг:    (Голосов: 7)
 Поблагодарили:   33
 Проверка:   Оформление проверено модератором 21 Апр 2019 10:25:05
WebMoney кошелек: R662717423455
Как cкачать  ·  Как раздать  ·  Правильно оформить  ·  Поднять ратио!  
Загрузка...
ElMarado
Стаж: 5 лет 3 мес.
Сообщений: 53
Ratio: 3,812
29%
Цитата:
Жанр: Фантастика

Это Лит-РПГ.
trybag ®
Стаж: 6 лет 6 мес.
Сообщений: 198
Ratio: 15,15
Поблагодарили: 6112
100%
ElMarado писал(а): Перейти к сообщению
Цитата:
Жанр: Фантастика

Это Лит-РПГ.
Античная литература — литература о жизни и мифах древней греции, египта и т.д.
Аудиоспектакль — аудиоспектакли и литературные чтения. Форма литературного искусства, художественное выступление, в котором текст, стихи, истории, эссе больше говорятся, чем поются
Боевик — остросюжетная литература
Биография и Мемуары — биографическая литература и мемуары
Бизнес — вся бизнес литература
Детектив — детективные романы
Детская литература — сказки, литература для детей
Документальная — документальная литература
Поэзия — словесное художественное творчество, преимущественно стихотворное
Драма — драматическая литература
История — историческая литература
Русская классика — классическая русская литература в прозе
Зарубежная классика — классическая зарубежная литература в прозе
Мистика и Ужасы — жанр литературы, имеющий целью вызвать у читателя чувство страха. Часто, но не всегда в литературе ужасов повествуется о сверхъестественном в прямом смысле слова; имеется ограниченный набор тематизированных персонажей, заимствованных, как правило, из низовой мифологии разных народов: вампиры, зомби, оборотни, призраки, демоны и др.
Триллер — (от англ. thrill — «вызывать острые эмоциональные ощущения») — тип произведений литературы, кино, либо видео-игр, создающих ощущение напряжённого переживания, волнения. Жанр не имеет чётких границ. Часто к триллерам относят детективно-приключенческие произведения, акцент в которых смещён на подготовку к какому-то сложному преступлению.
Наука — научная литература
Новости — новостная литература
Приключения — жанр романа, сформировававшийся в середине XIX века на волне романтизма и неоромантизма с характерным для них стремлением бежать от мещанской повседневности в мир экзотики и героизма.
Путешествие — одна из форм изложения географических и этнографические сведений в литературном произведении.
Религия и Философия — религиозная литература, а также нетрадиционные религиозно-философские учения
Роман — романтическая литература и любовные романы
Саморазвитие — саморазвитие, повышение личной эффективности, лайфхакинг
Современная проза — новейшая литература, которую не удается точно отнести ни к одному из жанров
Спорт — спортивная литература
Фантастика — все разновидности фантастики, в том числе и научная фантастика, которая основывается на фантастических допущениях в области науки и техники, в том числе как естественных, так и гуманитарных наук.
Фэнтези — жанр фантастической литературы, основанный на использовании мифологических и сказочных мотивов.
Техническая литература — техническая литература и прикладные науки
Юмор — юмористическая литература
Учебная — литература для обучения чему-либо, например иностранным языкам
Показать сообщения:   
Начать новую тему   Ответить на тему    Торрент-трекер NNM-Club -> Аудио и Видео -> Аудиокниги (AAC) Часовой пояс: GMT + 3
Страница 1 из 1