Классический форум-трекер
canvas not supported
Нас вместе: 4 079 217

Марк Калашников | Путь Зверя (2019) [M4B|AAC]


 
 
RSS
Начать новую тему   Ответить на тему    Торрент-трекер NNM-Club -> Аудио и Видео -> Аудиокниги (AAC)
Автор Сообщение
trybag ®
Стаж: 6 лет 7 мес.
Сообщений: 201
Ratio: 15,268
Поблагодарили: 6126
100%
Марк Калашников | Путь Зверя
Автор: Марк Калашников
Год: 2019
Жанр: Фантастика
Продолжительность: 15:31:43
Читает: Олег Кейнз
Издательство: Творческая группа "СамИздат"

Описание: Когда в спину дышит старуха с косой, готов согласиться на многое, а тут всего-то работу предлагают, в игре — подарок судьбы! Разве что раса досталась весьма специфическая и не очень почётная, да болевой фильтр чуть выше, чем у остальных. Главное — живём! С этими мыслями Артём уже не просто играет, а живёт в виртуальном мире, не догадываясь, что «Трансформа» не просто корпорация со звучным именем. Продолжение приключений... нет, выживания Алькора в мире Теллуры.

Формат: M4B
Аудиокодек: AAC
Битрейт: 192 kbps
Частота: 44,1 KHz
Разбивка на главы: есть
Вшитая обложка: есть
Музыкальное сопровождение: есть

1. Меж сном и явью
2. Во имя Веры!
3. Путь Зверя
4. Прайд
5. Разлом

Код: выделить все
Общее
Полное имя                               : Путь Зверя 1.m4b
Формат                                   : MPEG-4
Профиль формата                          : Apple audio with iTunes position
Идентификатор кодека                     : M4B  (M4B /mp42/isom)
Размер файла                             : 470 Мбайт
Продолжительность                        : 7 ч. 13 м.
Режим общего битрейта                    : Переменный
Общий поток                              : 152 Кбит/сек
Альбом                                   : Трансформа
Альбом/Исполнитель                       : Марк Калашников
Часть/Положение                          : 3
Часть/Всего                              : 5
Трек                                     : Путь Зверя 1
Трек/Положение                           : 1
Трек/Всего                               : 2
Исполнитель                              : Марк Калашников
Композитор                               : Олег Кейнз
Издатель                                 : Творческая группа "СамИздат"
Жанр                                     : Фантастика
Дата кодирования                         : UTC 2019-04-20 10:31:35
Дата пометки                             : UTC 2019-04-20 10:58:11
Обложка                                  : Yes
art                                      : Марк Калашников

Аудио
Идентификатор                            : 1
Формат                                   : AAC LC
Формат/Информация                        : Advanced Audio Codec Low Complexity
Идентификатор кодека                     : mp4a-40-2
Продолжительность                        : 7 ч. 13 м.
Вид битрейта                             : Переменный
Битрейт                                  : 150 Кбит/сек
Номинальный битрейт                      : 192 Кбит/сек
Максимальный битрейт                     : 289 Кбит/сек
Каналы                                   : 2 канала
Channel layout                           : L R
Частота                                  : 44,1 КГц
Частота кадров                           : 43,066 кадра/сек (1024 SPF)
Метод сжатия                             : С потерями
Размер потока                            : 465 Мбайт (99%)
Дата кодирования                         : UTC 2019-04-20 10:31:35
Дата пометки                             : UTC 2019-04-20 10:58:11
Menus                                    : 2

Меню
Идентификатор                            : 2
Идентификатор кодека                     : text
Продолжительность                        : 7 ч. 13 м.
Язык                                     : English
Дата кодирования                         : UTC 2019-04-20 10:57:05
Дата пометки                             : UTC 2019-04-20 10:57:05
Menu For                                 : 1
00:00:00.000                             : Новый дом
00:59:56.306                             : Пристанище
01:46:02.522                             : Хвостодер
02:28:43.010                             : Добро пожаловать!
03:10:13.954                             : Передышка
04:03:28.160                             : Тяжело в учении
04:46:13.083                             : Зверь
05:43:43.197                             : Мертвое золото
06:38:59.935                             : Чистильщики
Вид битрейта                             : VBR

Общее
Полное имя                               : Путь Зверя 2.m4b
Формат                                   : MPEG-4
Профиль формата                          : Apple audio with iTunes position
Идентификатор кодека                     : M4B  (M4B /mp42/isom)
Размер файла                             : 542 Мбайт
Продолжительность                        : 8 ч. 18 м.
Режим общего битрейта                    : Переменный
Общий поток                              : 152 Кбит/сек
Альбом                                   : Трансформа
Альбом/Исполнитель                       : Марк Калашников
Часть/Положение                          : 3
Часть/Всего                              : 5
Трек                                     : Путь Зверя 2
Трек/Положение                           : 2
Трек/Всего                               : 2
Исполнитель                              : Марк Калашников
Композитор                               : Олег Кейнз
Издатель                                 : Творческая группа "СамИздат"
Жанр                                     : Фантастика
Дата записи                              : 2019
Дата кодирования                         : UTC 2019-04-20 10:42:25
Дата пометки                             : UTC 2019-04-20 10:58:17
Обложка                                  : Yes
art                                      : Марк Калашников

Аудио
Идентификатор                            : 1
Формат                                   : AAC LC
Формат/Информация                        : Advanced Audio Codec Low Complexity
Идентификатор кодека                     : mp4a-40-2
Продолжительность                        : 8 ч. 18 м.
Вид битрейта                             : Переменный
Битрейт                                  : 150 Кбит/сек
Номинальный битрейт                      : 192 Кбит/сек
Максимальный битрейт                     : 278 Кбит/сек
Каналы                                   : 2 канала
Channel layout                           : L R
Частота                                  : 44,1 КГц
Частота кадров                           : 43,066 кадра/сек (1024 SPF)
Метод сжатия                             : С потерями
Размер потока                            : 537 Мбайт (99%)
Дата кодирования                         : UTC 2019-04-20 10:42:25
Дата пометки                             : UTC 2019-04-20 10:58:17
Menus                                    : 2

Меню
Идентификатор                            : 2
Идентификатор кодека                     : text
Продолжительность                        : 8 ч. 18 м.
Язык                                     : English
Дата кодирования                         : UTC 2019-04-20 10:57:35
Дата пометки                             : UTC 2019-04-20 10:57:35
Menu For                                 : 1
00:00:00.000                             : Инстанс
00:42:12.414                             : Гость
01:24:50.255                             : Приступ
02:01:10.121                             : Обман
02:46:18.032                             : Кровавое рождение
03:30:08.017                             : Уговор
04:04:10.096                             : Кровь, песок и море опыта
04:40:48.677                             : Полный сбор
05:22:53.545                             : Магма и лед
06:25:17.740                             : Прайд
07:20:20.407                             : Больше не игра
Вид битрейта                             : VBR

[NNM-Club.me]_Put' Zverya.torrent
 Торрент: Платиновая раздача  Зарегистрирован
 
Скачать


Примагнититься
 Зарегистрирован:   20 Апр 2019 15:45:23
 Размер:   1012 MB  (
 Рейтинг:    (Голосов: 6)
 Поблагодарили:   32
 Проверка:   Оформление проверено модератором 21 Апр 2019 10:25:12
WebMoney кошелек: R662717423455
Как cкачать  ·  Как раздать  ·  Правильно оформить  ·  Поднять ратио!  
Показать сообщения:   
Начать новую тему   Ответить на тему    Торрент-трекер NNM-Club -> Аудио и Видео -> Аудиокниги (AAC) Часовой пояс: GMT + 3
Страница 1 из 1