Классический форум-трекер
canvas not supported
Нас вместе: 4 102 995

Hoozuki no Reitetsu 3 / Хладнокровный Ходзуки [ТВ-3] [2018, TV, 13 из 13] HDTV 720p Raw


 
 
RSS
Начать новую тему   Ответить на тему    Торрент-трекер NNM-Club -> Аниме с субтитрами -> Аниме (HD)
Автор Сообщение
хИНАРИх ®
Uploader 100+
Стаж: 3 года 2 мес.
Сообщений: 242
Ratio: 11K
Раздал: 165,2 TB
Поблагодарили: 5239
100%
roody.gif
Hoozuki no Reitetsu 3 / Хладнокровный Ходзуки [ТВ-3]
Жанр: комедия, фэнтези
Тип: TВ-сериал
Количество серий: 13 из 13
Продолжительность: 13 серий по 25 минут
Период выхода: с 08.04.2018 по 01.07.2018
Производство: Studio DEEN
Автор оригинала: Эгути Нацуми
Снято по манге: Hoozuki no Reitetsu
Режиссер: Ёнэда Кадзухиро
Ссылки: World-Art, Ani-DB, Официальный сайт, ANN, MAL, Сетка вещания
Описание:

Если вы думаете, что смерть способна решить все проблемы, то вы в корне ошибаетесь. В рай вы попадёте или же в ад, везде своих проблем предостаточно. Однако, речь в нашем аниме пойдёт именно про ад, ведь так куда интереснее. Про трудности простых смертных мы говорить не будем, у нас тут вопрос глобального масштаба. В аду перенаселение! Слишком уж много грешников развелось там, на поверхности, и теперь со всей этой оравой слишком трудно справляться. И никуда не денешь их, ведь ад - это уже последнее пристанище для человека.

История поведает нам о Ходзуки, главном заместителе Великого Короля преисподней Энмы. Он является правой рукой правителя и отвечает за наказание непослушных обитателей ада, отдаёт приказы демонам рангом ниже и так далее. В общем, жизнь у него крайне занятая, и с такой работой ему пришлось закалить свой характер, да и юмор приобрёл чёрный оттенок, хотя какой ещё юмор может быть в аду? Но, несмотря на его непростой нрав, у Ходзуки есть друзья, каждый из которых с превеликим удовольствием добавляет в жизнь главного заместителя больше экшена, шума и приключений!
Качество видео: HDTV
Видео: AVC, 8 bit, 1280x720, ~2.3 Mb/s
Аудио: AAC, 2 ch, 48 kHz, ~192 kb/s | Звук: Японский
Субтитры: Русские
Перевод от: [naive]


General
Complete name : [Leopard-Raws] Hoozuki no Reitetsu 3 - 01 RAW (BS11 1280x720 x264 AAC).mp4
Format : MPEG-4
Format profile : Base Media
Codec ID : isom (isom/avc1/iso6)
File size : 436 MiB
Duration : 23 min 59 s
Overall bit rate mode : Variable
Overall bit rate : 2 541 kb/s
Encoded date : UTC 2018-04-08 06:09:31
Tagged date : UTC 2018-04-08 06:09:31

Video
ID : 1
Format : AVC
Format/Info : Advanced Video Codec
Format profile : High@L4.1
Format settings : CABAC / 4 Ref Frames
Format settings, CABAC : Yes
Format settings, ReFrames : 4 frames
Codec ID : avc1
Codec ID/Info : Advanced Video Coding
Duration : 23 min 59 s
Bit rate : 2 345 kb/s
Maximum bit rate : 13.2 Mb/s
Width : 1 280 pixels
Height : 720 pixels
Display aspect ratio : 16:9
Frame rate mode : Constant
Frame rate : 23.976 (24000/1001) FPS
Color space : YUV
Chroma subsampling : 4:2:0
Bit depth : 8 bits
Scan type : Progressive
Bits/(Pixel*Frame) : 0.106
Stream size : 402 MiB (92%)
Title : 264:fps=23.976@GPAC0.5.2-DEV-rev376-g5eeb74d-master
Writing library : x264 core 129 r2245+729M 1a52e03
Encoding settings : cabac=1 / ref=4 / deblock=1:1:-1 / analyse=0x3:0x113 / me=umh / subme=9 / psy=1 / fade_compensate=0.00 / psy_rd=1.00:0.00 / mixed_ref=1 / me_range=24 / chroma_me=1 / trellis=2 / 8x8dct=1 / cqm=0 / deadzone=21,11 / fast_pskip=1 / chroma_qp_offset=-2 / threads=8 / lookahead_threads=1 / sliced_threads=0 / nr=0 / decimate=1 / interlaced=0 / bluray_compat=0 / constrained_intra=0 / fgo=0 / bframes=9 / b_pyramid=2 / b_adapt=2 / b_bias=0 / direct=1 / weightb=1 / open_gop=0 / weightp=2 / keyint=240 / keyint_min=24 / scenecut=40 / intra_refresh=0 / rc=crf / mbtree=0 / crf=18.5 / qcomp=0.72 / qpmin=0 / qpmax=69 / qpstep=4 / ip_ratio=1.40 / pb_ratio=1.30 / aq=1:0.85
Encoded date : UTC 2018-04-08 06:09:31
Tagged date : UTC 2018-04-08 06:09:42
Color range : Limited
Color primaries : BT.709
Transfer characteristics : BT.709
Matrix coefficients : BT.709
Codec configuration box : avcC

Audio
ID : 2
Format : AAC LC
Format/Info : Advanced Audio Codec Low Complexity
Codec ID : mp4a-40-2
Duration : 23 min 59 s
Bit rate mode : Variable
Bit rate : 192 kb/s
Maximum bit rate : 226 kb/s
Channel(s) : 2 channels
Channel layout : L R
Sampling rate : 48.0 kHz
Frame rate : 46.875 FPS (1024 SPF)
Compression mode : Lossy
Stream size : 33.0 MiB (8%)
Language : Japanese
Encoded date : UTC 2018-04-07 19:23:39
Tagged date : UTC 2018-04-08 06:09:42
01. The Day-to-Day at the Offices of Enma / 1 Soup, 3 Dishes, 10 Meats
02. What Is a Magical Girl? / Indulging in Western Clothing
03. Dakini of the Welcoming Committee / Under the Sod
04. The Man Who Learned from Youkai and the Woman Who Makes Use of Youkai
05. Amanojaku / Go Home, Crane
06. Slippery as a Catfish / Gon Gets to Work
07. Games / Mechanical Chief of Staff
08. The Rabbit Called Mustard / Types
09. Yakan Siblings / Shiro`s Butt Is in a Real Jam
10. Fundamentally / Mixed Martial Arts Contest
11. The Stripping Hag and Clothes-Hanging Geezer / Chef Miki
12. Onki / Animals Don`t Forget One`s Kindness
13. Unrivaled at Poker / Is Hell Your Intended Destination?



Время раздачи: круглосуточно
[NNM-Club.me]_Hladnokrovnyiy Hodzuki (TV-3) - [Hoozuki no Reitetsu 3].torrent
 Торрент: Платиновая раздача  Зарегистрирован
 
Скачать


Примагнититься
 Зарегистрирован:   02 Май 2019 08:56:12
 Размер:   5,6 GB  (
 Рейтинг:   4,7 (Голосов: 13)
 Поблагодарили:   20
 Проверка:   Оформление проверено модератором 02 Май 2019 15:32:03
Как cкачать  ·  Как раздать  ·  Правильно оформить  ·  Поднять ратио!  
Показать сообщения:   
Начать новую тему   Ответить на тему    Торрент-трекер NNM-Club -> Аниме с субтитрами -> Аниме (HD) Часовой пояс: GMT + 3
Страница 1 из 1