Классический форум-трекер
canvas not supported
Нас вместе: 4 079 203

Hoozuki no Reitetsu OAD / Хладнокровный Ходзуки OVA [2014, OVA, 4] DVDRip 576p Raw


 
 
RSS
Начать новую тему   Ответить на тему    Торрент-трекер NNM-Club -> Аниме с субтитрами -> Аниме (SD)
Автор Сообщение
хИНАРИх ®
Uploader 100+
Стаж: 2 года 9 мес.
Сообщений: 237
Ratio: 10K
Раздал: 160,3 TB
Поблагодарили: 4699
100%
roody.gif
Hoozuki no Reitetsu OAD / Хладнокровный Ходзуки OVA
Жанр: комедия, фэнтези
Тип: OVA
Количество серий: 4 из 4
Продолжительность: 4 серии по 30 минут
Период выхода: с 06.12.2014 по 23.03.2017
Производство: Wit Studio
Автор оригинала: Эгути Нацуми
Снято по манге: Hoozuki no Reitetsu
Режиссер: Кабураги Хиро
Ссылки: World-Art, Ani-DB, Официальный сайт, ANN, MAL
Описание:

Дальневосточный Ад, которым правит владыка Эмма-О, похож на гигантскую корпорацию с массой филиалов и подразделений. Как в любой подобной фирме, каждый день несет сюрпризы и неприятности – то дрова не завезли, то персонала не хватает, то сам европейский Сатана вдруг в гости пожалует. Да и клиент какой-то пошел беспокойный – всё права качает, нет, чтобы покорно страдать до следующего воплощения. Кто же решает бесконечные проблемы, не давая им раньше времени перерасти в Армагеддон? Конечно же, Хладнокровный Ходзуки, зам. главы по общим вопросам, красавец-демон в расцвете лет!

Буянят сказочные герои? Надо спасать Адские игры? Небесные смежники просят о помощи? Грешники упились и требуют свободы? Ходзуки тут как тут и всегда готов навести порядок добрым словом и верной железной дубиной. Выбить из колеи красавца в черном могут только встречи с Хакутаку, китайским всезнайкой, бабником и заклятым другом-соперником. После такого не грех подлечить нервы выращиванием золотых рыбок или посещением нашего мира. Да, адские работники любят у нас бывать – родину очень напоминает. Да и мы, как говорят, все там будем! © Hollow, World Art
Качество видео: DVDRip
Видео: AVC, 8 bit, 1024x576, ~1.5 Mb/s
Аудио: AAC, 2 ch, 48 kHz, ~192 kb/s | Звук: Японский
Субтитры: Русские
Перевод от: эпизоды 1-3 [Kasandra / Nesitach / Asca / Holydarkness / Stan WarHammer] | эпизод 4 [naive]


General
Unique ID : 224492168940592242342160290692401870600 (0xA8E39E79B024DD68B766DCB158423708)
Complete name : [FFF] Hoozuki no Reitetsu OAD - 01v0 [576p][4B80AAD0].mkv
Format : Matroska
Format version : Version 4
File size : 289 MiB
Duration : 26 min 33 s
Overall bit rate : 1 522 kb/s
Encoded date : UTC 2015-08-18 14:34:05
Writing application : mkvmerge v8.2.0 ('World of Adventure') 64bit
Writing library : libebml v1.3.1 + libmatroska v1.4.2
Attachments : DFPSNGyosho-W5-CP-Spec.ttf / DFKanTeiRyuXB-CP.ttf / Lato-Bol.ttf / Lato-BolIta.ttf / KozMinPro-Regular.ttf / KozGoPr6n-B_5.ttf / Cavalier.ttf / DFKanTeiRyu-XB.ttf / FOT-ReggaeStd-B.ttf / FC-GyoKaishotai.ttf / FOT Rodin Pro EB.ttf / Jambono-Regular.ttf / HannaHandwriting.ttf / FGArisawaFutoKaisho.ttf / FOT-HummingStd-Accel-B.ttf

Video
ID : 1
Format : AVC
Format/Info : Advanced Video Codec
Format profile : Main@L4.1
Format settings : CABAC / 5 Ref Frames
Format settings, CABAC : Yes
Format settings, ReFrames : 5 frames
Codec ID : V_MPEG4/ISO/AVC
Duration : 26 min 33 s
Bit rate : 1 317 kb/s
Width : 1 024 pixels
Height : 576 pixels
Display aspect ratio : 16:9
Frame rate mode : Variable
Frame rate : 26.542 FPS
Color space : YUV
Chroma subsampling : 4:2:0
Bit depth : 8 bits
Scan type : Progressive
Bits/(Pixel*Frame) : 0.084
Stream size : 250 MiB (87%)
Title : 8bit H.264 - 576p
Writing library : x264 core 128
Encoding settings : cabac=1 / ref=6 / deblock=1:0:0 / analyse=0x1:0x111 / me=umh / subme=9 / psy=1 / psy_rd=1.00:0.00 / mixed_ref=1 / me_range=32 / chroma_me=1 / trellis=1 / 8x8dct=0 / cqm=0 / deadzone=21,11 / fast_pskip=1 / chroma_qp_offset=-2 / threads=12 / lookahead_threads=2 / sliced_threads=0 / nr=0 / decimate=1 / interlaced=0 / bluray_compat=1 / constrained_intra=0 / bframes=3 / b_pyramid=1 / b_adapt=1 / b_bias=0 / direct=1 / weightb=1 / open_gop=0 / weightp=1 / keyint=250 / keyint_min=1 / scenecut=40 / intra_refresh=0 / rc_lookahead=40 / rc=crf / mbtree=1 / crf=18.0 / qcomp=0.60 / qpmin=0 / qpmax=69 / qpstep=4 / ip_ratio=1.40 / aq=1:1.00
Language : Japanese
Default : Yes
Forced : No

Audio
ID : 2
Format : AAC LC
Format/Info : Advanced Audio Codec Low Complexity
Codec ID : A_AAC-2
Duration : 26 min 33 s
Bit rate : 192 kb/s
Channel(s) : 2 channels
Channel layout : L R
Sampling rate : 48.0 kHz
Frame rate : 46.875 FPS (1024 SPF)
Compression mode : Lossy
Stream size : 36.0 MiB (12%)
Title : 2.0 AAC
Language : Japanese
Default : Yes
Forced : No

Text
ID : 3
Format : ASS
Codec ID : S_TEXT/ASS
Codec ID/Info : Advanced Sub Station Alpha
Duration : 26 min 30 s
Bit rate : 1 501 b/s
Count of elements : 2457
Compression mode : Lossless
Stream size : 291 KiB (0%)
Title : FFF
Language : English
Default : Yes
Forced : No

Menu
00:00:00.000 : en:Opening
00:01:30.015 : en:Part A
00:11:29.889 : en:Part B
00:24:32.672 : en:Ending
00:26:02.734 : en:Preview
01. The Enthusiasm Gap Between Fans and Non-Fans / The Foxy Yakan and Ooban Koban
02. How to Deal with Zashiki-Warashi / The Frontline of the Idol Business
03. Is Art an Explosion? / Art Is an Explosion
04. The Blossom Front / Three Men, Three Personalities



Время раздачи: круглосуточно
[NNM-Club.me]_Hladnokrovnyiy Hodzuki OVA - [Hoozuki no Reitetsu OAD].torrent
 Торрент: Платиновая раздача  Зарегистрирован
 
Скачать


Примагнититься
 Зарегистрирован:   02 Май 2019 09:26:22
 Размер:   1,39 GB  (
 Рейтинг:   4,6 (Голосов: 11)
 Поблагодарили:   13
 Проверка:   Оформление проверено модератором 02 Май 2019 15:30:36
Как cкачать  ·  Как раздать  ·  Правильно оформить  ·  Поднять ратио!  
Показать сообщения:   
Начать новую тему   Ответить на тему    Торрент-трекер NNM-Club -> Аниме с субтитрами -> Аниме (SD) Часовой пояс: GMT + 3
Страница 1 из 1