Классический форум-трекер
canvas not supported
Нас вместе: 4 078 109

Lost Universe / Затерянная вселенная [1998, TV, 26 эп.] WEBRip 768p Raw


 
 
RSS
Начать новую тему   Ответить на тему    Торрент-трекер NNM-Club -> Аниме с субтитрами -> Аниме (SD)
Автор Сообщение
хИНАРИх ®
Uploader 100+
Стаж: 2 года 8 мес.
Сообщений: 232
Ratio: 10K
Раздал: 158,5 TB
Поблагодарили: 4554
99.65%
roody.gif
Lost Universe / Затерянная вселенная
Жанр: приключения, комедия, фантастика
Тип: TВ-сериал
Количество серий: 26 из 26
Продолжительность: 26 серий по 25 минут
Период выхода: с 03.04.1998 по 25.09.1998
Производство: Easyfilm
Автор оригинала: Кандзака Хадзимэ
Снято по ранобэ: Lost Universe
Режиссер: Ватанабэ Такаси
Ссылки: World-Art, Ani-DB, Официальный сайт, ANN, MAL, Сетка вещания
Описание:

Берегись, Вселенная! Когда частный сыщик Милли Ноктюрн попадает на теневой аукцион, ее неприятности только начинаются! Поневоле связав судьбу с Каином Блуривером, помешанным на плащах любителе махать световым мечом и его помощницей Кэнел - голографической проекцией бортового компьютера Потерянного Корабля «Суордбрейкер», Милли вынуждена хвататься за любое дело, способное принести хоть какой-то барыш. Но чаще всего этой команде выпадает работа, за которую вообще больше браться некому! Сражения с планетарной системой безопасности, охрана весьма специфической академии и встреча лицом к лицу с целым миром, поклоняющимся курицам - фантастичнее всего этого только кулинарные опыты Милли! Большую часть правоохранительных функций во Вселенной несут Стражи Галактики, а Каину и команде "Суордбрейкера" достаются дела, в которые заказчики не хотели бы вмешивать официальных представителей закона. Наемники справляются с задачей, хотя пути для ее решения приходится искать весьма нетривиальные! А в этот раз от них еще и убегает корабельный гальюн!... Вселенную перевернули вверх тормашками! Но даже когда все вокруг опускают руки, мастер пси-меча не падает духом. И Каин наверняка одержит верх, как это у него обычно получается. Ведь не бывает- неуязвимых злодеев! Или бывают?...
Качество видео: WEBRip
Видео: HEVC, 8 bit, 1024x768, ~1.2 Mbps
Аудио: AAC, 2 ch, 48 kHz, ~161 kbps | Звук: Японский
Субтитры: Русские | Английские
Перевод от: эпизоды 1-8 [Станислав Фролов] / эпизоды 9-26 [tryam]


General
Unique ID : 233369470019532803522371529824291370237 (0xAF915335EDCC925F0868BBC80E21B4FD)
Complete name : Lost Universe - 01 - A Blade Of Light Shines.mkv
Format : Matroska
Format version : Version 4
File size : 232 MiB
Duration : 22 min 36 s
Overall bit rate : 1 433 kb/s
Encoded date : UTC 2019-02-23 08:45:59
Writing application : mkvmerge v29.0.0 ('Like It Or Not') 32-bit
Writing library : libebml v1.3.6 + libmatroska v1.4.9 / Lavf58.20.100

Video
ID : 1
Format : HEVC
Format/Info : High Efficiency Video Coding
Format profile : Main@L3.1@Main
Codec ID : V_MPEGH/ISO/HEVC
Duration : 22 min 36 s
Bit rate : 1 269 kb/s
Width : 1 024 pixels
Height : 768 pixels
Display aspect ratio : 4:3
Frame rate mode : Constant
Frame rate : 29.970 (30000/1001) FPS
Color space : YUV
Chroma subsampling : 4:2:0
Bit depth : 8 bits
Bits/(Pixel*Frame) : 0.054
Stream size : 205 MiB (89%)
Writing library : x265 2.9:[Windows][GCC 7.1.0][64 bit] 8bit+10bit+12bit
Encoding settings : cpuid=1111039 / frame-threads=2 / numa-pools=4 / wpp / no-pmode / no-pme / no-psnr / no-ssim / log-level=2 / input-csp=1 / input-res=1024x768 / interlace=0 / total-frames=0 / level-idc=0 / high-tier=1 / uhd-bd=0 / ref=3 / no-allow-non-conformance / no-repeat-headers / annexb / no-aud / no-hrd / info / hash=0 / no-temporal-layers / open-gop / min-keyint=30 / keyint=300 / gop-lookahead=0 / bframes=4 / b-adapt=0 / b-pyramid / bframe-bias=0 / rc-lookahead=15 / lookahead-slices=4 / scenecut=40 / radl=0 / no-intra-refresh / ctu=64 / min-cu-size=8 / no-rect / no-amp / max-tu-size=32 / tu-inter-depth=1 / tu-intra-depth=1 / limit-tu=0 / rdoq-level=0 / dynamic-rd=0.00 / no-ssim-rd / signhide / no-tskip / nr-intra=0 / nr-inter=0 / no-constrained-intra / strong-intra-smoothing / max-merge=2 / limit-refs=3 / no-limit-modes / me=1 / subme=2 / merange=57 / temporal-mvp / weightp / no-weightb / no-analyze-src-pics / deblock=0:0 / sao / no-sao-non-deblock / rd=2 / no-early-skip / rskip / fast-intra / no-tskip-fast / no-cu-lossless / no-b-intra / no-splitrd-skip / rdpenalty=0 / psy-rd=2.00 / psy-rdoq=0.00 / no-rd-refine / no-lossless / cbqpoffs=0 / crqpoffs=0 / rc=crf / crf=22.0 / qcomp=0.60 / qpstep=4 / stats-write=0 / stats-read=0 / ipratio=1.40 / pbratio=1.30 / aq-mode=1 / aq-strength=1.00 / cutree / zone-count=0 / no-strict-cbr / qg-size=32 / no-rc-grain / qpmax=69 / qpmin=0 / no-const-vbv / sar=1 / overscan=0 / videoformat=5 / range=0 / colorprim=1 / transfer=1 / colormatrix=1 / chromaloc=0 / display-window=0 / max-cll=0,0 / min-luma=0 / max-luma=255 / log2-max-poc-lsb=8 / vui-timing-info / vui-hrd-info / slices=1 / no-opt-qp-pps / no-opt-ref-list-length-pps / no-multi-pass-opt-rps / scenecut-bias=0.05 / no-opt-cu-delta-qp / no-aq-motion / no-hdr / no-hdr-opt / no-dhdr10-opt / no-idr-recovery-sei / analysis-reuse-level=5 / scale-factor=0 / refine-intra=0 / refine-inter=0 / refine-mv=0 / no-limit-sao / ctu-info=0 / no-lowpass-dct / refine-mv-type=0 / copy-pic=1 / max-ausize-factor=1.0 / no-dynamic-refine / no-single-sei
Default : Yes
Forced : No
Color range : Limited
Color primaries : BT.709
Transfer characteristics : BT.709
Matrix coefficients : BT.709

Audio
ID : 2
Format : AAC LC
Format/Info : Advanced Audio Codec Low Complexity
Codec ID : A_AAC-2
Duration : 22 min 35 s
Bit rate : 161 kb/s
Channel(s) : 2 channels
Channel layout : L R
Sampling rate : 48.0 kHz
Frame rate : 46.875 FPS (1024 SPF)
Compression mode : Lossy
Delay relative to video : -21 ms
Stream size : 26.0 MiB (11%)
Title : Stereo
Default : Yes
Forced : No

Text
ID : 3
Format : UTF-8
Codec ID : S_TEXT/UTF8
Codec ID/Info : UTF-8 Plain Text
Duration : 22 min 26 s
Bit rate : 69 b/s
Count of elements : 303
Stream size : 11.4 KiB (0%)
Default : Yes
Forced : No
01. A Blade of Light Shines
02. A Goddess Flies
03. The Kitchen Dances
04. Palm Tree Crabs Kill
05. Flames Roar
06. Fallen Angels Run
07. Knight Checks
08. Nina Corners
09. Toilet Fears
10. Vagrancy Decides
11. Friendship Scatters
12. Rain of Tears Ends
13. Reminiscence Whirlpools
14. Fear Whispers
15. Nightmare Appears
16. Millie Desires
17. Universal Guardian Explodes
18. The Scoundrel is Swept Away
19. Darkness Lures
20. Nightmare Prevails
21. Field of Ice Burns
22. Destiny Spins
23. Ashura Comes
24. The Maiden Returns
25. Angelic Demon Strikes
26. And... the Blade of Light Shines On




Время раздачи: круглосуточно
[NNM-Club.me]_Lost Universe - [Zateryannaya vselennaya].torrent
 Торрент: Платиновая раздача  Зарегистрирован
 
Скачать


Примагнититься
 Зарегистрирован:   04 Май 2019 13:54:50
 Размер:   5,15 GB  (
 Рейтинг:   4,9 (Голосов: 14)
 Поблагодарили:   25
 Проверка:   Оформление проверено модератором 04 Май 2019 16:33:14
Как cкачать  ·  Как раздать  ·  Правильно оформить  ·  Поднять ратио!  
Показать сообщения:   
Начать новую тему   Ответить на тему    Торрент-трекер NNM-Club -> Аниме с субтитрами -> Аниме (SD) Часовой пояс: GMT + 3
Страница 1 из 1