Классический форум-трекер
canvas not supported
Нас вместе: 4 076 909

Тьма в Гаване / Havana Darkness (2019) BDRemux [H.264/1080p] [EN / EN Sub]


 
 
RSS
Начать новую тему   Ответить на тему    Торрент-трекер NNM-Club -> Зарубежное кино -> Фильмы в оригинале (HD, UHD, UHD-LQ)
Автор Сообщение
smaster67 ®
Модератор Видео
Покровитель талантов Uploader 300+
Стаж: 10 лет 1 мес.
Сообщений: 7118
Ratio: 225,605
Поблагодарили: 215236
100%
Тьма в Гаване / Havana Darkness (2019) BDRemux [H.264/1080p] [EN / EN Sub]

Производство: США, Open Frames, Global Group, Golden Ceiba Productions
Жанр: триллер

Режиссер: Гильермо Иван
Актеры: Каролина Равасса, Гильермо Иван, Джек Димич, Монте Безелл, Ханна Д. Скотт, Зэк Роуз, Заир Монтес, Лорис Курчи, Питер Перейра, Эстебан Леон

Описание:
Отправляясь в Гавану, столицу Кубы, чтобы выяснить происхождение таинственной рукописи, предположительно написанной известным американским писателем Эрнестом Хемингуэем, трое друзей оказываются в ловушке внутри заброшенного здания, расположенного в центре города. Ребята должны как можно быстрее пройти через лабиринт смертельных ловушек, чтобы найти выход из здания, прежде чем их выследит и убьёт кровавый маньяк.



Продолжительность: 01:24:54
Качество видео: BDRemux
Перевод: Отсутствует
Язык озвучки: Английский
Субтитры: английские

Видео: AVC/H.264, 1920x1080, 29321 kbps
Аудио: английский, DTS-HD MA, 5.1, 3953 kbps
Код: выделить все
General
Unique ID                                : 147975840313038479685981678948609465043 (0x6F531C3571642D15A7669365794C9AD3)
Complete name                            : Havana.Darkness.2019.1080p.BluRay.REMUX.AVC.DTS-HD.MA.5.1.mkv
Format                                   : Matroska
Format version                           : Version 4 / Version 2
File size                                : 19.8 GiB
Duration                                 : 1 h 24 min
Overall bit rate                         : 33.3 Mb/s
Movie name                               : Havana Darkness (2019)
Encoded date                             : UTC 2019-05-03 14:39:28
Writing application                      : mkvmerge v33.1.0 ('Primrose') 64-bit
Writing library                          : libebml v1.3.7 + libmatroska v1.5.0
IMDB                                     : tt5468130
TMDB                                     : movie/434574

Video
ID                                       : 1
Format                                   : AVC
Format/Info                              : Advanced Video Codec
Format profile                           : High@L4.1
Format settings, CABAC                   : Yes
Format settings, ReFrames                : 4 frames
Codec ID                                 : V_MPEG4/ISO/AVC
Duration                                 : 1 h 24 min
Bit rate mode                            : Constant
Bit rate                                 : 29.3 Mb/s
Nominal bit rate                         : 31.0 Mb/s
Width                                    : 1 920 pixels
Height                                   : 1 080 pixels
Display aspect ratio                     : 16:9
Frame rate mode                          : Constant
Frame rate                               : 23.976 (24000/1001) FPS
Color space                              : YUV
Chroma subsampling                       : 4:2:0
Bit depth                                : 8 bits
Scan type                                : Progressive
Bits/(Pixel*Frame)                       : 0.590
Stream size                              : 17.4 GiB (88%)
Title                                    : MPEG-4 AVC Video / 31000 kbps / 1080p / 23.976 fps / 16:9 / High Profile 4.1
Language                                 : English
Default                                  : Yes
Forced                                   : No

Audio
ID                                       : 2
Format                                   : DTS
Format/Info                              : Digital Theater Systems
Format profile                           : MA / Core
Mode                                     : 16
Format settings, Endianness              : Big
Codec ID                                 : A_DTS
Duration                                 : 1 h 24 min
Bit rate mode                            : Variable / Constant
Bit rate                                 : 3 954 kb/s / 1 509 kb/s
Channel(s)                               : 6 channels
Channel positions                        : Front: L C R, Side: L R, LFE
Sampling rate                            : 48.0 kHz
Frame rate                               : 93.750 FPS (512 spf)
Bit depth                                : 24 bits
Compression mode                         : Lossless / Lossy
Stream size                              : 2.34 GiB (12%)
Title                                    : DTS-HD Master Audio / 5.1 / 48 kHz / 3954 kbps / 24-bit
Language                                 : English
Default                                  : Yes
Forced                                   : No

Text #1
ID                                       : 3
Format                                   : PGS
Codec ID                                 : S_HDMV/PGS
Codec ID/Info                            : Picture based subtitle format used on BDs/HD-DVDs
Duration                                 : 1 h 0 min
Bit rate                                 : 5 899 b/s
Count of elements                        : 119
Stream size                              : 2.57 MiB (0%)
Title                                    : Forced
Language                                 : English
Default                                  : Yes
Forced                                   : Yes

Text #2
ID                                       : 4
Format                                   : PGS
Codec ID                                 : S_HDMV/PGS
Codec ID/Info                            : Picture based subtitle format used on BDs/HD-DVDs
Duration                                 : 1 h 21 min
Bit rate                                 : 47.6 kb/s
Count of elements                        : 1940
Stream size                              : 27.9 MiB (0%)
Title                                    : SDH
Language                                 : English
Default                                  : No
Forced                                   : No

Menu
00:00:00.000                             : en:Chapter 1
00:10:36.219                             : en:Chapter 2
00:21:12.146                             : en:Chapter 3
00:30:15.814                             : en:Chapter 4
00:40:03.818                             : en:Chapter 5
00:49:36.807                             : en:Chapter 6
01:00:01.515                             : en:Chapter 7
01:08:37.322                             : en:Chapter 8
01:19:29.348                             : en:Chapter 9

Скриншоты:



Все одноименные релизы в Клубе

Время раздачи: с 13:00 до 23:00
[NNM-Club.me]_Havana.Darkness.2019.1080p.BluRay.REMUX.AVC.DTS-HD.MA.5.1.mkv.torrent
 Торрент: Платиновая раздача  Зарегистрирован
 
Скачать


Примагнититься
 Зарегистрирован:   05 Май 2019 20:44:15
 Размер:   19,8 GB  (
 Рейтинг:    (Голосов: 7)
 Поблагодарили:   22
 Проверка:   Оформление проверено модератором 05 Май 2019 20:44:54
Как cкачать  ·  Как раздать  ·  Правильно оформить  ·  Поднять ратио!  
ApolloOne
Стаж: 6 лет 9 мес.
Сообщений: 687
Ratio: 57,474
Поблагодарили: 3
100%
pirates.png
А разве не 2019 год?
Показать сообщения:   
Начать новую тему   Ответить на тему    Торрент-трекер NNM-Club -> Зарубежное кино -> Фильмы в оригинале (HD, UHD, UHD-LQ) Часовой пояс: GMT + 3
Страница 1 из 1