Классический форум-трекер
canvas not supported
Нас вместе: 4 079 060

Насилие / Violentia / Pinocchio Project (2018) BDRemux [H.264/1080p] [EN / EN Sub]


 
 
RSS
Начать новую тему   Ответить на тему    Торрент-трекер NNM-Club -> Зарубежное кино -> Фильмы в оригинале (HD, UHD, UHD-LQ)
Автор Сообщение
smaster67 ®
Модератор Видео
Покровитель талантов Uploader 300+
Стаж: 10 лет 3 мес.
Сообщений: 7117
Ratio: 225,338
Поблагодарили: 215376
100%
Насилие / Violentia / Pinocchio Project (2018) BDRemux [H.264/1080p] [EN / EN Sub]

Производство: Канада, Tabula Dada Productions, One Leaf Productions inc
Жанр: фантастика, драма

Режиссер: Ананд Рагхаван
Актеры: Джошуа Дж. Баллард, Меган Чарпентье, Джим Элиасон, Фрэнсис Флэнаган, Тэмми Гиллис, МакКензи Грэй, Эмили Холмс, Николь ЛаПлаца, Дэвид Льюис, Скотт Листер, Том МакНейл

Описание:
После случайной школьной перестрелки дочь ученого и сам стрелок погибли. И теперь доктор использует нано-роботов, чтобы изучить воспоминания психопата, найти причины насилия и способы его лечения.



Продолжительность: 01:24:42
Качество видео: BDRemux
Перевод: Отсутствует
Язык озвучки: Английский
Субтитры: английские

Видео: AVC/H.264, 1920x1080, 30048 kbps
Аудио: английский, DTS-HD MA, 5.1, 3244 kbps
Код: выделить все
General
Unique ID                                : 147507023173027783329607694986903057098 (0x6EF8D1BD3A4AC50F00A78DB7800872CA)
Complete name                            : Violentia.2018.1080p.BluRay.REMUX.AVC.DTS-HD.MA 5.1-OMEGA\Violentia.2018.1080p.BluRay.REMUX.AVC.DTS-HD.MA 5.1-OMEGA.mkv
Format                                   : Matroska
Format version                           : Version 4 / Version 2
File size                                : 19.7 GiB
Duration                                 : 1 h 24 min
Overall bit rate                         : 33.3 Mb/s
Encoded date                             : UTC 2019-05-04 17:57:20
Writing application                      : mkvmerge v33.0.0 ('A Little Bit of Madness') 64-bit
Writing library                          : libebml v1.3.7 + libmatroska v1.5.0

Video
ID                                       : 1
Format                                   : AVC
Format/Info                              : Advanced Video Codec
Format profile                           : High@L4.1
Format settings, CABAC                   : Yes
Format settings, ReFrames                : 4 frames
Codec ID                                 : V_MPEG4/ISO/AVC
Duration                                 : 1 h 24 min
Bit rate mode                            : Constant
Bit rate                                 : 30.0 Mb/s
Nominal bit rate                         : 32.0 Mb/s
Width                                    : 1 920 pixels
Height                                   : 1 080 pixels
Display aspect ratio                     : 16:9
Frame rate mode                          : Constant
Frame rate                               : 23.976 (24000/1001) FPS
Color space                              : YUV
Chroma subsampling                       : 4:2:0
Bit depth                                : 8 bits
Scan type                                : Progressive
Bits/(Pixel*Frame)                       : 0.604
Stream size                              : 17.8 GiB (90%)
Default                                  : Yes
Forced                                   : No

Audio
ID                                       : 2
Format                                   : DTS
Format/Info                              : Digital Theater Systems
Format profile                           : MA / Core
Mode                                     : 16
Format settings, Endianness              : Big
Codec ID                                 : A_DTS
Duration                                 : 1 h 24 min
Bit rate mode                            : Variable / Constant
Bit rate                                 : 3 245 kb/s / 1 509 kb/s
Channel(s)                               : 6 channels
Channel positions                        : Front: L C R, Side: L R, LFE
Sampling rate                            : 48.0 kHz
Frame rate                               : 93.750 FPS (512 spf)
Bit depth                                : 24 bits
Compression mode                         : Lossless / Lossy
Stream size                              : 1.92 GiB (10%)
Language                                 : English
Default                                  : Yes
Forced                                   : No

Text
ID                                       : 3
Format                                   : PGS
Muxing mode                              : zlib
Codec ID                                 : S_HDMV/PGS
Codec ID/Info                            : Picture based subtitle format used on BDs/HD-DVDs
Duration                                 : 1 h 21 min
Bit rate                                 : 68.9 kb/s
Count of elements                        : 2526
Stream size                              : 40.2 MiB (0%)
Language                                 : English
Default                                  : Yes
Forced                                   : No

Menu
00:00:00.000                             : :Chapter 01
00:10:01.809                             : :Chapter 02
00:18:29.066                             : :Chapter 03
00:26:54.738                             : :Chapter 04
00:37:36.212                             : :Chapter 05
00:51:35.133                             : :Chapter 06
01:01:26.933                             : :Chapter 07
01:08:47.957                             : :Chapter 08
01:15:00.370                             : :Chapter 09

Скриншоты:



Все одноименные релизы в Клубе

Время раздачи: с 13:00 до 23:00
[NNM-Club.me]_Violentia.2018.1080p.BluRay.REMUX.AVC.DTS-HD.MA 5.1-OMEGA.mkv.torrent
 Торрент: Платиновая раздача  Зарегистрирован
 
Скачать


Примагнититься
 Зарегистрирован:   06 Май 2019 00:17:41
 Размер:   19,7 GB  (
 Рейтинг:    (Голосов: 5)
 Поблагодарили:   32
 Проверка:   Оформление проверено модератором 06 Май 2019 00:19:09
Как cкачать  ·  Как раздать  ·  Правильно оформить  ·  Поднять ратио!  
OlegYch100500
Стаж: 4 года 5 мес.
Сообщений: 32
Ratio: 7,003
0.4%
Показать сообщения:   
Начать новую тему   Ответить на тему    Торрент-трекер NNM-Club -> Зарубежное кино -> Фильмы в оригинале (HD, UHD, UHD-LQ) Часовой пояс: GMT + 3
Страница 1 из 1