Классический форум-трекер
canvas not supported
Нас вместе: 4 083 607
Платим за отзывы

Чего хотят мужчины / What Men Want (2019) BDRemux [H.264/1080p] [EN / EN and other Sub]


 
 
RSS
Начать новую тему   Ответить на тему    Торрент-трекер NNM-Club -> Зарубежное кино -> Фильмы в оригинале (HD, UHD, UHD-LQ)
Автор Сообщение
smaster67 ®
Модератор Видео
Покровитель талантов Uploader 300+
Стаж: 10 лет 5 мес.
Сообщений: 7117
Ratio: 223,715
Поблагодарили: 215508
100%
Чего хотят мужчины / What Men Want (2019) BDRemux [H.264/1080p] [EN / EN and other Sub]

Производство: США, BET Films, Paramount Players, Will Packer Productions
Жанр: фэнтези, мелодрама, комедия

Режиссер: Адам Шенкман
Актеры: Тараджи П. Хенсон, Кристен Ледлоу, Джош Бренер, Келлан Латс, Джастин Альварез, Крис Витаск, Макс Гринфилд, Пол Брайан Джонсон, Брайан Босворт, Каусар Мохаммед, Ричард Раундтри

Описание:
Али Дэвис - успешный менеджер спортивных звезд, продвижению по карьере которой постоянно мешают коллеги-мужчины. Получив возможность слышать мысли мужчин, она использует свой талант, чтобы изменить правила игры и заключить контракт с молодым и талантливым бейсболистом.



Продолжительность: 01:57:06
Качество видео: BDRemux
Перевод: Отсутствует
Язык озвучки: Английский
Субтитры: английские, немецкие, испанские, французские, малайские, китайские, корейские, хинди, голландские, румынские

Видео: AVC/H.264, 1920x1080, 30977 kbps
Аудио №1: английский, TrueHD, 7.1, 3741 kbps
Аудио №2: английский, AC3, 5.1, 640 kbps
Аудио №3: английский, AC3, 2.0, 224 kbps
Код: выделить все
General
Unique ID                                : 235100769661590734008620014765354168857 (0xB0DEC2DF930AE364D3095844C44EB219)
Complete name                            : What.Men.Want.2019.1080p.BluRay.REMUX.AVC.Atmos.TrueHD7.1-iFT\What.Men.Want.2019.1080p.BluRay.REMUX.AVC.Atmos.TrueHD7.1-iFT.mkv
Format                                   : Matroska
Format version                           : Version 4 / Version 2
File size                                : 29.6 GiB
Duration                                 : 1 h 57 min
Overall bit rate mode                    : Variable
Overall bit rate                         : 36.2 Mb/s
Encoded date                             : UTC 2019-05-08 11:27:31
Writing application                      : mkvmerge v22.0.0 ('At The End Of The World') 64-bit
Writing library                          : libebml v1.3.5 + libmatroska v1.4.8

Video
ID                                       : 1
Format                                   : AVC
Format/Info                              : Advanced Video Codec
Format profile                           : High@L4.1
Format settings, CABAC                   : Yes
Format settings, ReFrames                : 4 frames
Codec ID                                 : V_MPEG4/ISO/AVC
Duration                                 : 1 h 57 min
Bit rate mode                            : Variable
Bit rate                                 : 31.0 Mb/s
Maximum bit rate                         : 34.8 Mb/s
Width                                    : 1 920 pixels
Height                                   : 1 080 pixels
Display aspect ratio                     : 16:9
Frame rate mode                          : Constant
Frame rate                               : 23.976 (24000/1001) FPS
Color space                              : YUV
Chroma subsampling                       : 4:2:0
Bit depth                                : 8 bits
Scan type                                : Progressive
Bits/(Pixel*Frame)                       : 0.623
Stream size                              : 25.3 GiB (86%)
Language                                 : English
Default                                  : Yes
Forced                                   : No

Audio #1
ID                                       : 2
Format                                   : TrueHD
Codec ID                                 : A_TRUEHD
Duration                                 : 1 h 57 min
Bit rate mode                            : Variable
Bit rate                                 : 3 741 kb/s
Maximum bit rate                         : 6 204 kb/s
Channel(s)                               : 8 channels
Channel positions                        : Front: L C R, Side: L R, Back: L R, LFE
Sampling rate                            : 48.0 kHz
Frame rate                               : 1 200.000 FPS (40 spf)
Compression mode                         : Lossless
Stream size                              : 3.06 GiB (10%)
Language                                 : English
Default                                  : Yes
Forced                                   : No

Audio #2
ID                                       : 3
Format                                   : AC-3
Format/Info                              : Audio Coding 3
Mode extension                           : CM (complete main)
Format settings, Endianness              : Big
Codec ID                                 : A_AC3
Duration                                 : 1 h 57 min
Bit rate mode                            : Constant
Bit rate                                 : 640 kb/s
Channel(s)                               : 6 channels
Channel positions                        : Front: L C R, Side: L R, LFE
Sampling rate                            : 48.0 kHz
Frame rate                               : 31.250 FPS (1536 spf)
Compression mode                         : Lossy
Stream size                              : 536 MiB (2%)
Language                                 : English
Default                                  : No
Forced                                   : No

Audio #3
ID                                       : 4
Format                                   : AC-3
Format/Info                              : Audio Coding 3
Mode extension                           : CM (complete main)
Format settings, Endianness              : Big
Codec ID                                 : A_AC3
Duration                                 : 1 h 57 min
Bit rate mode                            : Constant
Bit rate                                 : 224 kb/s
Channel(s)                               : 2 channels
Channel positions                        : Front: L R
Sampling rate                            : 48.0 kHz
Frame rate                               : 31.250 FPS (1536 spf)
Compression mode                         : Lossy
Stream size                              : 188 MiB (1%)
Language                                 : English
Default                                  : No
Forced                                   : No

Text #1
ID                                       : 5
Format                                   : PGS
Muxing mode                              : zlib
Codec ID                                 : S_HDMV/PGS
Codec ID/Info                            : Picture based subtitle format used on BDs/HD-DVDs
Duration                                 : 1 h 52 min
Bit rate                                 : 64.3 kb/s
Count of elements                        : 4298
Stream size                              : 51.6 MiB (0%)
Language                                 : English
Default                                  : Yes
Forced                                   : No

Text #2
ID                                       : 6
Format                                   : PGS
Muxing mode                              : zlib
Codec ID                                 : S_HDMV/PGS
Codec ID/Info                            : Picture based subtitle format used on BDs/HD-DVDs
Duration                                 : 1 h 52 min
Bit rate                                 : 73.4 kb/s
Count of elements                        : 4809
Stream size                              : 59.1 MiB (0%)
Language                                 : English
Default                                  : No
Forced                                   : No

Text #3
ID                                       : 7
Format                                   : PGS
Muxing mode                              : zlib
Codec ID                                 : S_HDMV/PGS
Codec ID/Info                            : Picture based subtitle format used on BDs/HD-DVDs
Duration                                 : 1 h 56 min
Bit rate                                 : 69.2 kb/s
Count of elements                        : 4300
Stream size                              : 57.7 MiB (0%)
Language                                 : Malay
Default                                  : No
Forced                                   : No

Text #4
ID                                       : 8
Format                                   : PGS
Muxing mode                              : zlib
Codec ID                                 : S_HDMV/PGS
Codec ID/Info                            : Picture based subtitle format used on BDs/HD-DVDs
Duration                                 : 1 h 56 min
Bit rate                                 : 47.5 kb/s
Count of elements                        : 4302
Stream size                              : 39.6 MiB (0%)
Language                                 : Chinese
Default                                  : No
Forced                                   : No

Text #5
ID                                       : 9
Format                                   : PGS
Muxing mode                              : zlib
Codec ID                                 : S_HDMV/PGS
Codec ID/Info                            : Picture based subtitle format used on BDs/HD-DVDs
Duration                                 : 1 h 56 min
Bit rate                                 : 62.0 kb/s
Count of elements                        : 4180
Stream size                              : 51.7 MiB (0%)
Language                                 : German
Default                                  : No
Forced                                   : No

Text #6
ID                                       : 10
Format                                   : PGS
Muxing mode                              : zlib
Codec ID                                 : S_HDMV/PGS
Codec ID/Info                            : Picture based subtitle format used on BDs/HD-DVDs
Duration                                 : 1 h 56 min
Bit rate                                 : 52.5 kb/s
Count of elements                        : 3756
Stream size                              : 43.7 MiB (0%)
Language                                 : Spanish
Default                                  : No
Forced                                   : No

Text #7
ID                                       : 11
Format                                   : PGS
Muxing mode                              : zlib
Codec ID                                 : S_HDMV/PGS
Codec ID/Info                            : Picture based subtitle format used on BDs/HD-DVDs
Duration                                 : 1 h 56 min
Bit rate                                 : 61.1 kb/s
Count of elements                        : 4286
Stream size                              : 50.9 MiB (0%)
Language                                 : French
Default                                  : No
Forced                                   : No

Text #8
ID                                       : 12
Format                                   : PGS
Muxing mode                              : zlib
Codec ID                                 : S_HDMV/PGS
Codec ID/Info                            : Picture based subtitle format used on BDs/HD-DVDs
Duration                                 : 1 h 56 min
Bit rate                                 : 54.2 kb/s
Count of elements                        : 4302
Stream size                              : 45.1 MiB (0%)
Language                                 : Hindi
Default                                  : No
Forced                                   : No

Text #9
ID                                       : 13
Format                                   : PGS
Muxing mode                              : zlib
Codec ID                                 : S_HDMV/PGS
Codec ID/Info                            : Picture based subtitle format used on BDs/HD-DVDs
Duration                                 : 1 h 56 min
Bit rate                                 : 48.1 kb/s
Count of elements                        : 4302
Stream size                              : 40.1 MiB (0%)
Language                                 : Korean
Default                                  : No
Forced                                   : No

Text #10
ID                                       : 14
Format                                   : PGS
Muxing mode                              : zlib
Codec ID                                 : S_HDMV/PGS
Codec ID/Info                            : Picture based subtitle format used on BDs/HD-DVDs
Duration                                 : 1 h 56 min
Bit rate                                 : 52.8 kb/s
Count of elements                        : 4302
Stream size                              : 44.0 MiB (0%)
Language                                 : Chinese
Default                                  : No
Forced                                   : No

Text #11
ID                                       : 15
Format                                   : PGS
Muxing mode                              : zlib
Codec ID                                 : S_HDMV/PGS
Codec ID/Info                            : Picture based subtitle format used on BDs/HD-DVDs
Duration                                 : 1 h 56 min
Bit rate                                 : 46.2 kb/s
Count of elements                        : 2770
Stream size                              : 38.5 MiB (0%)
Language                                 : Dutch
Default                                  : No
Forced                                   : No

Text #12
ID                                       : 16
Format                                   : PGS
Muxing mode                              : zlib
Codec ID                                 : S_HDMV/PGS
Codec ID/Info                            : Picture based subtitle format used on BDs/HD-DVDs
Duration                                 : 1 h 56 min
Bit rate                                 : 51.5 kb/s
Count of elements                        : 3824
Stream size                              : 42.9 MiB (0%)
Language                                 : Romanian
Default                                  : No
Forced                                   : No

Text #13
ID                                       : 17
Format                                   : PGS
Muxing mode                              : zlib
Codec ID                                 : S_HDMV/PGS
Codec ID/Info                            : Picture based subtitle format used on BDs/HD-DVDs
Duration                                 : 1 h 52 min
Bit rate                                 : 73.8 kb/s
Count of elements                        : 3932
Stream size                              : 59.5 MiB (0%)
Language                                 : English
Default                                  : No
Forced                                   : No

Text #14
ID                                       : 18
Format                                   : PGS
Muxing mode                              : zlib
Codec ID                                 : S_HDMV/PGS
Codec ID/Info                            : Picture based subtitle format used on BDs/HD-DVDs
Duration                                 : 1 h 56 min
Bit rate                                 : 69.1 kb/s
Count of elements                        : 3922
Stream size                              : 57.8 MiB (0%)
Language                                 : German
Default                                  : No
Forced                                   : No

Text #15
ID                                       : 19
Format                                   : PGS
Muxing mode                              : zlib
Codec ID                                 : S_HDMV/PGS
Codec ID/Info                            : Picture based subtitle format used on BDs/HD-DVDs
Duration                                 : 1 h 56 min
Bit rate                                 : 62.6 kb/s
Count of elements                        : 3932
Stream size                              : 52.4 MiB (0%)
Language                                 : Spanish
Default                                  : No
Forced                                   : No

Text #16
ID                                       : 20
Format                                   : PGS
Muxing mode                              : zlib
Codec ID                                 : S_HDMV/PGS
Codec ID/Info                            : Picture based subtitle format used on BDs/HD-DVDs
Duration                                 : 1 h 56 min
Bit rate                                 : 64.0 kb/s
Count of elements                        : 3898
Stream size                              : 53.5 MiB (0%)
Language                                 : French
Default                                  : No
Forced                                   : No

Text #17
ID                                       : 21
Format                                   : PGS
Muxing mode                              : zlib
Codec ID                                 : S_HDMV/PGS
Codec ID/Info                            : Picture based subtitle format used on BDs/HD-DVDs
Duration                                 : 1 h 56 min
Bit rate                                 : 51.5 kb/s
Count of elements                        : 3936
Stream size                              : 43.1 MiB (0%)
Language                                 : Korean
Default                                  : No
Forced                                   : No

Menu
00:00:00.000                             : en:00:00:00.000
00:11:26.519                             : en:00:11:26.519
00:22:01.904                             : en:00:22:01.904
00:31:02.444                             : en:00:31:02.444
00:43:07.668                             : en:00:43:07.668
00:51:37.970                             : en:00:51:37.970
01:01:19.843                             : en:01:01:19.843
01:10:45.616                             : en:01:10:45.616
01:18:53.395                             : en:01:18:53.395
01:28:42.901                             : en:01:28:42.901
01:38:51.843                             : en:01:38:51.843
01:47:41.664                             : en:01:47:41.664

Скриншоты:



Все одноименные релизы в Клубе

Время раздачи: с 13:00 до 23:00
[NNM-Club.me]_What.Men.Want.2019.1080p.BluRay.REMUX.AVC.Atmos.TrueHD7.1-iFT.mkv.torrent
 Торрент: Платиновая раздача  Зарегистрирован
 
Скачать


Примагнититься
 Зарегистрирован:   08 Май 2019 22:01:38
 Размер:   29,6 GB  (
 Рейтинг:    (Голосов: 8)
 Поблагодарили:   32
 Проверка:   Оформление проверено модератором 08 Май 2019 22:05:15
Как cкачать  ·  Как раздать  ·  Правильно оформить  ·  Поднять ратио!  
Loading...
Dima_beleb
Стаж: 5 лет 5 мес.
Сообщений: 44
Ratio: 2,232
0%
как меня задолбали эти феминистические рэмэйки старых хороших американских фильмов.
Показать сообщения:   
Начать новую тему   Ответить на тему    Торрент-трекер NNM-Club -> Зарубежное кино -> Фильмы в оригинале (HD, UHD, UHD-LQ) Часовой пояс: GMT + 3
Страница 1 из 1